Subcategories

VA - Vision One (2CD) (1997) {Aum Fidelity} **[RE-UP]**

Posted By: TestTickles
VA - Vision One (2CD) (1997) {Aum Fidelity} **[RE-UP]**

VA - Vision One (2CD) (1997) {Aum Fidelity}
EAC Rip | FLAC with CUE and log | scans | 702 mb
MP3 CBR 320kbps | RAR | 314 mb
Genre - jazz, free jazz

Vision One: Vision Festival 1997 Compiled is a 1997 jazz compilation double CD set. Released by Aum Fidelity, it was recorded from a festival in New York in 1997. Some of the artists featured include William Parker, John Zorn, David S. Ware, Assif Tsahar, and Thurston Moore (then of Sonic Youth). Only 1000 copies of this had been made.
Aum Fidelity is in the midst of a period when every recording is a must-have. This compilation of live tracks from 1997's Vision Festival is more than just the documentation of a particular event. The Festival, which brought together the core of the label's roster (Matthew Shipp, David S. Ware, William Parker, Other Dimensions in Music) with the likes of John Zorn, Thurston Moore, Butch Morris and many others, was more than a series of concerts. Forgive the soapbox stance but it's an indication that improvisation , as inherited from the free jazz pioneers of the late fifties and early sixties, is now the source of a vital community of artists that are, against huge odds and commercial apathy, forging a coalition that is cutting across lines. Those lines can be seen as musical, generational, geographical, economic, and even racial but the important thing is that this thing is happening.

All of which wouldn't mean much if this double CD set didn't deliver some primo listening, which it does in volume. The performances here shift from the cascading scree and dizzying drumming of Rashied Ali's Prima Material to the remarkable inner workings of William Parker and The Little Huey Creative Music Orchestra to Mark Dresser's remarkably subtle bass solo on "Bosnia." There's a real gem to be found in Thurston Moore/Lawrence Cook/Jon Voigt trio's "Fuzz Against Junk," which features beautifully subtle guitar-bass interplay that builds off the best traditions of the rock power trio and moves into transparent waters. Out of fifteen tracks there's only one that left me cold, a meandering piano-flute duet by Matthew Shipp and Rob Brown and I'll admit that's mostly because my flute tolerance level is so low. The rest are all worth going back to again and again. Most importantly, Vision Volume One fulfills the prime directive of any compilation; it entices you to check out the recordings of the artists represented. Personally, that will mean the pursuit of Other Dimensions in Music and The Little Huey Creative Music Orchestra.

The CD booklet provides some examples of the artwork associated with the Vision Festival and refers to the interdisciplinary work that went on there between painters, sculptors, dancers, and poets. The entire package is worth picking up.

VA - Vision One (2CD) (1997) {Aum Fidelity} **[RE-UP]**

DISC 1
Hurricane - Trio Hurricane (6:30)
Mark Dresser Quartet - Bosnia (7:30)
John Zorn/Susie Ibarra - Untitled (5:15)
William Parker & The Little Huey Creative Music Orchestra - Excerpt From Hoang (13:30)
Thurston Moore/Lawrence Cook/Jon Voigt - Fuzz Against Junk (7:50)
Rob Brown/Matthew Shipp - Vision Statement 2 (9:25)
David S: Ware Quartet - Lockup '97 (8:20)
Borah Bergman+denis Charles+roy Campbell - We Remember You (7:20)

DISC 2
Cooper-moore Quartet - Coleus In Bloom/paradox (13:30)
Patricia Nicholson Ensemble - Song (2:47)
Rashied Ali's Prima Materia - Excerpt From Meditation (7:30)
Bill Cole's Untempered Ensemble - Excerpt From Seasoning The Greens (15:10)
Butch Morris - Excerpt From Conduction #72 (7:30)
Assif Tsahar Trio With John Tchicai - Event Horizon (10:00)
Other Dimensions In Music - Dewey's Banquet (12:30)

Produced & Compiled by Steven Joerg, with assistance from Patricia Nicholson, Steve Dollar, William Parker & Ben Young
Recorded by Alen Hadzi Stefanov at the Orensanz Art Center, NYC, 28 May-1 June, 1997
Mastered by Chris Flam at Mindswerve

EAC extraction logfile from 13. January 2006, 14:59 for CD
Various/Vision One (Disc 1)

Used drive - LITE-ON DVDRW SOHW-1633S Adapter - 0 ID - 0
Read mode - Secure with NO C2, accurate stream, disable cache
Read offset correction - 12
Overread into Lead-In and Lead-Out - No

Used output format - Internal WAV Routines
44.100 Hz; 16 Bit; Stereo

Other options -
Fill up missing offset samples with silence - Yes
Delete leading and trailing silent blocks - No
Installed external ASPI interface


Track 1
Filename D:\FLAC\VA - Vision One (2CD) (1997) [FLAC] {Aum Fidelity}]\Disc 1\01 - Hurricane - Trio Hurricane.wav

Pre-gap length 0:00:02.00

Peak level 100.0 %
Track quality 100.0 %
Test CRC 43AD0790
Copy CRC 43AD0790
Copy OK

Track 2
Filename D:\FLAC\VA - Vision One (2CD) (1997) [FLAC] {Aum Fidelity}]\Disc 1\02 - Mark Dresser Quartet - Bosnia.wav

Peak level 100.0 %
Track quality 99.9 %
Test CRC DF645055
Copy CRC DF645055
Copy OK

Track 3
Filename D:\FLAC\VA - Vision One (2CD) (1997) [FLAC] {Aum Fidelity}]\Disc 1\03 - John Zorn, Susie Ibarra - Untitled.wav

Peak level 63.8 %
Track quality 100.0 %
Test CRC 85BBD4DF
Copy CRC 85BBD4DF
Copy OK

Track 4
Filename D:\FLAC\VA - Vision One (2CD) (1997) [FLAC] {Aum Fidelity}]\Disc 1\04 - William Parker & The Little Huey Creative Music Orchestra - Excerpt From Huang.wav

Peak level 100.0 %
Track quality 100.0 %
Test CRC C6AE7C42
Copy CRC C6AE7C42
Copy OK

Track 5
Filename D:\FLAC\VA - Vision One (2CD) (1997) [FLAC] {Aum Fidelity}]\Disc 1\05 - Thurston Moore, Lawrence Cook, Jon Voigt - Fuzz Against Junk.wav

Peak level 100.0 %
Track quality 100.0 %
Test CRC 98A6CD53
Copy CRC 98A6CD53
Copy OK

Track 6
Filename D:\FLAC\VA - Vision One (2CD) (1997) [FLAC] {Aum Fidelity}]\Disc 1\06 - Rob Brown, Matthew Shipp - Vision Statement 2.wav

Peak level 100.0 %
Track quality 100.0 %
Test CRC E6474CCA
Copy CRC E6474CCA
Copy OK

Track 7
Filename D:\FLAC\VA - Vision One (2CD) (1997) [FLAC] {Aum Fidelity}]\Disc 1\07 - David S. Ware Quartet - Lockup '97.wav

Peak level 100.0 %
Track quality 99.9 %
Test CRC 7A4773AB
Copy CRC 7A4773AB
Copy OK

Track 8
Filename D:\FLAC\VA - Vision One (2CD) (1997) [FLAC] {Aum Fidelity}]\Disc 1\08 - Borah Bergman+Denis Charles+Roy Campbell - We Remember You.wav

Peak level 100.0 %
Track quality 100.0 %
Test CRC C2BB0974
Copy CRC C2BB0974
Copy OK

No errors occured


End of status report

–––––––––––––-

EAC extraction logfile from 13. January 2006, 16:07 for CD
Various/Vision One (Disc 2)

Used drive - LITE-ON DVDRW SOHW-1633S Adapter - 0 ID - 0
Read mode - Secure with NO C2, accurate stream, disable cache
Read offset correction - 12
Overread into Lead-In and Lead-Out - No

Used output format - Internal WAV Routines
44.100 Hz; 16 Bit; Stereo

Other options -
Fill up missing offset samples with silence - Yes
Delete leading and trailing silent blocks - No
Installed external ASPI interface


Track 1
Filename D:\FLAC\VA - Vision One (2CD) (1997) [FLAC] {Aum Fidelity}]\Disc 2\01 - Cooper-Moore Quartet - Coleus In Bloom-Paradox.wav

Pre-gap length 0:00:02.00

Peak level 100.0 %
Track quality 100.0 %
Test CRC CE1E85ED
Copy CRC CE1E85ED
Copy OK

Track 2
Filename D:\FLAC\VA - Vision One (2CD) (1997) [FLAC] {Aum Fidelity}]\Disc 2\02 - Patricia Nicholson Ensemble - Song - Patricia Nicholson Ensemble - Song.wav

Pre-gap length 0:00:00.02

Peak level 100.0 %
Track quality 100.0 %
Test CRC 7E3C851D
Copy CRC 7E3C851D
Copy OK

Track 3
Filename D:\FLAC\VA - Vision One (2CD) (1997) [FLAC] {Aum Fidelity}]\Disc 2\03 - Rashied Ali's Prima Materia - Excerpt From Meditation.wav

Pre-gap length 0:00:00.04

Peak level 87.4 %
Track quality 99.9 %
Test CRC B691339E
Copy CRC B691339E
Copy OK

Track 4
Filename D:\FLAC\VA - Vision One (2CD) (1997) [FLAC] {Aum Fidelity}]\Disc 2\04 - Bill Cole's Untempered Ensemble - Excerpt From Seasoning The Greens.wav

Pre-gap length 0:00:00.04

Peak level 100.0 %
Track quality 100.0 %
Test CRC A54CDF98
Copy CRC A54CDF98
Copy OK

Track 5
Filename D:\FLAC\VA - Vision One (2CD) (1997) [FLAC] {Aum Fidelity}]\Disc 2\05 - Butch Thomas - Excerpt From Conduction #72.wav

Pre-gap length 0:00:00.04

Peak level 100.0 %
Track quality 100.0 %
Test CRC AF14FFCA
Copy CRC AF14FFCA
Copy OK

Track 6
Filename D:\FLAC\VA - Vision One (2CD) (1997) [FLAC] {Aum Fidelity}]\Disc 2\06 - Assif Tsahar Trio with John Tchicai - Event Horizon.wav

Pre-gap length 0:00:00.04

Peak level 86.6 %
Track quality 100.0 %
Test CRC 2A3644E3
Copy CRC 2A3644E3
Copy OK

Track 7
Filename D:\FLAC\VA - Vision One (2CD) (1997) [FLAC] {Aum Fidelity}]\Disc 2\07 - Other Dimensions In Music - Dewey's Banquet.wav

Pre-gap length 0:00:00.04

Peak level 100.0 %
Track quality 100.0 %
Test CRC 740C1FC6
Copy CRC 740C1FC6
Copy OK

No errors occured


End of status report


VA - Vision One (2CD) (1997) {Aum Fidelity} **[RE-UP]**