Subcategories

Village People - The Best Of... (1998) {Brioche}

Posted By: TestTickles
Village People - The Best Of... (1998) {Brioche}

Village People - The Best Of… (1998) {Brioche}
EAC Rip | FLAC with log | scans | 515 mb
MP3 CBR 320 kbps | RAR | 175 mb
Genre: R&B, soul, disco

The Best Of Village People is a 1998 compilation CD by American disco group Village People. This was released by a company named after fantastic smelling and tasting bread, Brioche.

01. Y.M.C.A.
02. Macho Man
03. Can't Stop The Music
04. San Francisco
05. In Hollywood
06. Ready For The 80's
07. Key West
08. In The Navy
09. Fire Island
10. Go West
11. Village People
12. Hot Cop
13. Do You Wanna Spend The Night
14. We Want You Megamix
15. Go West

Village People - The Best Of... (1998) {Brioche}


Exact Audio Copy V0.99 prebeta 5 from 4. May 2009

EAC extraction logfile from 12. March 2010, 11:02

Village People / The Best Of…

Used drive : TSSTcorpCDDVDW SH-S202J Adapter: 1 ID: 0

Read mode : Secure
Utilize accurate stream : Yes
Defeat audio cache : No
Make use of C2 pointers : No

Read offset correction : 6
Overread into Lead-In and Lead-Out : No
Fill up missing offset samples with silence : Yes
Delete leading and trailing silent blocks : No
Null samples used in CRC calculations : Yes
Used interface : Installed external ASPI interface
Gap handling : Not detected, thus appended to previous track

Used output format : User Defined Encoder
Selected bitrate : 1024 kBit/s
Quality : High
Add ID3 tag : No
Command line compressor : C:\Programmi\Exact Audio Copy\FLAC\FLAC.EXE
Additional command line options : -8 -V -T "artist=%a" -T "title=%t" -T "album=%g" -T "date=%y" -T "tracknumber=%n" -T "genre=%m" %s


TOC of the extracted CD

Track | Start | Length | Start sector | End sector
––––––––––––––––––––––––––––-
1 | 0:00.00 | 4:48.42 | 0 | 21641
2 | 4:48.42 | 5:14.68 | 21642 | 45259
3 | 10:03.35 | 3:39.02 | 45260 | 61686
4 | 13:42.37 | 5:19.03 | 61687 | 85614
5 | 19:01.40 | 4:55.12 | 85615 | 107751
6 | 23:56.52 | 6:53.63 | 107752 | 138789
7 | 30:50.40 | 5:46.60 | 138790 | 164799
8 | 36:37.25 | 3:45.67 | 164800 | 181741
9 | 40:23.17 | 5:19.55 | 181742 | 205721
10 | 45:42.72 | 6:37.58 | 205722 | 235554
11 | 52:20.55 | 5:11.02 | 235555 | 258881
12 | 57:31.57 | 6:19.08 | 258882 | 287314
13 | 63:50.65 | 3:36.02 | 287315 | 303516
14 | 67:26.67 | 3:30.55 | 303517 | 319321
15 | 70:57.47 | 3:57.68 | 319322 | 337164


Track 1

Filename C:\FLAC\Village People - The Best Of… (1998) [FLAC] {Brioche}\01 - Y.M.C.A..wav

Peak level 99.9 %
Track quality 99.9 %
Test CRC DED20F9E
Copy CRC DED20F9E
Accurately ripped (confidence 1) [37B1441E]
Copy OK

Track 2

Filename C:\FLAC\Village People - The Best Of… (1998) [FLAC] {Brioche}\02 - Macho Man.wav

Peak level 86.2 %
Track quality 100.0 %
Test CRC 4AF72CD7
Copy CRC 4AF72CD7
Accurately ripped (confidence 1) [CD165FEE]
Copy OK

Track 3

Filename C:\FLAC\Village People - The Best Of… (1998) [FLAC] {Brioche}\03 - Can't Stop The Music.wav

Peak level 99.0 %
Track quality 100.0 %
Test CRC B6EC17E2
Copy CRC B6EC17E2
Accurately ripped (confidence 1) [686D2A60]
Copy OK

Track 4

Filename C:\FLAC\Village People - The Best Of… (1998) [FLAC] {Brioche}\04 - San Francisco.wav

Peak level 89.1 %
Track quality 100.0 %
Test CRC 7E976D40
Copy CRC 7E976D40
Accurately ripped (confidence 1) [4616C534]
Copy OK

Track 5

Filename C:\FLAC\Village People - The Best Of… (1998) [FLAC] {Brioche}\05 - In Hollywood.wav

Peak level 89.1 %
Track quality 100.0 %
Test CRC 04F5F1A8
Copy CRC 04F5F1A8
Accurately ripped (confidence 1) [681A72D7]
Copy OK

Track 6

Filename C:\FLAC\Village People - The Best Of… (1998) [FLAC] {Brioche}\06 - Ready For The 80's.wav

Peak level 94.4 %
Track quality 100.0 %
Test CRC 5E95357B
Copy CRC 5E95357B
Accurately ripped (confidence 1) [1160A471]
Copy OK

Track 7

Filename C:\FLAC\Village People - The Best Of… (1998) [FLAC] {Brioche}\07 - Key West.wav

Peak level 99.9 %
Track quality 100.0 %
Test CRC B1D5764C
Copy CRC B1D5764C
Accurately ripped (confidence 1) [CBBAA2EA]
Copy OK

Track 8

Filename C:\FLAC\Village People - The Best Of… (1998) [FLAC] {Brioche}\08 - In The Navy.wav

Peak level 89.5 %
Track quality 100.0 %
Test CRC F76542F6
Copy CRC F76542F6
Accurately ripped (confidence 1) [481B5E3C], AccurateRip returned [48525DC6]
Copy OK

Track 9

Filename C:\FLAC\Village People - The Best Of… (1998) [FLAC] {Brioche}\09 - Fire Island.wav

Peak level 99.9 %
Track quality 100.0 %
Test CRC 3C3887CA
Copy CRC 3C3887CA
Accurately ripped (confidence 1) [6E800FDB]
Copy OK

Track 10

Filename C:\FLAC\Village People - The Best Of… (1998) [FLAC] {Brioche}\10 - Go West.wav

Peak level 99.9 %
Track quality 100.0 %
Test CRC 6B7A5267
Copy CRC 6B7A5267
Accurately ripped (confidence 1) [202B4C0B]
Copy OK

Track 11

Filename C:\FLAC\Village People - The Best Of… (1998) [FLAC] {Brioche}\11 - Village People.wav

Peak level 99.9 %
Track quality 100.0 %
Test CRC 0A4A38E6
Copy CRC 0A4A38E6
Accurately ripped (confidence 1) [23AAD2E3]
Copy OK

Track 12

Filename C:\FLAC\Village People - The Best Of… (1998) [FLAC] {Brioche}\12 - Hot Cop.wav

Peak level 99.7 %
Track quality 100.0 %
Test CRC 43041104
Copy CRC 43041104
Accurately ripped (confidence 1) [431B767F]
Copy OK

Track 13

Filename C:\FLAC\Village People - The Best Of… (1998) [FLAC] {Brioche}\13 - Do You Wanna Spend The Night.wav

Peak level 89.1 %
Track quality 100.0 %
Test CRC 3DF57E55
Copy CRC 3DF57E55
Accurately ripped (confidence 1) [FF5059E8]
Copy OK

Track 14

Filename C:\FLAC\Village People - The Best Of… (1998) [FLAC] {Brioche}\14 - We Want You Megamix.wav

Peak level 88.9 %
Track quality 100.0 %
Test CRC C582A213
Copy CRC C582A213
Accurately ripped (confidence 1) [F9B8DD73]
Copy OK

Track 15

Filename C:\FLAC\Village People - The Best Of… (1998) [FLAC] {Brioche}\15 - Go West.wav

Peak level 89.1 %
Track quality 100.0 %
Test CRC 2EF3C342
Copy CRC 2EF3C342
Accurately ripped (confidence 1) [6A9402CB]
Copy OK


No errors occurred

End of status report


Village People - The Best Of... (1998) {Brioche}


Thank you to the original uploader.