Subcategories

VA - Virtuoso Strings (2003) {Direct Source} **[RE-UP]**

Posted By: TestTickles
VA - Virtuoso Strings (2003) {Direct Source} **[RE-UP]**

VA - Virtuoso Strings (2003) {Direct Source}
EAC Rip | FLAC with CUE and log | scans | 329 mb
MP3 CBR 320kbps | RAR | 158 mb
Genre: classical

Virtuoso Strings is a 2003 compilation CD created by the Direct Source label. Focusing on the string section of an orchestra, some of those performing here include Filarmonica Italiana, Quartetto Amati, and Orchestra La Risonanza.

VA - Virtuoso Strings (2003) {Direct Source} **[RE-UP]**

01. Juan Carlos Rybin/Albert Mackenzie - Scherzo - Brahms
02. Soloists For The Teatro Verdi Di Trieste - Double Concerto For Violin & Piano in D Minor: Allegro - Mendelssohn
03. Orchestra La Risonanza - Violin Concerto In D Major "Grosso Mogol": Allegro - Vivaldi
04. Filarmonica Italiana - Violin Concerto No. 3 In G Major: Adagio - Mozart
05. Orchestra La Risonanza - Overture No. 2 In D Major - Salieri
06. Filarmonica Italiana - Concerto In D Minor For 2 Violins, Strings & Basso Continuo: Vivace - Bach
07. Filarmonica Italiana - Concerto In D Minor For 2 Violins, Strings & Basso Continuo: Largo Ma Non Tanto - Bach
08. Filarmonica Italiana - Concerto In D Minor For 2 Violins, Strings & Basso Continuo: Allegro - Bach
09. St. Petersburg Philharmonic Orchestra - Concerto For Violin In G Minor Op. 28: 1st Movement - Bruch
10. Quartetto Amati - String Quartet No. 12 Op. 96 In F Major "American": Finale - Vivace Non Troppo - Dvorak

Exact Audio Copy V1.1 from 23. June 2015

EAC extraction logfile from 5. December 2016, 13:08

Various Artists / Virtuoso Strings

Used drive : TEAC DVD-ROM DV-28SW Adapter: 1 ID: 0

Read mode : Secure
Utilize accurate stream : Yes
Defeat audio cache : Yes
Make use of C2 pointers : No

Read offset correction : 6
Overread into Lead-In and Lead-Out : No
Fill up missing offset samples with silence : Yes
Delete leading and trailing silent blocks : No
Null samples used in CRC calculations : Yes
Used interface : Native Win32 interface for Win NT & 2000
Gap handling : Appended to previous track

Used output format : Internal WAV Routines
Sample format : 44.100 Hz; 16 Bit; Stereo


TOC of the extracted CD

Track | Start | Length | Start sector | End sector
––––––––––––––––––––––––––––-
1 | 0:00.00 | 5:24.44 | 0 | 24343
2 | 5:24.44 | 18:46.35 | 24344 | 108828
3 | 24:11.04 | 5:19.13 | 108829 | 132766
4 | 29:30.17 | 9:05.38 | 132767 | 173679
5 | 38:35.55 | 4:04.70 | 173680 | 192049
6 | 42:40.50 | 3:38.07 | 192050 | 208406
7 | 46:18.57 | 5:38.28 | 208407 | 233784
8 | 51:57.10 | 4:53.62 | 233785 | 255821
9 | 56:50.72 | 8:14.40 | 255822 | 292911
10 | 65:05.37 | 5:05.47 | 292912 | 315833


Track 1

Filename C:\My Documents\My FLAC\VA - Virtuoso Strings (2003) [FLAC] {Direct Source}\01 - Juan Carlos Rybin,Albert Mackenzie - Scherzo - Brahms.wav

Pre-gap length 0:00:02.00

Peak level 75.5 %
Extraction speed 1.3 X
Track quality 100.0 %
Test CRC 91765F69
Copy CRC 91765F69
Accurately ripped (confidence 2) [4048E16A] (AR v2)
Copy OK

Track 2

Filename C:\My Documents\My FLAC\VA - Virtuoso Strings (2003) [FLAC] {Direct Source}\02 - Soloists For The Teatro Verdi Di Trieste - Double Concerto For Violin & Piano in D Minor- Allegro - Mendelssohn.wav

Pre-gap length 0:00:02.00

Peak level 66.2 %
Extraction speed 1.7 X
Track quality 99.9 %
Test CRC 4FFB422E
Copy CRC 4FFB422E
Accurately ripped (confidence 2) [09399B3C] (AR v2)
Copy OK

Track 3

Filename C:\My Documents\My FLAC\VA - Virtuoso Strings (2003) [FLAC] {Direct Source}\03 - Orchestra La Risonanza - Violin Concerto In D Major ''Grosso Mogol''- Allegro - Vivaldi.wav

Pre-gap length 0:00:02.00

Peak level 91.5 %
Extraction speed 1.9 X
Track quality 100.0 %
Test CRC 6A2C8D67
Copy CRC 6A2C8D67
Accurately ripped (confidence 2) [ADFDC5BA] (AR v2)
Copy OK

Track 4

Filename C:\My Documents\My FLAC\VA - Virtuoso Strings (2003) [FLAC] {Direct Source}\04 - Filarmonica Italiana - Violin Concerto No. 3 In G Major- Adagio - Mozart.wav

Pre-gap length 0:00:02.00

Peak level 38.1 %
Extraction speed 2.1 X
Track quality 100.0 %
Test CRC DC80C395
Copy CRC DC80C395
Accurately ripped (confidence 2) [443B71CD] (AR v2)
Copy OK

Track 5

Filename C:\My Documents\My FLAC\VA - Virtuoso Strings (2003) [FLAC] {Direct Source}\05 - Orchestra La Risonanza - Overture No. 2 In D Major - Salieri.wav

Pre-gap length 0:00:02.00

Peak level 92.1 %
Extraction speed 2.1 X
Track quality 100.0 %
Test CRC C0089285
Copy CRC C0089285
Accurately ripped (confidence 2) [498F350D] (AR v2)
Copy OK

Track 6

Filename C:\My Documents\My FLAC\VA - Virtuoso Strings (2003) [FLAC] {Direct Source}\06 - Filarmonica Italiana - Concerto In D Minor For 2 Violins, Strings & Basso Continuo- Vivace - Bach.wav

Pre-gap length 0:00:02.00

Peak level 73.6 %
Extraction speed 1.9 X
Track quality 99.9 %
Test CRC 4CA12CD9
Copy CRC 4CA12CD9
Accurately ripped (confidence 2) [B814880D] (AR v2)
Copy OK

Track 7

Filename C:\My Documents\My FLAC\VA - Virtuoso Strings (2003) [FLAC] {Direct Source}\07 - Filarmonica Italiana - Concerto In D Minor For 2 Violins, Strings & Basso Continuo- Largo Ma Non Tanto - Bach.wav

Pre-gap length 0:00:02.00

Peak level 71.1 %
Extraction speed 2.3 X
Track quality 100.0 %
Test CRC 46750540
Copy CRC 46750540
Accurately ripped (confidence 2) [1B1C6541] (AR v2)
Copy OK

Track 8

Filename C:\My Documents\My FLAC\VA - Virtuoso Strings (2003) [FLAC] {Direct Source}\08 - Filarmonica Italiana - Concerto In D Minor For 2 Violins, Strings & Basso Continuo- Allegro - Bach.wav

Pre-gap length 0:00:02.00

Peak level 75.7 %
Extraction speed 0.6 X
Track quality 99.9 %
Test CRC 27E3822E
Copy CRC 27E3822E
Accurately ripped (confidence 2) [641C3565] (AR v2)
Copy OK

Track 9

Filename C:\My Documents\My FLAC\VA - Virtuoso Strings (2003) [FLAC] {Direct Source}\09 - St. Petersburg Philharmonic Orchestra - Concerto For Violin In G Minor Op. 28- 1st Movement - Bruch.wav

Pre-gap length 0:00:02.00

Peak level 100.0 %
Extraction speed 2.5 X
Track quality 100.0 %
Test CRC 207AFA8D
Copy CRC 207AFA8D
Accurately ripped (confidence 2) [D1C8F90A] (AR v2)
Copy OK

Track 10

Filename C:\My Documents\My FLAC\VA - Virtuoso Strings (2003) [FLAC] {Direct Source}\10 - Quartetto Amati - String Quartet No. 12 Op. 96 In F Major ''American''- Finale- Vivace Non Troppo - Dvorak.wav

Pre-gap length 0:00:02.00

Peak level 85.1 %
Extraction speed 2.5 X
Track quality 100.0 %
Test CRC 9E119684
Copy CRC 9E119684
Accurately ripped (confidence 2) [EED60A1C] (AR v2)
Copy OK


All tracks accurately ripped

No errors occurred

End of status report

–– CUETools DB Plugin V2.1.6

[CTDB TOCID: aDC5twXePFb9hAAj8Ji7BpVZjd4-] found
Submit result: aDC5twXePFb9hAAj8Ji7BpVZjd4- has been confirmed
Track | CTDB Status
1 | (1/1) Accurately ripped
2 | (1/1) Accurately ripped
3 | (1/1) Accurately ripped
4 | (1/1) Accurately ripped
5 | (1/1) Accurately ripped
6 | (1/1) Accurately ripped
7 | (1/1) Accurately ripped
8 | (1/1) Accurately ripped
9 | (1/1) Accurately ripped
10 | (1/1) Accurately ripped


==== Log checksum 91FD7CAB5590C2C6EDFCFB2E08C4DE5C16440286B13C12244FF64CF1745F218E ====


VA - Virtuoso Strings (2003) {Direct Source} **[RE-UP]**