Subcategories

Vladimir Cosma - Cosma Cinema Collection Vol. 22: Films de Claude Zidi (2001)

Posted By: Designol
Vladimir Cosma - Cosma Cinema Collection Vol. 22: Films de Claude Zidi (2001)

Vladimir Cosma - Cosma Cinema Collection Vol. 22: Films de Claude Zidi (2001)
EAC | FLAC | Tracks (Cue&Log) ~ 415 Mb (incl 5%) | Mp3 (CBR320/Stereo) ~ 163 Mb (incl 5%)
Genre: Soundtrack, Score | Label: Pomme Music | # 952 802 | Time: 01:05:03 | Scans ~ 112 Mb

Cosma Cinema Collection Vol. 22 includes the soundtracks to films by Claude Zidi: Inspecteur la Bavure, Banzaï, Les Rois Du Gag, L'aile ou la cuisse, Vous n'aurez pas l'Alsace et la Lorraine.
One of France and Europe's most distinguished film composers, Vladimir Cosma scored more than 150 films and TV productions. Although he enjoyed almost immediate success in comedies, he continued to experiment with different styles and genres, and this versatility brought him wide international acclaim.

Born on April 13, 1940, in Bucharest, Romania, to the family of a renowned conductor and concert pianist, Cosma studied music from his early years onward, eventually attending the National Conservatory in Bucharest (from which he graduated with two first prizes, for violin and composition). In 1963, he went to Paris to advance his studies at the French Conservatory, where, in addition to his classical background, he developed an interest in jazz, folk music, and film music.

Between 1964 and 1967, he toured the world as a concert violinist, visiting the U.S., Latin America, and Southeast Asia. A meeting with popular film composer Michel Legrand became the first step toward his future career. Cosma always credits Legrand's importance, though he also admits the influence of such composers as Burt Bacharach and Henry Mancini.

In 1967, he began his long-running partnership with film director Yves Robert, for whom he scored the international hits Alexandre (1967), The Tall Blond With One Black Shoe (1972), and The Return of the Tall Blond (1974), as well as the critically acclaimed dramas My Father's Glory and My Mother's Castle (both in 1990). He also wrote the music for several comedies directed by Francis Veber and Gerard Oury, starring such hit French comedians as Pierre Richard and Louis de Funes.

One of his biggest international hits was the Erik Satie-inspired soundtrack for Diva (1981), for which he was awarded his first Cesar (the French equivalent of the Oscar). He received another Cesar for Le Bal (1983), and the main instrumental theme from it became a substantial hit worldwide. Among the other awards given to Vladimir Cosma are the Sept d'Or, the French TV award for L'ete '36 (1986), and a Cannes Film Festival award for the entire body of his work.

Yuri German, Allmusic.com

Vladimir Cosma - Cosma Cinema Collection Vol. 22: Films de Claude Zidi (2001)



Vladimir Cosma - Cosma Cinema Collection Vol. 22: Films de Claude Zidi (2001)



Tracklist:

L'inspecteur Labavure

01. Generique (L'inspecteur Labavure) (02:39)
02. Substitution (L'inspecteur Labavure) (04:22)
03. Traffic (L'inspecteur Labavure) (02:05)
04. La reconstitution (L'inspecteur Labavure) (01:24)
05. Big bavure (L'inspecteur Labavure) (01:56)

Banzaï

06. Banzai rapshodie (Banzai) (05:31)
07. Rhapsodie in Bronx (Banzai) (03:06)
08. Sur la route de Tunis (Banzai) (01:04)
09. Hong Kong flirt (Banzai) (01:45)
10. Hot dog (Banzai) (02:09)
11. SOS Planete (Banzai) (01:08)
12. Le monstre (Banzai) (01:12)
13. Ben Zidi melodie (Banzai) (03:22)

Les rois du gag

14. Les rois du gag (Les rois du gag) (03:08)
15. Gaetan (Les rois du gag) (01:37)
16. Cabine de Plage (Les rois du gag) (00:59)
17. Paul et Francois (Les rois du gag) (01:02)
18. Don Welson Corleone (Les rois du gag) (01:52)
19. Prise d'otage (Les rois du gag) (01:25)
20. Le dernier homme (Les rois du gag) (05:43)
21. Alexandra (Les rois du gag) (01:00)

L'aile ou la cuisse

22. Concerto gastronomique (L'aile ou la cuisse) (03:04)
23. Tarte a la creme (L'aile ou la cuisse) (02:00)
24. L'usine Tricatel (L'aile ou la cuisse) (01:42)
25. Jumbo l'elephant (L'aile ou la cuisse) (02:59)
26. Conecerto gastronomique (allege) (L'aile ou la cuisse) (02:58)

Vous n'aurez pas l'Alsace et la Lorraine

27. Chanson du Chevalier Blanc (Vous n'aurez pas l'Alsace et la Lorraine) (01:45)
28. Theme des Mousquetaires (Vous n'aurez pas l'Alsace et la Lorraine) (01:54)


Exact Audio Copy V1.0 beta 3 from 29. August 2011

EAC extraction logfile from 30. May 2013, 16:31

Vladimir Cosma / L'inspecteur La Bavure / Banzai

Used drive : PLEXTOR DVDR PX-L890SA Adapter: 1 ID: 0

Read mode : Secure
Utilize accurate stream : Yes
Defeat audio cache : Yes
Make use of C2 pointers : No

Read offset correction : 6
Overread into Lead-In and Lead-Out : No
Fill up missing offset samples with silence : Yes
Delete leading and trailing silent blocks : No
Null samples used in CRC calculations : Yes
Used interface : Installed external ASPI interface
Gap handling : Appended to previous track

Used output format : User Defined Encoder
Selected bitrate : 1024 kBit/s
Quality : High
Add ID3 tag : No
Command line compressor : C:\Program Files\Exact Audio Copy\Flac\flac.exe
Additional command line options : -V -8 -T "Genre=%genre%" -T "Artist=%artist%" -T "Title=%title%" -T "Album=%albumtitle%" -T "Date=%year%" -T "Tracknumber=%tracknr%" -T "Comment=%comment%" %source%


TOC of the extracted CD

Track | Start | Length | Start sector | End sector
––––––––––––––––––––––––––––-
1 | 0:00.32 | 2:39.26 | 32 | 11982
2 | 2:39.58 | 4:22.05 | 11983 | 31637
3 | 7:01.63 | 2:05.60 | 31638 | 41072
4 | 9:07.48 | 1:24.05 | 41073 | 47377
5 | 10:31.53 | 1:56.60 | 47378 | 56137
6 | 12:28.38 | 5:31.55 | 56138 | 81017
7 | 18:00.18 | 3:06.32 | 81018 | 94999
8 | 21:06.50 | 1:04.28 | 95000 | 99827
9 | 22:11.03 | 1:45.65 | 99828 | 107767
10 | 23:56.68 | 2:09.02 | 107768 | 117444
11 | 26:05.70 | 1:08.05 | 117445 | 122549
12 | 27:14.00 | 1:12.60 | 122550 | 128009
13 | 28:26.60 | 3:22.13 | 128010 | 143172
14 | 31:48.73 | 3:08.00 | 143173 | 157272
15 | 34:56.73 | 1:37.05 | 157273 | 164552
16 | 36:34.03 | 0:59.67 | 164553 | 169044
17 | 37:33.70 | 1:02.53 | 169045 | 173747
18 | 38:36.48 | 1:52.42 | 173748 | 182189
19 | 40:29.15 | 1:25.10 | 182190 | 188574
20 | 41:54.25 | 5:43.25 | 188575 | 214324
21 | 47:37.50 | 1:00.05 | 214325 | 218829
22 | 48:37.55 | 3:04.03 | 218830 | 232632
23 | 51:41.58 | 2:00.17 | 232633 | 241649
24 | 53:42.00 | 1:42.63 | 241650 | 249362
25 | 55:24.63 | 2:59.40 | 249363 | 262827
26 | 58:24.28 | 2:58.27 | 262828 | 276204
27 | 61:22.55 | 1:45.53 | 276205 | 284132
28 | 63:08.33 | 1:54.74 | 284133 | 292756


Track 1

Filename F:\torrent\Linspecteur La Bavure _Banzai_Vladimir Cosma\score\01 Generique (L'inspecteur Labavure).wav

Pre-gap length 0:00:02.32

Peak level 96.6 %
Extraction speed 4.1 X
Track quality 99.9 %
Test CRC EABE8F1A
Copy CRC EABE8F1A
Track not present in AccurateRip database
Copy OK

Track 2

Filename F:\torrent\Linspecteur La Bavure _Banzai_Vladimir Cosma\score\02 Substitution (L'inspecteur Labavure).wav

Pre-gap length 0:00:00.03

Peak level 81.6 %
Extraction speed 5.7 X
Track quality 100.0 %
Test CRC E8CB15CF
Copy CRC E8CB15CF
Track not present in AccurateRip database
Copy OK

Track 3

Filename F:\torrent\Linspecteur La Bavure _Banzai_Vladimir Cosma\score\03 Traffic (L'inspecteur Labavure).wav

Pre-gap length 0:00:00.03

Peak level 69.9 %
Extraction speed 4.4 X
Track quality 99.9 %
Test CRC 70F53B7C
Copy CRC 70F53B7C
Track not present in AccurateRip database
Copy OK

Track 4

Filename F:\torrent\Linspecteur La Bavure _Banzai_Vladimir Cosma\score\04 La reconstitution (L'inspecteur Labavure).wav

Pre-gap length 0:00:00.03

Peak level 72.4 %
Extraction speed 5.0 X
Track quality 100.0 %
Test CRC A8447AFE
Copy CRC A8447AFE
Track not present in AccurateRip database
Copy OK

Track 5

Filename F:\torrent\Linspecteur La Bavure _Banzai_Vladimir Cosma\score\05 Big bavure (L'inspecteur Labavure).wav

Pre-gap length 0:00:00.03

Peak level 99.9 %
Extraction speed 5.6 X
Track quality 100.0 %
Test CRC 671ED0B8
Copy CRC 671ED0B8
Track not present in AccurateRip database
Copy OK

Track 6

Filename F:\torrent\Linspecteur La Bavure _Banzai_Vladimir Cosma\score\06 Banzai rapshodie (Banzai).wav

Pre-gap length 0:00:00.03

Peak level 99.9 %
Extraction speed 7.0 X
Track quality 100.0 %
Test CRC 92D8DB1E
Copy CRC 92D8DB1E
Track not present in AccurateRip database
Copy OK

Track 7

Filename F:\torrent\Linspecteur La Bavure _Banzai_Vladimir Cosma\score\07 Rhapsodie in Bronx (Banzai).wav

Pre-gap length 0:00:00.03

Peak level 96.6 %
Extraction speed 6.8 X
Track quality 100.0 %
Test CRC 3D95D8A4
Copy CRC 3D95D8A4
Track not present in AccurateRip database
Copy OK

Track 8

Filename F:\torrent\Linspecteur La Bavure _Banzai_Vladimir Cosma\score\08 Sur la route de Tunis (Banzai).wav

Pre-gap length 0:00:00.02

Peak level 87.4 %
Extraction speed 3.9 X
Track quality 99.8 %
Test CRC F9B90F80
Copy CRC F9B90F80
Track not present in AccurateRip database
Copy OK

Track 9

Filename F:\torrent\Linspecteur La Bavure _Banzai_Vladimir Cosma\score\09 Hong Kong flirt (Banzai).wav

Pre-gap length 0:00:00.03

Peak level 83.3 %
Extraction speed 6.4 X
Track quality 100.0 %
Test CRC 49F9A137
Copy CRC 49F9A137
Track not present in AccurateRip database
Copy OK

Track 10

Filename F:\torrent\Linspecteur La Bavure _Banzai_Vladimir Cosma\score\10 Hot dog (Banzai).wav

Pre-gap length 0:00:00.03

Peak level 87.1 %
Extraction speed 6.8 X
Track quality 100.0 %
Test CRC BE96BA41
Copy CRC BE96BA41
Track not present in AccurateRip database
Copy OK

Track 11

Filename F:\torrent\Linspecteur La Bavure _Banzai_Vladimir Cosma\score\11 SOS Planete (Banzai).wav

Pre-gap length 0:00:00.02

Peak level 98.1 %
Extraction speed 4.2 X
Track quality 99.8 %
Test CRC FA57328B
Copy CRC FA57328B
Track not present in AccurateRip database
Copy OK

Track 12

Filename F:\torrent\Linspecteur La Bavure _Banzai_Vladimir Cosma\score\12 Le monstre (Banzai).wav

Pre-gap length 0:00:00.02

Peak level 78.8 %
Extraction speed 6.0 X
Track quality 100.0 %
Test CRC 1B82EAA6
Copy CRC 1B82EAA6
Track not present in AccurateRip database
Copy OK

Track 13

Filename F:\torrent\Linspecteur La Bavure _Banzai_Vladimir Cosma\score\13 Ben Zidi melodie (Banzai).wav

Pre-gap length 0:00:00.02

Peak level 99.9 %
Extraction speed 6.8 X
Track quality 99.9 %
Test CRC 05811B5E
Copy CRC 05811B5E
Track not present in AccurateRip database
Copy OK

Track 14

Filename F:\torrent\Linspecteur La Bavure _Banzai_Vladimir Cosma\score\14 Les rois du gag (Les rois du gag).wav

Pre-gap length 0:00:00.03

Peak level 98.6 %
Extraction speed 8.0 X
Track quality 100.0 %
Test CRC 10F466AA
Copy CRC 10F466AA
Track not present in AccurateRip database
Copy OK

Track 15

Filename F:\torrent\Linspecteur La Bavure _Banzai_Vladimir Cosma\score\15 Gaetan (Les rois du gag).wav

Pre-gap length 0:00:00.03

Peak level 91.6 %
Extraction speed 7.1 X
Track quality 100.0 %
Test CRC 5A29EF28
Copy CRC 5A29EF28
Track not present in AccurateRip database
Copy OK

Track 16

Filename F:\torrent\Linspecteur La Bavure _Banzai_Vladimir Cosma\score\16 Cabine de Plage (Les rois du gag).wav

Pre-gap length 0:00:00.03

Peak level 98.1 %
Extraction speed 6.2 X
Track quality 100.0 %
Test CRC 41E0D3C0
Copy CRC 41E0D3C0
Track not present in AccurateRip database
Copy OK

Track 17

Filename F:\torrent\Linspecteur La Bavure _Banzai_Vladimir Cosma\score\17 Paul et Francois (Les rois du gag).wav

Pre-gap length 0:00:00.02

Peak level 84.4 %
Extraction speed 4.6 X
Track quality 99.8 %
Test CRC 9D482183
Copy CRC 9D482183
Track not present in AccurateRip database
Copy OK

Track 18

Filename F:\torrent\Linspecteur La Bavure _Banzai_Vladimir Cosma\score\18 Don Welson Corleone (Les rois du gag).wav

Pre-gap length 0:00:00.03

Peak level 84.8 %
Extraction speed 6.1 X
Track quality 99.9 %
Test CRC D1832B92
Copy CRC D1832B92
Track not present in AccurateRip database
Copy OK

Track 19

Filename F:\torrent\Linspecteur La Bavure _Banzai_Vladimir Cosma\score\19 Prise d'otage (Les rois du gag).wav

Pre-gap length 0:00:00.02

Peak level 94.8 %
Extraction speed 7.2 X
Track quality 100.0 %
Test CRC 6B9C0C8A
Copy CRC 6B9C0C8A
Track not present in AccurateRip database
Copy OK

Track 20

Filename F:\torrent\Linspecteur La Bavure _Banzai_Vladimir Cosma\score\20 Le dernier homme (Les rois du gag).wav

Pre-gap length 0:00:00.02

Peak level 100.0 %
Extraction speed 9.5 X
Track quality 100.0 %
Test CRC 96533EC3
Copy CRC 96533EC3
Track not present in AccurateRip database
Copy OK

Track 21

Filename F:\torrent\Linspecteur La Bavure _Banzai_Vladimir Cosma\score\21 Alexandra (Les rois du gag).wav

Pre-gap length 0:00:00.02

Peak level 92.1 %
Extraction speed 4.9 X
Track quality 99.8 %
Test CRC EE262A92
Copy CRC EE262A92
Track not present in AccurateRip database
Copy OK

Track 22

Filename F:\torrent\Linspecteur La Bavure _Banzai_Vladimir Cosma\score\22 Concerto gastronomique (L'aile ou la cuisse).wav

Pre-gap length 0:00:00.02

Peak level 99.9 %
Extraction speed 9.1 X
Track quality 100.0 %
Test CRC 5E33A26E
Copy CRC 5E33A26E
Track not present in AccurateRip database
Copy OK

Track 23

Filename F:\torrent\Linspecteur La Bavure _Banzai_Vladimir Cosma\score\23 Tarte a la creme (L'aile ou la cuisse).wav

Pre-gap length 0:00:00.03

Peak level 99.9 %
Extraction speed 8.4 X
Track quality 100.0 %
Test CRC 944E0975
Copy CRC 944E0975
Track not present in AccurateRip database
Copy OK

Track 24

Filename F:\torrent\Linspecteur La Bavure _Banzai_Vladimir Cosma\score\24 L'usine Tricatel (L'aile ou la cuisse).wav

Pre-gap length 0:00:00.02

Peak level 85.6 %
Extraction speed 8.3 X
Track quality 100.0 %
Test CRC 7CBF5835
Copy CRC 7CBF5835
Track not present in AccurateRip database
Copy OK

Track 25

Filename F:\torrent\Linspecteur La Bavure _Banzai_Vladimir Cosma\score\25 Jumbo l'elephant (L'aile ou la cuisse).wav

Pre-gap length 0:00:00.03

Peak level 93.9 %
Extraction speed 9.6 X
Track quality 100.0 %
Test CRC 1F58085B
Copy CRC 1F58085B
Track not present in AccurateRip database
Copy OK

Track 26

Filename F:\torrent\Linspecteur La Bavure _Banzai_Vladimir Cosma\score\26 Conecerto gastronomique (allege) (L'aile ou la cuisse).wav

Pre-gap length 0:00:00.03

Peak level 99.9 %
Extraction speed 9.9 X
Track quality 100.0 %
Test CRC E7320361
Copy CRC E7320361
Track not present in AccurateRip database
Copy OK

Track 27

Filename F:\torrent\Linspecteur La Bavure _Banzai_Vladimir Cosma\score\27 Chanson du Chevalier Blanc (Vous n'aurez pas l'Alsace et la Lorraine).wav

Pre-gap length 0:00:00.02

Peak level 99.9 %
Extraction speed 8.8 X
Track quality 100.0 %
Test CRC EC64DE94
Copy CRC EC64DE94
Track not present in AccurateRip database
Copy OK

Track 28

Filename F:\torrent\Linspecteur La Bavure _Banzai_Vladimir Cosma\score\28 Theme des Mousquetaires (Vous n'aurez pas l'Alsace et la Lorraine).wav

Pre-gap length 0:00:00.03

Peak level 99.4 %
Extraction speed 8.9 X
Track quality 100.0 %
Test CRC A8930F94
Copy CRC A8930F94
Track not present in AccurateRip database
Copy OK


None of the tracks are present in the AccurateRip database

No errors occurred

End of status report

==== Log checksum AB8275374C6842A750E9A3B1F5A58CD44B5B15D7929A7FC43BA988F20872F331 ====

foobar2000 1.2 / Dynamic Range Meter 1.1.1
log date: 2013-11-07 14:34:13

––––––––––––––––––––––––––––––––––––––––
Analyzed: Vladimir Cosma / L'inspecteur La Bavure / Banzai
––––––––––––––––––––––––––––––––––––––––

DR Peak RMS Duration Track
––––––––––––––––––––––––––––––––––––––––
DR10 -0.29 dB -11.37 dB 2:39 01-Generique (L'inspecteur Labavure)
DR12 -1.76 dB -17.24 dB 4:22 02-Substitution (L'inspecteur Labavure)
DR11 -3.10 dB -17.98 dB 2:06 03-Traffic (L'inspecteur Labavure)
DR11 -2.79 dB -17.36 dB 1:24 04-La reconstitution (L'inspecteur Labavure)
DR12 -0.01 dB -14.74 dB 1:57 05-Big bavure (L'inspecteur Labavure)
DR11 0.00 dB -12.81 dB 5:32 06-Banzai rapshodie (Banzai)
DR11 -0.30 dB -16.09 dB 3:06 07-Rhapsodie in Bronx (Banzai)
DR10 -1.16 dB -13.45 dB 1:04 08-Sur la route de Tunis (Banzai)
DR13 -1.59 dB -18.35 dB 1:46 09-Hong Kong flirt (Banzai)
DR12 -1.19 dB -15.50 dB 2:09 10-Hot dog (Banzai)
DR11 -0.16 dB -14.36 dB 1:08 11-SOS Planete (Banzai)
DR11 -2.06 dB -16.05 dB 1:13 12-Le monstre (Banzai)
DR10 0.00 dB -12.26 dB 3:22 13-Ben Zidi melodie (Banzai)
DR9 -0.11 dB -11.39 dB 3:08 14-Les rois du gag (Les rois du gag)
DR11 -0.76 dB -15.02 dB 1:37 15-Gaetan (Les rois du gag)
DR12 -0.16 dB -13.14 dB 1:00 16-Cabine de Plage (Les rois du gag)
DR10 -1.47 dB -14.30 dB 1:03 17-Paul et Francois (Les rois du gag)
DR9 -1.42 dB -13.60 dB 1:53 18-Don Welson Corleone (Les rois du gag)
DR11 -0.46 dB -17.11 dB 1:25 19-Prise d'otage (Les rois du gag)
DR11 0.00 dB -16.06 dB 5:43 20-Le dernier homme (Les rois du gag)
DR10 -0.71 dB -12.68 dB 1:00 21-Alexandra (Les rois du gag)
DR12 0.00 dB -13.49 dB 3:04 22-Concerto gastronomique (L'aile ou la cuisse)
DR11 0.00 dB -13.09 dB 2:00 23-Tarte a la creme (L'aile ou la cuisse)
DR14 -1.34 dB -20.17 dB 1:43 24-L'usine Tricatel (L'aile ou la cuisse)
DR12 -0.54 dB -14.01 dB 3:00 25-Jumbo l'elephant (L'aile ou la cuisse)
DR13 0.00 dB -15.66 dB 2:58 26-Conecerto gastronomique (allege) (L'aile ou la cuisse)
DR9 -0.01 dB -11.80 dB 1:46 27-Chanson du Chevalier Blanc (Vous n'aurez pas l'Alsace et la Lorraine)
DR12 -0.05 dB -13.85 dB 1:55 28-Theme des Mousquetaires (Vous n'aurez pas l'Alsace et la Lorraine)
––––––––––––––––––––––––––––––––––––––––

Number of tracks: 28
Official DR value: DR11

Samplerate: 44100 Hz
Channels: 2
Bits per sample: 16
Bitrate: 907 kbps
Codec: FLAC
================================================================================

Vladimir Cosma - Cosma Cinema Collection Vol. 22: Films de Claude Zidi (2001)

Vladimir Cosma - Cosma Cinema Collection Vol. 22: Films de Claude Zidi (2001)