Subcategories

Voices On The Dark Side - Dark Side Of The Moon A Cappella (2005) Digipak

Posted By: Andi_Deris
Voices On The Dark Side - Dark Side Of The Moon A Cappella (2005) Digipak

Voices On The Dark Side - Dark Side Of The Moon A Cappella (2005) Digipak
EAC Rip | APE: Image+Cue+Log | 229 Mb | MP3 CBR 320 kbps | 103 Mb | Scans | Time: 43:08
Genre: A Cappella, Progressive Rock | Label: Vocomotion | Cat.№: VOMO-0105

"Dark Side of the Moon A Cappella" is an all-vocal version of Pink Floyd's magnum opus "Dark Side of the Moon." No instruments were used in the recording of this unique version of the album. Eight singers and one "vocal percussionist" (similar to a beatboxer) recreate the original work in its entirety. Dark Side of the Moon A Cappella has been nominated for Best Pop/Rock Album in the 2006 Contemporary A Cappella Recording Awards (CARAs).



Voices On The Dark Side - Dark Side Of The Moon A Cappella (2005) Digipak


Track Listing

01. Speak To Me / Breathe (03:57)
02. On The Run (03:40)
03. Time (07:00)
04. The Great Gig In The Sky (04:45)
05. Money (06:24)
06. Us and Them (07:46)
07. Any Colour You Like (03:33)
08. Brain Damage (03:52)
09. Eclipse (02:07)

Produced by Freddie Feldman

The Voices

• Stephanie Lewin: Soprano
• Jennifer Feucht: Soprano
• Melissa Smithson: Alto
• Jon Krivitzky: Tenor
• Michael Mahler: Tenor
• Chris Feucht: Tenor
• Alan Schmuckler: Baritone
• Dan Riley: Bass
• Freddie Feldman: Vocal Percussion

The Speakers

• Jill Feldman, Marty Gasper, Bill Hare, Tzvia Krivitzky, Mike Mendyke, Jonathan Minkoff, Diana Preisler, Deke Sharon

Voices On The Dark Side - Dark Side Of The Moon A Cappella (2005) Digipak


Exact Audio Copy V0.99 prebeta 3 from 28. July 2007

EAC extraction logfile from 29. November 2007, 23:12

Vocomotion / Dark Side Of The Moon A Cappella

Used drive : PLEXTOR CD-R PX-W5224A Adapter: 4 ID: 0

Read mode : Secure
Utilize accurate stream : Yes
Defeat audio cache : Yes
Make use of C2 pointers : No

Read offset correction : 30
Overread into Lead-In and Lead-Out : Yes
Fill up missing offset samples with silence : Yes
Delete leading and trailing silent blocks : No
Null samples used in CRC calculations : Yes
Used interface : Native Win32 interface for Win NT & 2000

Used output format : User Defined Encoder
Selected bitrate : 768 kBit/s
Quality : High
Add ID3 tag : No
Command line compressor : C:\Program Files\Flac\flac.exe
Additional command line options : –best %s


TOC of the extracted CD

Track | Start | Length | Start sector | End sector
––––––––––––––––––––––––––––-
1 | 0:00.54 | 3:56.71 | 54 | 17824
2 | 3:57.50 | 3:40.52 | 17825 | 34376
3 | 7:38.27 | 7:00.70 | 34377 | 65946
4 | 14:39.22 | 4:45.21 | 65947 | 87342
5 | 19:24.43 | 6:24.04 | 87343 | 116146
6 | 25:48.47 | 7:46.47 | 116147 | 151143
7 | 33:35.19 | 3:33.03 | 151144 | 167121
8 | 37:08.22 | 3:52.56 | 167122 | 184577
9 | 41:01.03 | 2:07.38 | 184578 | 194140


Range status and errors

Selected range

Filename D:\Vocomotion\Dark Side Of The Moon A Capella\CDImage.wav

Peak level 100.0 %
Range quality 100.0 %
Copy CRC 88A24A30
Copy OK

No errors occurred


AccurateRip summary

Track 1 not present in database
Track 2 not present in database
Track 3 not present in database
Track 4 not present in database
Track 5 not present in database
Track 6 not present in database
Track 7 not present in database
Track 8 not present in database
Track 9 not present in database

None of the tracks are present in the AccurateRip database

End of status report


Many thanks to the original uploader: zubarevs


Pink Floyd 1973 The Dark Side Of The Moon [Immersion Edition, Box Set 3CD+2DVD+1Blu-ray, 2011]
Pink Floyd 1975 Spaceball Ricochet - US-Tour 1975 [Bootleg, 2CD]
Pink Floyd 1975 Wish You Were Here [Immersion Edition, Box Set 2CD+2DVD+1Blu-ray, 2011]
Pink Floyd 1979 The Wall [Immersion Edition, Box Set 6CD+1DVD, 2012]
Pink Floyd 1989 StarClub Phyco [Bootleg]
Pink Floyd 1990 Ultra Rare Trax, Vol. 1, 2, 3 [Bootleg, 3CD]
Pink Floyd 1992 The Complete ''Top Gear'' Sessions 1967-1969 [Bootleg, 2CD]
Pink Floyd 1992 The Man & The Journey [Bootleg]
Pink Floyd & The Stringman 1994 Absolutely Ambient [The Ultimate Remix Collection]
Pink Floyd 1994 Live In USA [Bootleg, 2CD]
Pink Floyd 1994 Wish You Were Here - Trance Remixes [Limited Ed.]
Pink Floyd 1995 P·U·L·S·E [Japan, 3rd issue 2005]
Pink Floyd 1997 The Wall (The Soundtrack Of The Motion Picture) [Bootleg, 2CD]
Pink Floyd 2000 A Tree Full Of Secrets [Bootleg, 17+1 (data) CDs]
Pink Floyd 2000 Crackers [Bootleg, 2CD]
Pink Floyd 2002 Archives: If You Were A Bluebird [Bootleg]
Pink Floyd 2002 Archives: Pink Days And Fat Old Suns [Bootleg]
Pink Floyd 2002 Early Flights CD Serie, Vol. 1-10
Pink Floyd 2005 Naniwa: Natural Dark In Osaka 1972 [Bootleg, 2CD]
Pink Floyd 2005 Old Symphonies [Bootleg]
Pink Floyd 2008 Watching The World Upon The Wall [Bootleg, 2CD]
Pink Floyd 2014 The Endless River

Pink Floyd 1982 The Wall 25th Anniversary [Deluxe Ed.] (DVD9)
Pink Floyd 1987 Would You Buy A Ticket To This Show? (2xDVD5)
Pink Floyd 2000 Divided We Fall: The Wall Live at Earl's Court (2xDVD5)
Pink Floyd 2006 Live in Saint-Tropez, Music Festival, 08.08.1970 (DVD5)
Pink Floyd 2008 The Great Gig In The Sky: The Album By Album Guide [8xDVD5 & Book Set]
Pink Floyd 2010 In Toronto 1987 (DVD5)
Pink Floyd 2010 Video Collection [Custom DVD9]

The Pink Floyd Chamber Suite 2004 A Classic Rock Tribute to Pink Floyd (DVD5)

Roger Waters 2011 The Wall: Live In Berlin 1990 [Limited Deluxe Tour Edition] (DVD+2CD)

The Australian Pink Floyd Show 2004 Dark Side Of The Moon - Live at Liverpool Kings Dock Arena 2004 (2 DVD Set)
The Australian Pink Floyd Show 2007 Best Of Pink Floyd - Live At The Royal Albert Hall 2007 (DVD9)
The Australian Pink Floyd Show 2012 Live At The Hammersmith Apollo 2011 (Blu-ray)

Dream Theater 2006 Dark Side Of The Moon [Official Bootleg] (DVD5)
Dream Theater 2006 Dark Side of the Moon [Official Bootleg, 2CD]

Easy Star All-Stars 2003 Dub Side Of The Moon

V.A. 1995 The Moon Revisited (A Tribute to Pink Floyd)
V.A. 2002 Pigs And Pyramids: An All Star Lineup Performing The Songs Of Pink Floyd
V.A. 2007 Top Musicians Play: Pink Floyd The Wall (2CD)
V.A. 2010 Pink Floyd: Greatest Hits Covered (2CD)
V.A. 2011 A Collection of Delicate Diamonds: A Tribute to Pink Floyd (2CD Album Digipak)
V.A. 2013 The Many Faces of Pink Floyd: A Journey Through The Inner World of Pink Floyd (2013) 3CD Set
V.A. 2015 The Everlasting Songs: An All Star Tribute To Pink Floyd

Celtic Pink Floyd 2011 Celtic Pink Floyd