Subcategories

We All Together - s/t (1972) {1997 Lazarus Audio Products}

Posted By: TestTickles
We All Together - s/t (1972) {1997 Lazarus Audio Products}

We All Together - s/t (1972) {1997 Lazarus Audio Products}
EAC Rip | FLAC with CUE and log | scans | 314 mb
MP3 CBR 320kbps | RAR | 107 mb
Genre: psychedelic rock, pop rock

We All Together is the 1972 eponymous album by you know who. You know who, right? We All Together, of course. This was remastered and reissued in 1997 by Lazarus Audio Products, featuring four bonus tracks not on the original LP.
No date of release is given in the liner notes of the CD reissue of We All Together's first album, but since it has a cover of a song from Paul McCartney's Band on the Run ("Bluebird" ) and since their second album came out in 1974, we can assume this is probably from 1973 or 1974. The Beatles, and particularly McCartney, fixation is obvious; they also cover a couple of obscure numbers from Wings' Wildlife album ("Tomorrow" and "Some People Never Know" ), and throw in Badfinger's "Carry on Till Tomorrow" for good measure. Most of the album consists of original material, though, which is quite accomplished, well-arranged and melodic. What sets them apart from the leagues of other Beatle wannabes is that their song structures are usually not obviously derivative of well-known tunes by the real deal, and executed with a pretty unforced, natural ease. McCartney isn't the only one subject to tribute; "Dear Sally" has an echoey Lennon-esque hard rock vocal right from his Phil Spector-produced era, while "Ozzy" has a mock-Harrison slide guitar part. No, it doesn't get high marks for originality. But if you like late-'60s Beatles, early-'70s Beatle solo albums and Badfinger, you'd be a fool not to try this on for size.

We All Together - s/t (1972) {1997 Lazarus Audio Products}

1. Children
2. Young People
3. Carry On Till Tomorrow
4. It's a Sin Yo Go Away
5. Tomorrow
6. Hey Revolution
7. Walking In Yhe Rain
8. Why
9. Some People Never Know
10. The City will Be A Country
11. Bluebird (Bonus Track)
12. Symbolic Queen (Bonus Track)
13. Ozzy (Bonus Track)
14. Dear Sally (Bonus Track)

Carlos Guerrero-lead & backing vocals
Saul Cornejo-guitar, backing vocals
Carlos Salom-keyboards
Ernesto Samame-bass
Manuel Cornejo-drums & percussion

Alberto Villena-wind instruments

Produced by Carlos Guerrero.
String arrangements by Andres de Colbert & Alberto Villena

EAC extraction logfile from 8. November 2005, 14:35 for CD
We All Together / We All Together

Used drive : JLMS XJ-HD166S Adapter: 2 ID: 1
Read mode : Secure with NO C2, accurate stream, disable cache
Read offset correction : 12
Overread into Lead-In and Lead-Out : No

Used output format : Internal WAV Routines
44.100 Hz; 16 Bit; Stereo

Other options :
Fill up missing offset samples with silence : Yes
Delete leading and trailing silent blocks : No
Installed external ASPI interface


Track 1
Filename C:\FLAC\We All Together - s-t (1972) [FLAC] {1997 Lazarus}\01 - Children.wav

Pre-gap length 0:00:02.00

Peak level 96.6 %
Track quality 100.0 %
Test CRC 90B4D1B9
Copy CRC 90B4D1B9
Copy OK

Track 2
Filename C:\FLAC\We All Together - s-t (1972) [FLAC] {1997 Lazarus}\02 - Young People.wav

Pre-gap length 0:00:02.00

Peak level 96.6 %
Track quality 99.9 %
Test CRC 22EE13ED
Copy CRC 22EE13ED
Copy OK

Track 3
Filename C:\FLAC\We All Together - s-t (1972) [FLAC] {1997 Lazarus}\03 - Carry On Till Tomorrow.wav

Pre-gap length 0:00:02.00

Peak level 96.6 %
Track quality 100.0 %
Test CRC E52748E9
Copy CRC E52748E9
Copy OK

Track 4
Filename C:\FLAC\We All Together - s-t (1972) [FLAC] {1997 Lazarus}\04 - It's a Sin to Go Away.wav

Pre-gap length 0:00:02.00

Peak level 96.6 %
Track quality 100.0 %
Test CRC 61FA52C1
Copy CRC 61FA52C1
Copy OK

Track 5
Filename C:\FLAC\We All Together - s-t (1972) [FLAC] {1997 Lazarus}\05 - Tomorrow.wav

Pre-gap length 0:00:02.00

Peak level 96.6 %
Track quality 100.0 %
Test CRC 8090F9FC
Copy CRC 8090F9FC
Copy OK

Track 6
Filename C:\FLAC\We All Together - s-t (1972) [FLAC] {1997 Lazarus}\06 - Hey Revolution.wav

Pre-gap length 0:00:02.00

Peak level 96.6 %
Track quality 100.0 %
Test CRC 6FF5DECF
Copy CRC 6FF5DECF
Copy OK

Track 7
Filename C:\FLAC\We All Together - s-t (1972) [FLAC] {1997 Lazarus}\07 - Walking In the Rain.wav

Pre-gap length 0:00:02.00

Peak level 96.6 %
Track quality 100.0 %
Test CRC F9F1715E
Copy CRC F9F1715E
Copy OK

Track 8
Filename C:\FLAC\We All Together - s-t (1972) [FLAC] {1997 Lazarus}\08 - Why.wav

Pre-gap length 0:00:02.00

Peak level 96.6 %
Track quality 100.0 %
Test CRC CB106119
Copy CRC CB106119
Copy OK

Track 9
Filename C:\FLAC\We All Together - s-t (1972) [FLAC] {1997 Lazarus}\09 - Some People Never Know.wav

Pre-gap length 0:00:02.00

Peak level 96.6 %
Track quality 99.9 %
Test CRC 449CD0B0
Copy CRC 449CD0B0
Copy OK

Track 10
Filename C:\FLAC\We All Together - s-t (1972) [FLAC] {1997 Lazarus}\10 - The City will Be a Country.wav

Pre-gap length 0:00:02.00

Peak level 96.6 %
Track quality 100.0 %
Test CRC EA245DDB
Copy CRC EA245DDB
Copy OK

Track 11
Filename C:\FLAC\We All Together - s-t (1972) [FLAC] {1997 Lazarus}\11 - Bluebird.wav

Pre-gap length 0:00:02.00

Peak level 96.6 %
Track quality 99.9 %
Test CRC F003EA74
Copy CRC F003EA74
Copy OK

Track 12
Filename C:\FLAC\We All Together - s-t (1972) [FLAC] {1997 Lazarus}\12 - Symbolic Queen.wav

Pre-gap length 0:00:02.00

Peak level 96.6 %
Track quality 99.9 %
Test CRC 30D99230
Copy CRC 30D99230
Copy OK

Track 13
Filename C:\FLAC\We All Together - s-t (1972) [FLAC] {1997 Lazarus}\13 - Ozzy.wav

Pre-gap length 0:00:02.00

Peak level 96.6 %
Track quality 100.0 %
Test CRC CF005AA7
Copy CRC CF005AA7
Copy OK

Track 14
Filename C:\FLAC\We All Together - s-t (1972) [FLAC] {1997 Lazarus}\14 - Dear Sally.wav

Pre-gap length 0:00:02.00

Peak level 96.6 %
Track quality 99.9 %
Test CRC 0F1AD96F
Copy CRC 0F1AD96F
Copy OK

No errors occured


End of status report


We All Together - s/t (1972) {1997 Lazarus Audio Products}


Thank you to the original uploader.