Subcategories

Wendy Luck - See You In Rio (2006)

Posted By: TestTickles
Wendy Luck - See You In Rio (2006)

Wendy Luck - See You In Rio (2006))
EAC Rip | FLAC with CUE and log | scans | 342 mb
MP3 CBR 320kbps | RAR | 150 mb
Genre: jazz, vocal jazz, Latin jazz

Wendy Luck released her album See You In Rio in 2006. The title indicates the feel of the music: jazz with a slight Brazilian feel.

Wendy Luck - See You In Rio (2006)

01. See You In Rio
02. Only Trust Your Heart
03. London Samba
04. After The Dance
05. Why Did I Choose You
06. Fotografia
07. Serrado
08. A Man Who Loves
09. Prelude- Cafe 1930
10. Cafe 1930
11. Bonita
12. Apanhei-Te, Cavaquinho
13. Bachianas Brasilieras No. 5
14. Rio After Dark

Wendy Luck - See You In Rio (2006)

Wendy Luck-vocals, flute
Cliff Korman-piano
Kiko Freitas-drums
Ney Conceição-bass
Nelson Faria-guitar

Produced & arranged by Cliff Korman
Engineered by Alexandre Hang & Jan Folkson
Mixed by Jan Folkson
Mastered by Joe Yannece

EAC extraction logfile from 19. June 2017, 10:28 for CD
Wendy Luck / See You In Rio

Used drive : TSSTcorpDVD+-RW TS-H653B Adapter: 2 ID: 0
Read mode : Secure with NO C2, accurate stream, disable cache
Read offset correction : 6
Overread into Lead-In and Lead-Out : No

Used output format : Internal WAV Routines
44.100 Hz; 16 Bit; Stereo

Other options :
Fill up missing offset samples with silence : Yes
Delete leading and trailing silent blocks : No
Native Win32 interface for Win NT & 2000


Track 1
Filename C:\Documents and Settings\Desktop\Wendy Luck - See You In Rio (2006) [FLAC]\01 - See You In Rio.wav

Pre-gap length 0:00:02.00

Peak level 98.9 %
Track quality 100.0 %
Test CRC 0FE66B9D
Copy CRC 0FE66B9D
Copy OK

Track 2
Filename C:\Documents and Settings\Desktop\Wendy Luck - See You In Rio (2006) [FLAC]\02 - Only Trust Your Heart.wav

Pre-gap length 0:00:02.26

Peak level 99.0 %
Track quality 100.0 %
Test CRC 21ADA5DF
Copy CRC 21ADA5DF
Copy OK

Track 3
Filename C:\Documents and Settings\Desktop\Wendy Luck - See You In Rio (2006) [FLAC]\03 - London Samba.wav

Peak level 99.2 %
Track quality 100.0 %
Test CRC 57576CFB
Copy CRC 57576CFB
Copy OK

Track 4
Filename C:\Documents and Settings\Desktop\Wendy Luck - See You In Rio (2006) [FLAC]\04 - After The Dance.wav

Pre-gap length 0:00:01.04

Peak level 98.9 %
Track quality 100.0 %
Test CRC 84D54A9E
Copy CRC 84D54A9E
Copy OK

Track 5
Filename C:\Documents and Settings\Desktop\Wendy Luck - See You In Rio (2006) [FLAC]\05 - Why Did I Choose You.wav

Pre-gap length 0:00:01.70

Peak level 98.9 %
Track quality 100.0 %
Test CRC DF405E38
Copy CRC DF405E38
Copy OK

Track 6
Filename C:\Documents and Settings\Desktop\Wendy Luck - See You In Rio (2006) [FLAC]\06 - Fotografia.wav

Pre-gap length 0:00:01.60

Peak level 98.9 %
Track quality 100.0 %
Test CRC B8052F32
Copy CRC B8052F32
Copy OK

Track 7
Filename C:\Documents and Settings\Desktop\Wendy Luck - See You In Rio (2006) [FLAC]\07 - Serrado.wav

Pre-gap length 0:00:01.86

Peak level 100.0 %
Track quality 100.0 %
Test CRC 2A9C8F67
Copy CRC 2A9C8F67
Copy OK

Track 8
Filename C:\Documents and Settings\Desktop\Wendy Luck - See You In Rio (2006) [FLAC]\08 - A Man Who Loves.wav

Pre-gap length 0:00:01.09

Peak level 98.9 %
Track quality 100.0 %
Test CRC 2325C723
Copy CRC 2325C723
Copy OK

Track 9
Filename C:\Documents and Settings\Desktop\Wendy Luck - See You In Rio (2006) [FLAC]\09 - Prelude- Cafe 1930.wav

Pre-gap length 0:00:02.40

Peak level 55.5 %
Track quality 99.8 %
Test CRC CD859077
Copy CRC CD859077
Copy OK

Track 10
Filename C:\Documents and Settings\Desktop\Wendy Luck - See You In Rio (2006) [FLAC]\10 - Cafe 1930.wav

Peak level 98.9 %
Track quality 100.0 %
Test CRC 59C62085
Copy CRC 59C62085
Copy OK

Track 11
Filename C:\Documents and Settings\Desktop\Wendy Luck - See You In Rio (2006) [FLAC]\11 - Bonita.wav

Pre-gap length 0:00:01.53

Peak level 98.9 %
Track quality 100.0 %
Test CRC F31FCF71
Copy CRC F31FCF71
Copy OK

Track 12
Filename C:\Documents and Settings\Desktop\Wendy Luck - See You In Rio (2006) [FLAC]\12 - Apanhei-Te, Cavaquinho.wav

Pre-gap length 0:00:01.04

Peak level 99.0 %
Track quality 100.0 %
Test CRC 73E16694
Copy CRC 73E16694
Copy OK

Track 13
Filename C:\Documents and Settings\Desktop\Wendy Luck - See You In Rio (2006) [FLAC]\13 - Bachianas Brasilieras No. 5.wav

Pre-gap length 0:00:02.17

Peak level 98.8 %
Track quality 99.9 %
Test CRC 0F06CBC5
Copy CRC 0F06CBC5
Copy OK

Track 14
Filename C:\Documents and Settings\Desktop\Wendy Luck - See You In Rio (2006) [FLAC]\14 - Rio After Dark.wav

Pre-gap length 0:00:02.77

Peak level 100.0 %
Track quality 100.0 %
Test CRC 3515E6E0
Copy CRC 3515E6E0
Copy OK

No errors occured


End of status report


Wendy Luck - See You In Rio (2006)