Subcategories

Waylon Jennings - Lonesome, On'ry And Mean (1973) {2003 BMG Heritage}

Posted By: TestTickles
Waylon Jennings - Lonesome, On'ry And Mean (1973) {2003 BMG Heritage}

Waylon Jennings - Lonesome, On'ry And Mean (1973) {2003 BMG Heritage}
EAC Rip | FLAC with CUE and log | scans | 245 mb
MP3 CBR 320kbps | RAR | 95 mb
Genre: country

Lonesome, On'ry And Mean is the 1973 album by country singer Waylon Jennings. This CD released by BMG Heritage in 2003 features the album in its entirety plus three bonus tracks.
Lonesome, On'ry and Mean is the quintessential Waylon Jennings outlaw record. Waylon produced the set – the first unfettered by the bonds of RCA – with his own band, and the results are nothing less than electrifying. Steve Young, the perennial country and folk music outsider, may have penned the title cut, but Waylon's delivery as an anthem bears in it all of his years of frustration at not being able to make the music he wanted to. Fury is a better word for what is heard in the grain of the song's lyrics. Young's own version is devastating, but this one is transcendent. (And why is it that Travis Tritt was picked to sing this at Waylon's memorial instead of Young, who was also present? Talk about misguided justice.) But the boundaries between rock & roll and country come down once again on this album in Kris Kristofferson's "Me & Bobby McGee," as folk and post-psychedelia meet Texas in Mickey Newbury's "San Francisco Mabel Joy" and the broken, road-weary pop honky tonk balladry of Danny O'Keefe's "Good Time Charlie's Got the Blues." Add to this Johnny Cash's "Gone to Denver" and Willie Nelson's "Pretend I Never Happened," and you have an outsider's dream. That the rest of the recording is just as consistent, just as seamless in its execution, production, and delivery, makes Lonesome, On'ry and Mean the first seriously pitched battle in the 1970s country music wars. And this one went to Jennings and his fans, hands down.

1. Lonesome, On'ry And Mean 3:41
2. Freedom To Stay 3:13
3. Lay It Down 3:19
4. Gone To Denver 2:32
5. Good Time Charlie's Got The Blues 3:24
6. You Can Have Her 2:44
7. Pretend I Never Happened 3:05
8. San Francisco Mabel Joy 3:51
9. Sandy Sends Her Best 2:37
10. Me And Bobby McGee 4:41
11. Laid Back Country Picker (Bonus Track) 3:16
12. The Last One To Leave Seattle (Bonus Track) 3:27
13. Big, Big Love (Bonus Track) 2:27


Waylon Jennings-vocals, guitar
Chip Young-guitar
Billy Ray Reynolds-guitar
Larry Whitmore-guitar
Ralph Mooney-steel guitar
Don Brooks-harmonica
Henry Strzelecki-piano, bass
Richie Albright-drums
E. Duane West-background vocals
Ginger Holladay-background vocals

Produced by Waylon Jennings- Ronny Light & Danny Davis
Remastered by Vic Anesini

EAC extraction logfile from 13. July 2007, 22:27 for CD
Jennings, Waylon / Lonesome, On'ry And Mean

Used drive : PLEXTOR CD-R PREMIUM Adapter: 1 ID: 0
Read mode : Secure with NO C2, accurate stream, disable cache
Read offset correction : 30
Overread into Lead-In and Lead-Out : Yes

Used output format : C:\Program\Exact Audio Copy\FLAC\FLAC frontend.exe (User Defined Encoder)
320 kBit/s
Additional command line options : -4 -T "artist=%a" -T "title=%t" -T "album=%g" -T "date=%y" -T "tracknumber=%n" -T "genre=%m" %s

Other options :
Fill up missing offset samples with silence : Yes
Delete leading and trailing silent blocks : No
Installed external ASPI interface


Track 1
Filename C:\FLAC\Waylon Jennings - Lonesome, On'ry And Mean (1973) [FLAC] {2003 BMG Heritage}\01 - Lonesome, On'ry And Mean.wav

Pre-gap length 0:00:02.00

Peak level 99.8 %
Track quality 100.0 %
Test CRC E7C2BACE
Copy CRC E7C2BACE
Copy OK

Track 2
Filename C:\FLAC\Waylon Jennings - Lonesome, On'ry And Mean (1973) [FLAC] {2003 BMG Heritage}\02 - Freedom To Stay.wav

Peak level 99.8 %
Track quality 100.0 %
Test CRC A85553BD
Copy CRC A85553BD
Copy OK

Track 3
Filename C:\FLAC\Waylon Jennings - Lonesome, On'ry And Mean (1973) [FLAC] {2003 BMG Heritage}\03 - Lay It Down.wav

Pre-gap length 0:00:01.07

Peak level 99.8 %
Track quality 100.0 %
Test CRC DC73481B
Copy CRC DC73481B
Copy OK

Track 4
Filename C:\FLAC\Waylon Jennings - Lonesome, On'ry And Mean (1973) [FLAC] {2003 BMG Heritage}\04 - Gone To Denver.wav

Pre-gap length 0:00:02.00

Peak level 99.8 %
Track quality 100.0 %
Test CRC BB9CE411
Copy CRC BB9CE411
Copy OK

Track 5
Filename C:\FLAC\Waylon Jennings - Lonesome, On'ry And Mean (1973) [FLAC] {2003 BMG Heritage}\05 - Good Time Charlie's Got The Blues.wav

Pre-gap length 0:00:01.65

Peak level 99.8 %
Track quality 99.9 %
Test CRC B8D5928C
Copy CRC B8D5928C
Copy OK

Track 6
Filename C:\FLAC\Waylon Jennings - Lonesome, On'ry And Mean (1973) [FLAC] {2003 BMG Heritage}\06 - You Can Have Her.wav

Pre-gap length 0:00:01.20

Peak level 99.8 %
Track quality 100.0 %
Test CRC 742D2601
Copy CRC 742D2601
Copy OK

Track 7
Filename C:\FLAC\Waylon Jennings - Lonesome, On'ry And Mean (1973) [FLAC] {2003 BMG Heritage}\07 - Pretend I Never Happened.wav

Pre-gap length 0:00:04.20

Peak level 99.8 %
Track quality 100.0 %
Test CRC 8E3D4238
Copy CRC 8E3D4238
Copy OK

Track 8
Filename C:\FLAC\Waylon Jennings - Lonesome, On'ry And Mean (1973) [FLAC] {2003 BMG Heritage}\08 - San Francisco Mabel Joy.wav

Pre-gap length 0:00:03.25

Peak level 99.8 %
Track quality 99.9 %
Test CRC 97E50643
Copy CRC 97E50643
Copy OK

Track 9
Filename C:\FLAC\Waylon Jennings - Lonesome, On'ry And Mean (1973) [FLAC] {2003 BMG Heritage}\09 - Sandy Sends Her Best.wav

Pre-gap length 0:00:02.53

Peak level 95.3 %
Track quality 100.0 %
Test CRC 1C36C471
Copy CRC 1C36C471
Copy OK

Track 10
Filename C:\FLAC\Waylon Jennings - Lonesome, On'ry And Mean (1973) [FLAC] {2003 BMG Heritage}\10 - Me And Bobby McGee.wav

Pre-gap length 0:00:02.48

Peak level 97.8 %
Track quality 100.0 %
Test CRC 5B988141
Copy CRC 5B988141
Copy OK

Track 11
Filename C:\FLAC\Waylon Jennings - Lonesome, On'ry And Mean (1973) [FLAC] {2003 BMG Heritage}\11 - Laid Back Country Picker.wav

Pre-gap length 0:00:01.55

Peak level 99.8 %
Track quality 100.0 %
Test CRC DA746563
Copy CRC DA746563
Copy OK

Track 12
Filename C:\FLAC\Waylon Jennings - Lonesome, On'ry And Mean (1973) [FLAC] {2003 BMG Heritage}\12 - The Last One To Leave Seattle.wav

Pre-gap length 0:00:02.55

Peak level 99.8 %
Track quality 100.0 %
Test CRC 94D01FFA
Copy CRC 94D01FFA
Copy OK

Track 13
Filename C:\FLAC\Waylon Jennings - Lonesome, On'ry And Mean (1973) [FLAC] {2003 BMG Heritage}\13 - Big, Big Love.wav

Pre-gap length 0:00:01.55

Peak level 99.8 %
Track quality 100.0 %
Test CRC 8787E4E2
Copy CRC 8787E4E2
Copy OK

No errors occured


End of status report


Waylon Jennings - Lonesome, On'ry And Mean (1973) {2003 BMG Heritage}


Thank you to the original uploader