Subcategories

Wu-Tang Clan - Reunited The Remixes (German CD5) (1998) {LOUD/RCA}

Posted By: TestTickles
Wu-Tang Clan - Reunited The Remixes (German CD5) (1998) {LOUD/RCA}

Wu-Tang Clan - Reunited The Remixes (German CD5) (1998) {LOUD/RCA}
EAC Rip | FLAC with CUE and log | scans | 158 mb
MP3 CBR 320kbps | RAR | 61 mb
Genre: hip-hop, rap, electronica

"Triumph" is the second single from Wu-Tang Clan's second album Wu-Tang Forever. This CD5 was a German-only release and features five different mixes of the song, including those by Funkstörung and Zulutronic.

Wu-Tang Clan - Reunited The Remixes (German CD5) (1998) {LOUD/RCA}

1. Reunited (Hithunter Mix) (Radio Edit)
2. Reunited (WestBam Mix)
3. Reunited (Zulutronic Mix)
4. Reunited (Funkstörung Mix)
5. Reunited (Album Version

Exact Audio Copy V1.1 from 23. June 2015

EAC extraction logfile from 19. February 2017, 13:38

Wu-Tang Clan / Reunited The Remixes (German CD5)

Used drive : TEAC DVD-ROM DV-28SW Adapter: 1 ID: 0

Read mode : Secure
Utilize accurate stream : Yes
Defeat audio cache : Yes
Make use of C2 pointers : No

Read offset correction : 6
Overread into Lead-In and Lead-Out : No
Fill up missing offset samples with silence : Yes
Delete leading and trailing silent blocks : No
Null samples used in CRC calculations : Yes
Used interface : Native Win32 interface for Win NT & 2000
Gap handling : Appended to previous track

Used output format : Internal WAV Routines
Sample format : 44.100 Hz; 16 Bit; Stereo


TOC of the extracted CD

Track | Start | Length | Start sector | End sector
––––––––––––––––––––––––––––-
1 | 0:00.00 | 4:21.72 | 0 | 19646
2 | 4:21.72 | 7:15.03 | 19647 | 52274
3 | 11:37.00 | 5:43.35 | 52275 | 78034
4 | 17:20.35 | 4:29.17 | 78035 | 98226
5 | 21:49.52 | 5:23.50 | 98227 | 122501


Track 1

Filename C:\My Documents\My FLAC\Wu-Tang Clan - Reunited The Remixes (German CD5) (1998) [FLAC] {LOUD, RCA}\01 - Reunited (Hithunter Mix) (Radio Edit).wav

Pre-gap length 0:00:02.00

Peak level 99.9 %
Extraction speed 2.4 X
Track quality 99.9 %
Test CRC 07CFD431
Copy CRC 07CFD431
Accurately ripped (confidence 2) [2C5FAC87] (AR v2)
Copy OK

Track 2

Filename C:\My Documents\My FLAC\Wu-Tang Clan - Reunited The Remixes (German CD5) (1998) [FLAC] {LOUD, RCA}\02 - Reunited (WestBam Mix).wav

Pre-gap length 0:00:01.15

Peak level 99.9 %
Extraction speed 3.5 X
Track quality 100.0 %
Test CRC F08A4A38
Copy CRC F08A4A38
Accurately ripped (confidence 2) [DB7BC366] (AR v2)
Copy OK

Track 3

Filename C:\My Documents\My FLAC\Wu-Tang Clan - Reunited The Remixes (German CD5) (1998) [FLAC] {LOUD, RCA}\03 - Reunited (Zulutronic Mix).wav

Pre-gap length 0:00:01.05

Peak level 99.9 %
Extraction speed 3.8 X
Track quality 100.0 %
Test CRC 40832365
Copy CRC 40832365
Accurately ripped (confidence 2) [F68C3881] (AR v2)
Copy OK

Track 4

Filename C:\My Documents\My FLAC\Wu-Tang Clan - Reunited The Remixes (German CD5) (1998) [FLAC] {LOUD, RCA}\04 - Reunited (Funkstörung Mix).wav

Pre-gap length 0:00:01.05

Peak level 99.9 %
Extraction speed 3.5 X
Track quality 99.9 %
Test CRC 8D16B6E1
Copy CRC 8D16B6E1
Accurately ripped (confidence 2) [4BEC23C5] (AR v2)
Copy OK

Track 5

Filename C:\My Documents\My FLAC\Wu-Tang Clan - Reunited The Remixes (German CD5) (1998) [FLAC] {LOUD, RCA}\05 - Reunited (Album Version.wav

Pre-gap length 0:00:01.10

Peak level 99.9 %
Extraction speed 4.4 X
Track quality 100.0 %
Test CRC 2E915430
Copy CRC 2E915430
Accurately ripped (confidence 2) [79519DFD] (AR v2)
Copy OK


All tracks accurately ripped

No errors occurred

End of status report

–– CUETools DB Plugin V2.1.6

[CTDB TOCID: 8_gdi0.jHjZz5hgUY2LGXCs3SRg-] found
Submit result: 8_gdi0.jHjZz5hgUY2LGXCs3SRg- has been confirmed
Track | CTDB Status
1 | (2/2) Accurately ripped
2 | (2/2) Accurately ripped
3 | (2/2) Accurately ripped
4 | (2/2) Accurately ripped
5 | (2/2) Accurately ripped


==== Log checksum AC7DBFE7064AFBE537F210A242FA032FA05F3FBBADA39A9A0C484D889964784B ====


Wu-Tang Clan - Reunited The Remixes (German CD5) (1998) {LOUD/RCA}