Subcategories

Wade Hayes - Old Country Song (2017)

Posted By: Pisulik
Wade Hayes - Old Country Song (2017)

Wade Hayes - Old Country Song (2017)
EAC Rip | FLAC (Tracks) +cue, log, m3u - 253 MB | 00:40:40
Country, Rock | Label: Conabor Records

With the release of "Old County Song" Wade Hayes held true to his amazing talent and true country tracks. From the open line in Can't Get Close Enough" to the final track "In Christ Alone"his style and vocal ability shines. I personally find it hard to chose just one favorite track for many reasons. Two " fun" tracks ( my personal opinion); Full Moon Summer Night" is just a fun and free spirit songs of a new/first love and the nerves surrounding those feelings to the craziness of being wild and carefree in " I Wish I Still Drank" and memories or lack of, and growing up are just fun to listen to and put a smile on my face. Then Conway Twitty's remake "Julia" is just like hearing that song for the first time again Wade does such an amazing job, Conway would be proud. Next the duet with Megan Mullins " What You Need From Me' is so touching and heartfelt, they are an amazing duet partnership. By the way she is very talented.

TRACKLIST

01. Can't Get Close Enough to You
02. Full Moon Summer Night
03. I Wish I Still Drank
04. What You Need From Me
05. Needed the Rain
06. Old Country Song
07. I Don't Understand
08. Julia
09. She Knows Me
10. Going Where the Lonely Go
11. In Christ Alone

Exact Audio Copy V1.3 from 2. September 2016

EAC extraction logfile from 16. November 2017, 5:19

Wade Hayes / Old Country Song

Used drive : TSSTcorpDVD+-RW TS-H653B Adapter: 1 ID: 0

Read mode : Secure
Utilize accurate stream : Yes
Defeat audio cache : Yes
Make use of C2 pointers : No

Read offset correction : 6
Overread into Lead-In and Lead-Out : No
Fill up missing offset samples with silence : Yes
Delete leading and trailing silent blocks : No
Null samples used in CRC calculations : Yes
Used interface : Native Win32 interface for Win NT & 2000
Gap handling : Appended to previous track

Used output format : User Defined Encoder
Selected bitrate : 1024 kBit/s
Quality : High
Add ID3 tag : No
Command line compressor : C:\Program Files (x86)\Exact Audio Copy\Flac\flac.exe
Additional command line options : -8 -V -T "ARTIST=%artist%" -T "TITLE=%title%" -T "ALBUM=%albumtitle%" -T "DATE=%year%" -T "TRACKNUMBER=%tracknr%" -T "GENRE=%genre%" -T "PERFORMER=%albuminterpret%" -T "COMPOSER=%composer%" %haslyrics%–tag-from-file=LYRICS="%lyricsfile%"%haslyrics% -T "ALBUMARTIST=%albumartist%" -T "DISCNUMBER=%cdnumber%" -T "TOTALDISCS=%totalcds%" -T "TOTALTRACKS=%numtracks%" -T "COMMENT=%comment%" %source% -o %dest%


TOC of the extracted CD

Track | Start | Length | Start sector | End sector
––––––––––––––––––––––––––––-
1 | 0:00.00 | 3:19.21 | 0 | 14945
2 | 3:19.21 | 3:32.32 | 14946 | 30877
3 | 6:51.53 | 3:04.40 | 30878 | 44717
4 | 9:56.18 | 4:09.35 | 44718 | 63427
5 | 14:05.53 | 3:58.09 | 63428 | 81286
6 | 18:03.62 | 3:06.41 | 81287 | 95277
7 | 21:10.28 | 2:57.29 | 95278 | 108581
8 | 24:07.57 | 3:52.20 | 108582 | 126001
9 | 28:00.02 | 3:38.26 | 126002 | 142377
10 | 31:38.28 | 5:35.52 | 142378 | 167554
11 | 37:14.05 | 3:27.29 | 167555 | 183108


Track 1

Filename C:\Wade Hayes - 2017 - Old Country Song\01 - Can't Get Close Enough to You.wav

Pre-gap length 0:00:02.00

Peak level 97.7 %
Extraction speed 1.6 X
Track quality 100.0 %
Test CRC CA8F837D
Copy CRC CA8F837D
Track not present in AccurateRip database
Copy OK

Track 2

Filename C:\Wade Hayes - 2017 - Old Country Song\02 - Full Moon Summer Night.wav

Pre-gap length 0:00:00.46

Peak level 97.7 %
Extraction speed 1.8 X
Track quality 100.0 %
Test CRC 76E506D5
Copy CRC 76E506D5
Track not present in AccurateRip database
Copy OK

Track 3

Filename C:\Wade Hayes - 2017 - Old Country Song\03 - I Wish I Still Drank.wav

Pre-gap length 0:00:00.78

Peak level 97.7 %
Extraction speed 1.9 X
Track quality 100.0 %
Test CRC B53B6A11
Copy CRC B53B6A11
Track not present in AccurateRip database
Copy OK

Track 4

Filename C:\Wade Hayes - 2017 - Old Country Song\04 - What You Need From Me.wav

Pre-gap length 0:00:01.04

Peak level 97.7 %
Extraction speed 2.2 X
Track quality 100.0 %
Test CRC 5189784C
Copy CRC 939F8493
Track not present in AccurateRip database
Copy OK

Track 5

Filename C:\Wade Hayes - 2017 - Old Country Song\05 - Needed the Rain.wav

Pre-gap length 0:00:01.96

Peak level 99.0 %
Extraction speed 2.3 X
Track quality 100.0 %
Test CRC C4941ECF
Copy CRC C4941ECF
Track not present in AccurateRip database
Copy OK

Track 6

Filename C:\Wade Hayes - 2017 - Old Country Song\06 - Old Country Song.wav

Pre-gap length 0:00:00.60

Peak level 97.7 %
Extraction speed 1.9 X
Track quality 99.9 %
Test CRC 2FE31079
Copy CRC 2FE31079
Track not present in AccurateRip database
Copy OK

Track 7

Filename C:\Wade Hayes - 2017 - Old Country Song\07 - I Don't Understand.wav

Pre-gap length 0:00:01.36

Peak level 97.7 %
Extraction speed 2.4 X
Track quality 100.0 %
Test CRC DB44A862
Copy CRC DB44A862
Track not present in AccurateRip database
Copy OK

Track 8

Filename C:\Wade Hayes - 2017 - Old Country Song\08 - Julia.wav

Pre-gap length 0:00:02.42

Peak level 97.7 %
Extraction speed 2.7 X
Track quality 100.0 %
Test CRC 442344E0
Copy CRC 442344E0
Track not present in AccurateRip database
Copy OK

Track 9

Filename C:\Wade Hayes - 2017 - Old Country Song\09 - She Knows Me.wav

Pre-gap length 0:00:02.02

Peak level 97.7 %
Extraction speed 2.7 X
Track quality 100.0 %
Test CRC B8E9BA61
Copy CRC B8E9BA61
Track not present in AccurateRip database
Copy OK

Track 10

Filename C:\Wade Hayes - 2017 - Old Country Song\10 - Going Where the Lonely Go.wav

Pre-gap length 0:00:01.88

Peak level 97.7 %
Extraction speed 3.1 X
Track quality 100.0 %
Test CRC 11674220
Copy CRC 11674220
Track not present in AccurateRip database
Copy OK

Track 11

Filename C:\Wade Hayes - 2017 - Old Country Song\11 - In Christ Alone.wav

Pre-gap length 0:00:09.70

Peak level 97.7 %
Extraction speed 3.0 X
Track quality 100.0 %
Test CRC 5E59989A
Copy CRC 5E59989A
Track not present in AccurateRip database
Copy OK


None of the tracks are present in the AccurateRip database

No errors occurred

End of status report

==== Log checksum D1AE796485A1ACEDDF3A4029F3BE50593479DF0F2A3510CDBDD76D407558E1E6 ====

––––––––––––––––––––––––––––––

Exact Audio Copy V1.3 from 2. September 2016

EAC extraction logfile from 16. November 2017, 5:34

Wade Hayes / Old Country Song

Used drive : TSSTcorpDVD+-RW TS-H653B Adapter: 1 ID: 0

Read mode : Secure
Utilize accurate stream : Yes
Defeat audio cache : Yes
Make use of C2 pointers : No

Read offset correction : 6
Overread into Lead-In and Lead-Out : No
Fill up missing offset samples with silence : Yes
Delete leading and trailing silent blocks : No
Null samples used in CRC calculations : Yes
Used interface : Native Win32 interface for Win NT & 2000
Gap handling : Appended to previous track

Used output format : User Defined Encoder
Selected bitrate : 1024 kBit/s
Quality : High
Add ID3 tag : No
Command line compressor : C:\Program Files (x86)\Exact Audio Copy\Flac\flac.exe
Additional command line options : -8 -V -T "ARTIST=%artist%" -T "TITLE=%title%" -T "ALBUM=%albumtitle%" -T "DATE=%year%" -T "TRACKNUMBER=%tracknr%" -T "GENRE=%genre%" -T "PERFORMER=%albuminterpret%" -T "COMPOSER=%composer%" %haslyrics%–tag-from-file=LYRICS="%lyricsfile%"%haslyrics% -T "ALBUMARTIST=%albumartist%" -T "DISCNUMBER=%cdnumber%" -T "TOTALDISCS=%totalcds%" -T "TOTALTRACKS=%numtracks%" -T "COMMENT=%comment%" %source% -o %dest%


TOC of the extracted CD

Track | Start | Length | Start sector | End sector
––––––––––––––––––––––––––––-
1 | 0:00.00 | 3:19.21 | 0 | 14945
2 | 3:19.21 | 3:32.32 | 14946 | 30877
3 | 6:51.53 | 3:04.40 | 30878 | 44717
4 | 9:56.18 | 4:09.35 | 44718 | 63427
5 | 14:05.53 | 3:58.09 | 63428 | 81286
6 | 18:03.62 | 3:06.41 | 81287 | 95277
7 | 21:10.28 | 2:57.29 | 95278 | 108581
8 | 24:07.57 | 3:52.20 | 108582 | 126001
9 | 28:00.02 | 3:38.26 | 126002 | 142377
10 | 31:38.28 | 5:35.52 | 142378 | 167554
11 | 37:14.05 | 3:27.29 | 167555 | 183108


Track 4

Filename C:\Wade Hayes - 2017 - Old Country Song\04 - What You Need From Me.wav

Pre-gap length 0:00:01.04

Peak level 97.7 %
Extraction speed 2.1 X
Track quality 100.0 %
Test CRC 939F8493
Copy CRC 939F8493
Track not present in AccurateRip database
Copy OK


None of the tracks are present in the AccurateRip database

No errors occurred

End of status report

==== Log checksum 0FDE01B2BE7C8AEFDE29F9C068D09ED242F5D2AAE8E4C627114F2CDD952B1074 ====


All thanks go to the original releaser