Subcategories

Wanda Jackson & Cliff Richard - The Best Of Rock'N'Roll (2000)

Posted By: v3122
Wanda Jackson & Cliff Richard - The Best Of Rock'N'Roll (2000)

Wanda Jackson & Cliff Richard - The Best Of Rock'N'Roll (2000)
EAC | Flac(Image) + Cue + Log & MP3 CBR 320Kbps
Landy Star Music, LS 2470 | Russia | ~ 435 or 176 Mb | Scans(jpg) -> 8 Mb
Rock & Roll

Wanda Jackson was the first female rock and roll singer in the United States, releasing her debut record in 1956. She is often hailed as the "Queen Of Rockabilly."

Inducted into Rock And Roll Hall of Fame in 2009 (Early Influence).

Cliff Richard - Britain's most successful home-grown pop star, he has had more than 130 singles, albums and EP's make the UK Top 20, more than any other artist. He has achieved 14 UK number one singles (or 18, depending on the counting methodology). He holds the record (with Elvis Presley) as the only act to make the UK singles charts in all of its first six decades (1950's–2000's).

He was backed in the 1950's by The Drifters (2), who later changed their name to The Shadows.

Richard first came to fame in 1958 with his debut disc "Move It", a rock 'n' roll number in the Elvis Presley mould. However, like Elvis himself, Cliff's output quickly settled down into a string of inoffensive, largely middle-of-the-road recordings, while his squeaky clean, teen-heart-throb image was put to use in a series of exuberant, innocent, and thinly-plotted film musicals including "The Young Ones" (1962) and "Summer Holiday" (1963).

The late 1970's saw him surprisingly re-invented as a mildly-heavy rocker, and he finally achieved the US recognition that had eluded him for so long when "Devil Woman" reached the top ten there. In 1979 he released "We Don't Talk Anymore", which became his biggest-selling single worldwide, and more hits followed. In 1983, he marked his 25th anniversary in the business with a retrospective album "Silver" and new material in unusual styles. In late 2013, he released his 100th album, "The Fabulous Rock 'N' Roll Songbook".

~ discogs
Wanda Jackson & Cliff Richard - The Best Of Rock'N'Roll (2000):

Wanda Jackson & Cliff Richard - The Best Of Rock'N'Roll (2000)

Tracklist:

Wanda Jackson:
01. Let's Have A Party [0:02:09.55]
02. Mean Mean Mean [0:02:15.12]
03. Fujiyama Mama [0:02:15.55]
04. Kansas City [0:02:45.68]
05. Sticks And Stones [0:02:12.32]
06. Tweedle Dee [0:02:42.28]
07. Lost Weekend [0:02:21.12]
08. Right Or Wrong [0:02:41.18]
09. Stupid Cupid [0:02:17.47]
10. Slipin'And Slidin' [0:02:12.53]
11. Brown Eyed Handsome Man [0:02:14.02]
12. You've Turned To A Stranger [0:02:41.25]
13. Money, Honey [0:02:15.43]
14. Don'a Wanna [0:02:13.35]
15. Did You Miss Me? [0:02:17.42]
16. Cool Love [0:02:14.63]

Cliff Richard:
17. The Young Ones [0:03:13.08]
18. When The Girl Is In Your Arms Is The Girl In Your Heart [0:02:27.12]
19. "D" In Love [0:02:30.63]
20. Move It [0:02:25.72]
21. Forty Days (To Come Back Home) [0:02:49.48]
22. Never Mind [0:02:04.72]
23. We Say Yeah [0:02:14.40]
24. It'll Be Me [0:01:57.23]
25. Living Doll [0:02:39.62]
26. Gee Whiz Its You [0:02:02.63]
27. Dynamite [0:01:54.55]
28. Mean Streak [0:02:02.62]
29. Please Don't Tease [0:03:01.55]
30. Nine Times Out Of Ten [0:02:10.03]
31. Got A Funny Feeling [0:02:56.25]

Exact Audio Copy V0.99 prebeta 4 from 23. January 2008

EAC extraction logfile from 8. April 2009, 21:34

Wanda Jackson & Cliff Richard / The Best Of Rock'N'Roll

Used drive : Optiarc DVD RW AD-7173A Adapter: 3 ID: 0

Read mode : Secure
Utilize accurate stream : Yes
Defeat audio cache : Yes
Make use of C2 pointers : No

Read offset correction : 48
Overread into Lead-In and Lead-Out : No
Fill up missing offset samples with silence : Yes
Delete leading and trailing silent blocks : No
Null samples used in CRC calculations : Yes
Used interface : Native Win32 interface for Win NT & 2000

Used output format : Internal WAV Routines
Sample format : 44.100 Hz; 16 Bit; Stereo


TOC of the extracted CD

Track | Start | Length | Start sector | End sector
––––––––––––––––––––––––––––-
1 | 0:00.00 | 2:09.55 | 0 | 9729
2 | 2:09.55 | 2:15.12 | 9730 | 19866
3 | 4:24.67 | 2:15.55 | 19867 | 30046
4 | 6:40.47 | 2:45.68 | 30047 | 42489
5 | 9:26.40 | 2:12.32 | 42490 | 52421
6 | 11:38.72 | 2:42.28 | 52422 | 64599
7 | 14:21.25 | 2:21.12 | 64600 | 75186
8 | 16:42.37 | 2:41.18 | 75187 | 87279
9 | 19:23.55 | 2:17.47 | 87280 | 97601
10 | 21:41.27 | 2:12.53 | 97602 | 107554
11 | 23:54.05 | 2:14.02 | 107555 | 117606
12 | 26:08.07 | 2:41.25 | 117607 | 129706
13 | 28:49.32 | 2:15.43 | 129707 | 139874
14 | 31:05.00 | 2:13.35 | 139875 | 149884
15 | 33:18.35 | 2:17.42 | 149885 | 160201
16 | 35:36.02 | 2:14.63 | 160202 | 170314
17 | 37:50.65 | 3:13.08 | 170315 | 184797
18 | 41:03.73 | 2:27.12 | 184798 | 195834
19 | 43:31.10 | 2:30.63 | 195835 | 207147
20 | 46:01.73 | 2:25.72 | 207148 | 218094
21 | 48:27.70 | 2:49.48 | 218095 | 230817
22 | 51:17.43 | 2:04.72 | 230818 | 240189
23 | 53:22.40 | 2:14.40 | 240190 | 250279
24 | 55:37.05 | 1:57.23 | 250280 | 259077
25 | 57:34.28 | 2:39.62 | 259078 | 271064
26 | 60:14.15 | 2:02.63 | 271065 | 280277
27 | 62:17.03 | 1:54.55 | 280278 | 288882
28 | 64:11.58 | 2:02.62 | 288883 | 298094
29 | 66:14.45 | 3:01.55 | 298095 | 311724
30 | 69:16.25 | 2:10.03 | 311725 | 321477
31 | 71:26.28 | 2:56.25 | 321478 | 334702


Range status and errors

Selected range

Filename C:\Documents and Settings\Юрий\Рабочий стол\Новая папка 1\Wanda Jackson & Cliff Richard- The Best Of Rock'N'Roll\Wanda Jackson & Cliff Richard - The Best Of Rock'N'Roll.wav

Peak level 100.0 %
Range quality 99.9 %
Copy CRC 6E7C3764
Copy OK

No errors occurred


AccurateRip summary

Track 1 not present in database
Track 2 not present in database
Track 3 not present in database
Track 4 not present in database
Track 5 not present in database
Track 6 not present in database
Track 7 not present in database
Track 8 not present in database
Track 9 not present in database
Track 10 not present in database
Track 11 not present in database
Track 12 not present in database
Track 13 not present in database
Track 14 not present in database
Track 15 not present in database
Track 16 not present in database
Track 17 not present in database
Track 18 not present in database
Track 19 not present in database
Track 20 not present in database
Track 21 not present in database
Track 22 not present in database
Track 23 not present in database
Track 24 not present in database
Track 25 not present in database
Track 26 not present in database
Track 27 not present in database
Track 28 not present in database
Track 29 not present in database
Track 30 not present in database
Track 31 not present in database

None of the tracks are present in the AccurateRip database

End of status report

foobar2000 1.2.9 / Dynamic Range Meter 1.1.1
log date: 2017-05-05 09:46:28

––––––––––––––––––––––––––––––––––––––––
Analyzed: Wanda Jackson & Cliff Richard / The Best Of Rock'N'Roll
––––––––––––––––––––––––––––––––––––––––

DR Peak RMS Duration Track
––––––––––––––––––––––––––––––––––––––––
DR10 -2.60 dB -15.09 dB 2:10 01-Let's Have A Party
DR9 -5.38 dB -16.48 dB 2:15 02-Mean Mean Mean
DR10 -6.41 dB -18.20 dB 2:16 03-Fujiyama Mama
DR9 -2.39 dB -13.85 dB 2:46 04-Kansas City
DR11 -2.91 dB -16.24 dB 2:12 05-Sticks And Stones
DR12 -1.50 dB -14.63 dB 2:42 06-Tweedle Dee
DR12 -2.13 dB -16.45 dB 2:21 07-Lost Weekend
DR11 -2.08 dB -15.42 dB 2:41 08-Right Or Wrong
DR12 -1.38 dB -15.05 dB 2:18 09-Stupid Cupid
DR11 -2.41 dB -15.52 dB 2:13 10-Slipin'And Slidin'
DR11 -2.06 dB -15.39 dB 2:14 11-Brown Eyed Handsome Man
DR10 -4.29 dB -16.31 dB 2:41 12-You've Turned To A Stranger
DR11 -1.57 dB -14.48 dB 2:16 13-Money, Honey
DR12 -1.35 dB -15.80 dB 2:13 14-Don'a Wanna
DR11 -4.62 dB -17.23 dB 2:18 15-Did You Miss Me?
DR10 -4.41 dB -15.39 dB 2:15 16-Cool Love
DR9 -2.39 dB -13.04 dB 3:13 17-The Young Ones
DR10 -3.65 dB -17.26 dB 2:27 18-When The Girl Is In Your Arms Is The Girl In Your Heart
DR11 -2.30 dB -15.54 dB 2:31 19- 'D' In Love
DR13 -0.85 dB -15.77 dB 2:26 20-Move It
DR12 0.00 dB -15.03 dB 2:50 21-Forty Days (To Come Back Home)
DR11 -1.72 dB -14.88 dB 2:05 22-Never Mind
DR11 -1.25 dB -14.28 dB 2:15 23-We Say Yeah
DR11 -0.42 dB -12.66 dB 1:57 24-It'll Be Me
DR11 -0.66 dB -14.07 dB 2:40 25-Living Doll
DR10 -2.22 dB -15.50 dB 2:03 26-Gee Whiz Its You
DR10 -3.03 dB -15.62 dB 1:55 27-Dynamite
DR13 -0.85 dB -15.71 dB 2:03 28-Mean Streak
DR10 -3.24 dB -14.93 dB 3:02 29-Please Don't Tease
DR10 -1.60 dB -13.95 dB 2:10 30-Nine Times Out Of Ten
DR11 -1.47 dB -14.81 dB 2:56 31-Got A Funny Feeling
––––––––––––––––––––––––––––––––––––––––

Number of tracks: 31
Official DR value: DR11

Samplerate: 44100 Hz
Channels: 2
Bits per sample: 16
Bitrate: 794 kbps
Codec: FLAC

[CUETools log; Date: 05.05.2017 9:46:35; Version: 2.1.4]
[CTDB TOCID: s3..gcNRfHdU7qyakQSJ2LtAu94-] disk not present in database.
[AccurateRip ID: 00519618-07044437-b7116e1f] disk not present in database.

Track Peak [ CRC32 ] [W/O NULL] [ LOG ]
– 99,9 [6E7C3764] [432EFAB6] CRC32
01 74,1 [C42A27FC] [9EAEA1F6]
02 53,8 [D12A91BE] [CA237911]
03 47,7 [9231BFE2] [9A2F8885]
04 75,9 [B65B558C] [080381E0]
05 71,5 [219AD139] [79C204FD]
06 84,1 [91051E2D] [0374BBFE]
07 78,2 [AF2CC0B9] [468C0C00]
08 78,7 [14264C3B] [52AC9AB9]
09 85,3 [36A9E951] [5F9A7543]
10 75,8 [C14B4456] [F3165F6C]
11 78,8 [E4150529] [3E4C2F73]
12 61,0 [AA97C0B7] [A21D09C2]
13 83,5 [D99942D9] [9BDF9611]
14 85,6 [C5E77DE1] [1068B0EC]
15 58,7 [E2F2AB2A] [0B9157C3]
16 60,2 [7F4AB488] [F1C1D015]
17 75,9 [24F178C4] [8AB45FFB]
18 65,6 [4B91B2F4] [6B689185]
19 76,7 [00023150] [ED6DCC95]
20 90,6 [4A7C4D88] [97B8172D]
21 99,9 [97E3830E] [CF5564E3]
22 82,0 [57230670] [07907560]
23 86,6 [B426D709] [09C6B17A]
24 95,3 [89861CEE] [B40FB398]
25 92,6 [4B59B185] [F6E1341D]
26 77,4 [A535108D] [2848C767]
27 70,5 [74F9982E] [31925408]
28 90,6 [491E7A5B] [9F2C0349]
29 68,8 [76891919] [B080E6C5]
30 83,1 [2AA8F7C4] [69E40D61]
31 84,4 [D9744803] [CFE95270]

Wanda Jackson & Cliff Richard - The Best Of Rock'N'Roll (2000)

All thanks go to Музфан

Cliff Richard in my Blog

Download Wanda Jackson & Cliff Richard - The Best Of Rock'N'Roll (2000):