Subcategories

Wanderer Trio - Complete Piano Trios (2006) (Repost)

Posted By: tirexiss
Wanderer Trio - Complete Piano Trios (2006) (Repost)

Wanderer Trio - Complete Piano Trios (2006)
EAC | APE (image+.cue, log) | Covers Included | 02:05:00 | 508 MB
Genre: Classical | Label: Harmonia Mundi | Catalog: HMC 901915

Robust? Vigorous? Muscular? None of those adjectives even come close to describing these performances by the French Trio Wanderer of Brahms' three piano trios and G minor Piano Quartet. The opening theme of the Allegro con brio in the B flat Trio has rarely sounded so lushly sonorous. The passage work of the Scherzo in the C major Trio has not often been so incredibly relentless. The unisons at the start of the C minor Trio have never been so immensely powerful. The cadenza in the G minor Quartet's Rondo alla Zingarese has never been taken at such a breakneck tempo. For some listeners, it may ultimately prove all too exhausting. The Trio Wanderer is a first-class group with an enormous sound, tight ensemble, and virtuoso technique, but the interpretations here are so unbearably intense and overwhelmingly expressive that listeners used to the more refined sound and more reserved interpretations by, say, the Beaux Arts Trio, might find them too extravagantly Romantic. But even they will have to admit that, taken a work at a time with suitable pauses in between for rest, refreshment, and reinforcement, the Trio Wanderer's performances are quite impressive, particularly in Harmonia Mundi's big, close, and colorful sound.

Wanderer Trio - Complete Piano Trios (2006) (Repost)

Track List:

CD 1:
[01]-[04] Piano Trio No. 1 in B major, Op. 8
[05]-[08] Piano Trio No. 2 in C major, Op. 87

EAC extraction logfile from 23. November 2007, 18:04 for CD
Brahms / Complete Piano Trios - I

Used drive : LITE-ON DVDRW SOHW-1673S Adapter: 0 ID: 1
Read mode : Secure with C2, accurate stream, disable cache
Combined read/write offset correction : 0
Overread into Lead-In and Lead-Out : No

Used output format : Monkey's Audio Lossless Encoder v3.99 DLL
Normal Lossless Compression

Other options :
Fill up missing offset samples with silence : Yes
Delete leading and trailing silent blocks : No
Native Win32 interface for Win NT & 2000


Range status and errors
Selected range
Filename C:\RIP\CDImage.ape

Peak level 93.2 %
Range quality 100.0 %
CRC 10E1C953
Copy OK

No errors occured

End of status report

[CUETools log; Date: 14.11.2017 18:34:28; Version: 2.1.5]
[CTDB TOCID: YqTlbZsS81IWkrxGPGqFlyAKKb0-] found.
Track | CTDB Status
1 | (47/48) Accurately ripped
2 | (45/48) Accurately ripped
3 | (47/48) Accurately ripped
4 | (47/48) Accurately ripped
5 | (47/48) Accurately ripped
6 | (46/48) Accurately ripped
7 | (47/48) Accurately ripped
8 | (46/48) Accurately ripped
[AccurateRip ID: 00164f41-008fc9e8-740f1908] found.
Track [ CRC | V2 ] Status
01 [e4e61c3c|7a38e0ed] (00+00/41) No match
02 [faecc7a7|f7fa4e85] (00+00/41) No match
03 [54eb235f|c63d1c9a] (00+00/41) No match
04 [ab9cdcf0|5e81cc24] (00+00/41) No match
05 [81c67632|f2e269a0] (00+00/41) No match
06 [aa24af58|b8343bba] (00+00/40) No match
07 [a9fb3a76|4b443905] (00+00/40) No match
08 [5001cc32|d6ac1b94] (00+00/40) No match
Offsetted by 12:
01 [5bb56487] (13/41) Accurately ripped
02 [63386d5d] (13/41) Accurately ripped
03 [4ed881cd] (13/41) Accurately ripped
04 [34db39ff] (13/41) Accurately ripped
05 [fff602e6] (13/41) Accurately ripped
06 [bac07225] (13/40) Accurately ripped
07 [429057cd] (12/40) Accurately ripped
08 [a40f6640] (12/40) Accurately ripped

Track Peak [ CRC32 ] [W/O NULL] [ LOG ]
– 93,2 [3C2D8A10] [10E1C953] W/O NULL
01 86,2 [37AF8978] [CAFE57DC]
02 76,9 [60738D4D] [8A20FE56]
03 52,8 [13CA5ED5] [9ED69207]
04 93,2 [28F81024] [19CC1BE8]
05 90,1 [B230F1A5] [9FDC3975]
06 86,1 [CB12FD2D] [1F184904]
07 76,0 [6AD0215A] [830EB90F]
08 89,3 [5AC40A8A] [00601FB8]

CD 2:
[01]-[04] Piano Trio No. 3 in c minor, Op. 101
[05]-[08] Piano Quartet No. 1 in g minor, Op. 25

EAC extraction logfile from 23. November 2007, 18:30 for CD
Trio Wanderer / Brahms, Piano Trios (Disk 2)

Used drive : LITE-ON DVDRW SOHW-1673S Adapter: 0 ID: 1
Read mode : Secure with C2, accurate stream, disable cache
Combined read/write offset correction : 0
Overread into Lead-In and Lead-Out : No

Used output format : Monkey's Audio Lossless Encoder v3.99 DLL
Normal Lossless Compression

Other options :
Fill up missing offset samples with silence : Yes
Delete leading and trailing silent blocks : No
Native Win32 interface for Win NT & 2000


Range status and errors
Selected range
Filename C:\RIP\CDImage.ape

Peak level 92.4 %
Range quality 100.0 %
CRC 1B093AE4
Copy OK

No errors occured

End of status report

[CUETools log; Date: 14.11.2017 18:35:42; Version: 2.1.5]
[CTDB TOCID: 48TxKASecaVN3y8t.wRBEmEJtus-] found.
Track | CTDB Status
1 | (45/46) Accurately ripped
2 | (45/46) Accurately ripped
3 | (45/46) Accurately ripped
4 | (45/46) Accurately ripped
5 | (45/46) Accurately ripped
6 | (43/46) Accurately ripped
7 | (44/46) Accurately ripped
8 | (45/46) Accurately ripped
[AccurateRip ID: 0010dd75-00743dac-720e5008] found.
Track [ CRC | V2 ] Status
01 [9ce4505d|b1d7d028] (00+00/41) No match
02 [0c6ef3a2|34ba0f43] (00+00/41) No match
03 [b7e585c6|cb0290af] (00+00/41) No match
04 [96b7c943|b1005969] (00+00/40) No match
05 [0f07d3e8|31872dad] (00+00/39) No match
06 [b91c3fac|aff1ece4] (00+00/39) No match
07 [388a1a80|8cfa6907] (00+00/39) No match
08 [91276a9e|75232321] (00+00/39) No match
Offsetted by 12:
01 [e09fcd6b] (14/41) Accurately ripped
02 [cffbb66d] (14/41) Accurately ripped
03 [0db92a2d] (14/41) Accurately ripped
04 [938cc25e] (14/40) Accurately ripped
05 [fec25bae] (13/39) Accurately ripped
06 [694fe77a] (13/39) Accurately ripped
07 [22a6b2f1] (13/39) Accurately ripped
08 [3ea0e7a0] (12/39) Accurately ripped

Track Peak [ CRC32 ] [W/O NULL] [ LOG ]
– 92,4 [A71F82B1] [1B093AE4] W/O NULL
01 92,4 [093CC5C2] [1E56D832]
02 36,1 [C789D1EC] [6DFD68A9]
03 66,5 [6DC017D4] [2440F7E0]
04 88,1 [6F5BDA70] [8A4707A1]
05 92,1 [E5052732] [8DB119E5]
06 53,9 [6C7D2799] [C8C39E52]
07 86,4 [9C02D934] [C88F23F2]
08 90,0 [F3AD5835] [E558E41E]

Performers:
Trio Wanderer
Christophe Gaugué (viola)

Thanks to the Original ripper (unknown)!

Download: