Subcategories

War - Life (Is So Strange) (1983) [1996, Reissue]

Posted By: BlondStyle
War - Life (Is So Strange) (1983) [1996, Reissue]

War - Life (Is So Strange) (1983) [1996, Reissue]
R&B, Jazz-Funk, Pop/Rock | EAC Rip | FLAC, Img+CUE+LOG+Scans (JPEG) | 41:47 | 268,66 Mb
Label: Avenue Records (USA) | Cat.# R2 72288 | Released: 1996-07-17 (1983)
War - Life (Is So Strange) (1983) [1996, Reissue]

"Life (is So Strange)" is an album by War, released on RCA Victor Records in 1983. It marked the end of a continuous string of albums by the group from 1970, and they would not record another album until a decade later. The band's lineup is not stated on the cover, but composer credits suggest they had been reduced from eight members (on the previous album) to five. The pop art cover references concerns about nuclear war in Los Angeles, the group's home.
War - Life (Is So Strange) (1983) [1996, Reissue]




Release of this album: 1983 [LP RCA Victor, Cat.# AFL1-4598, USA]
Release of this CD: 1996, July, 17 [CD Avenue Records (USA), Cat.# R2 72288 / UPC: 081227228828]
℗ 1983 © 1983 & 1996 Avenue Records, a division of Audio Visual Entertainment, Inc.
Manufactured and Distributed by Rhino Records, Inc. through WEA
Printed in U.S.A.


Credits:

Art Direction, Design – Mike Doud
Engineer [Recording] – Chris Houston, John Fischback
Engineer [Remix] – John Fischback
Illustration – Lou Beach
Management – Steve Gold
Mastered By [Mastering Engineer] – Bernie Grundman
Producer – Jerry Goldstein, Lonnie Jordan
Written-By – H. Brown (tracks: 1 to 3c, 6a to 6d), H. Scott (tracks: 1 to 3c, 6a to 6d), J. Goldstein (tracks: 1 to 5, 6a to 6d), L. Oskar (tracks: 1 to 3c, 5 to 6d), L. Jordan (tracks: 1 to 3c, 6a to 6d), S. Allen (tracks: 1 to 3c, 6a to 6d), R. J. Renois (tracks: 4)


Tracklist:

01. "Life (Is So Strange)" (06:01)
02. "Happiness" (07:42)
03. "W.W. III (Medley)" (08:09)
a. "The Dawning Of Night"
b. "Waiting At The Church"
c. "When The Nightime Comes"
04."Shake It Down" (05:01)
05. "Summer Dreams" (05:04)
06. "U-2 (Medley)" (09:51)
a. "U-2 (Part 1)"
b. "Automatic Eyes"
c. "U-2 (Part 2)"
d. "U-2 (Part 3)"

Exact Audio Copy V1.3 from 2. September 2016

EAC extraction logfile from 14. November 2016, 9:47

WAR / Life (Is So Strange)

Used drive : Memorex 52MAXX 3252AJ1 Adapter: 1 ID: 1

Read mode : Secure
Utilize accurate stream : Yes
Defeat audio cache : Yes
Make use of C2 pointers : No

Read offset correction : 6
Overread into Lead-In and Lead-Out : No
Fill up missing offset samples with silence : Yes
Delete leading and trailing silent blocks : No
Null samples used in CRC calculations : Yes
Used interface : Native Win32 interface for Win NT & 2000

Used output format : User Defined Encoder
Selected bitrate : 896 kBit/s
Quality : High
Add ID3 tag : No
Command line compressor : C:\Program Files (x86)\Exact Audio Copy\Flac\flac.exe
Additional command line options : %ishigh%-V -p -l 12 -b 4096 -m -e -r 8%ishigh%%islow%-5%islow% –replay-gain -T "ARTIST=%artist%" -T "ALBUM=%albumtitle%" -T "TITLE=%title%" -T "DATE=%year%" -T "TRACKNUMBER=%tracknr%" -T "GENRE=%genre%" -T "ENSEMBLE=%albuminterpret%" -T "ALBUMARTIST=%albumartist%" -T "COMPOSER=%albumcomposer%" -T "DISCNUMBER=%cdnumber%" -T "TOTALDISCS=%totalcds%" -T "TOTALTRACKS=%numtracks%" -T "SOURCEMEDIA=CD" -T "COMMENT=%comment%" %hascover%-T "PICTURE=%coverfile%"%hascover% %source%


TOC of the extracted CD

Track | Start | Length | Start sector | End sector
––––––––––––––––––––––––––––-
1 | 0:00.32 | 6:00.60 | 32 | 27091
2 | 6:01.17 | 7:41.40 | 27092 | 61706
3 | 13:42.57 | 8:08.43 | 61707 | 98349
4 | 21:51.25 | 5:01.37 | 98350 | 120961
5 | 26:52.62 | 5:03.73 | 120962 | 143759
6 | 31:56.60 | 9:50.72 | 143760 | 188081


Range status and errors

Selected range

Filename C:\Users\M@ce\Music\Archives\Rips\Burn WAV\WAR - Life (Is So Strange).wav

Peak level 97.1 %
Extraction speed 8.5 X
Range quality 100.0 %
Test CRC 5A748BF0
Copy CRC 5A748BF0
Copy OK

No errors occurred


AccurateRip summary

Track 1 accurately ripped (confidence 2) [8F0C08D6] (AR v2)
Track 2 accurately ripped (confidence 2) [CDFB1896] (AR v2)
Track 3 accurately ripped (confidence 2) [EC5A8743] (AR v2)
Track 4 accurately ripped (confidence 2) [F235B60B] (AR v2)
Track 5 accurately ripped (confidence 2) [2B67BD16] (AR v2)
Track 6 accurately ripped (confidence 2) [88B375DC] (AR v2)

All tracks accurately ripped

End of status report

–– CUETools DB Plugin V2.1.6

[CTDB TOCID: 3uftphG2tqeByg673aUcLrMM0eA-] found
Submit result: 3uftphG2tqeByg673aUcLrMM0eA- has been confirmed
Track | CTDB Status
1 | (2/2) Accurately ripped
2 | (1/2) Accurately ripped, or (1/2) differs in 1 samples @02:50:22
3 | (2/2) Accurately ripped
4 | (1/2) Accurately ripped, or (1/2) differs in 1 samples @04:05:71
5 | (1/2) Accurately ripped, or (1/2) differs in 1 samples @03:55:54
6 | (2/2) Accurately ripped


==== Log checksum CC4C2C7A9309E93CF33932DBE141C34A505D5334BC02FABE898A8D9BF4C0AB50 ====

––––––––––––––––––––––––––––––––––––––––
Analyzed: WAR / Life (Is So Strange)
––––––––––––––––––––––––––––––––––––––––

DR Peak RMS Duration Track
––––––––––––––––––––––––––––––––––––––––
DR15 -0.41 dB -19.04 dB 6:01 01-Life (Is So Strange)
DR15 -0.25 dB -17.36 dB 7:42 02-happiness
DR16 -0.37 dB -18.70 dB 8:09 03-W.W III (Medley) a. The Dawning Of Night b. Waiting At The Crurch c. When The…
DR14 -0.37 dB -16.97 dB 5:01 04-Shake It Down
DR15 -0.39 dB -18.91 dB 5:04 05-Summer Dreams
DR16 -0.35 dB -19.22 dB 9:51 06-U-2 (Medley) a. U-2 (Part 1) b. Automatic Eyes c. U-2 (Part 2) d. U-2 (Part 3)
––––––––––––––––––––––––––––––––––––––––

Number of tracks: 6
Official DR value: DR15

Samplerate: 44100 Hz
Channels: 2
Bits per sample: 16
Bitrate: 841 kbps
Codec: FLAC
================================================================================

Thanks to my friend, M@ce

See also:
War - Outlaw (1982) [1995, Remastered Reissue]

♫~Welcome To My Blog~♫

password: BlondStyle