Subcategories

Warlock - True As Steel (1986) [Re-Release 2011]

Posted By: Andi_Deris
Warlock - True As Steel (1986) [Re-Release 2011]

Warlock - True As Steel (1986) [Re-Release 2011]
EAC Rip | FLAC: Image+Cue+Log | MP3 CBR 320 kbps | Scans
382 Mb | 123 Mb | 49 Mb | Time: 52:41
Metal Mind Productions | MASS CD 1417 DG
Heavy Metal

True as Steel is the third studio album by German heavy metal band Warlock, released in 1986. The EP Fight for Rock, which contained many songs from this album, was Warlock's first success outside of Europe, charting on the US Billboard Hot 100; the music video for the song "Fight for Rock" was aired on MTV's Headbangers Ball. New digipak edition includes 3 bonus tracks and is limited to numbered 2000 copies. Re-released on a golden disc.

Warlock - True As Steel (1986) [Re-Release 2011]




Track Listing

01. Mr. Gold (04:10)
02. Fight For Rock (03:09)
03. Love In The Danger Zone (04:15)
04. Speed Of Sound (03:40)
05. Midnite In China (04:32)
06. Vorwärts, All Right! (04:08)
07. True As Steel (03:30)
08. Lady In A Rock'n'Roll Hell (03:46)
09. Love Song (04:01)
10. Igloo On The Moon (Reckless) (03:02)
11. T.O.L. (02:20)
12. You Hurt My Soul (Bonus Track) (05:29)
13. Turn It On (Bonus Track) (03:40)
14. Evil (Bonus Track) (02:57)

Produced by Henry Staroste

The Band

• Doro Pesch - vocals
• Peter Szigeti - guitar
• Niko Arvanitis - guitar
• Frank Rittel - bass
• Michael Eurich - drums

Notes

Limited Edition, Numbered, Reissue, Remastered, Digipak, Gold Disc

Digitally remastered using 24-bit process on a golden disc.

Limited edition to 2000 numbered copies.


Exact Audio Copy V0.99 prebeta 5 from 4. May 2009

EAC extraction logfile from 23. June 2011, 11:18

WARLOCK / True As Steel (Remaster 2011 Digipack)

Used drive : HL-DT-STDVDRAM GSA-H10A Adapter: 3 ID: 0

Read mode : Secure
Utilize accurate stream : Yes
Defeat audio cache : Yes
Make use of C2 pointers : No

Read offset correction : 667
Overread into Lead-In and Lead-Out : No
Fill up missing offset samples with silence : Yes
Delete leading and trailing silent blocks : No
Null samples used in CRC calculations : Yes
Used interface : Native Win32 interface for Win NT & 2000

Used output format : Monkey's Audio Lossless Encoder
Selected bitrate : High Lossless Compression
Quality : High
Add ID3 tag : Yes
Command line compressor : C:\Archivos de programa\Monkey's Audio\MAC.exe

TOC of the extracted CD

Track | Start | Length | Start sector | End sector
––––––––––––––––––––––––––––-
1 | 0:00.00 | 4:10.00 | 0 | 18749
2 | 4:10.00 | 3:09.30 | 18750 | 32954
3 | 7:19.30 | 4:14.57 | 32955 | 52061
4 | 11:34.12 | 3:39.73 | 52062 | 68559
5 | 15:14.10 | 4:31.65 | 68560 | 88949
6 | 19:46.00 | 4:07.55 | 88950 | 107529
7 | 23:53.55 | 3:29.65 | 107530 | 123269
8 | 27:23.45 | 3:46.00 | 123270 | 140219
9 | 31:09.45 | 4:01.30 | 140220 | 158324
10 | 35:11.00 | 3:02.30 | 158325 | 172004
11 | 38:13.30 | 2:19.52 | 172005 | 182481
12 | 40:33.07 | 5:29.18 | 182482 | 207174
13 | 46:02.25 | 3:40.07 | 207175 | 223681
14 | 49:42.32 | 2:57.19 | 223682 | 236975

Range status and errors

Selected range

Filename D:\Música\EAC\Warlock\True As Steel\WARLOCK - True As Steel (Remaster 2011 Digipack).wav

Peak level 98.8 %
Range quality 100.0 %
Test CRC E23671CA
Copy CRC E23671CA
Copy OK

No errors occurred

AccurateRip summary

Track 1 not present in database
Track 2 not present in database
Track 3 not present in database
Track 4 not present in database
Track 5 not present in database
Track 6 not present in database
Track 7 not present in database
Track 8 not present in database
Track 9 not present in database
Track 10 not present in database
Track 11 not present in database
Track 12 not present in database
Track 13 not present in database
Track 14 not present in database

None of the tracks are present in the AccurateRip database

End of status report


Many thanks to the original uploader: jarpomarx





Password: pass