Subcategories

Wax UK (Andrew Gold & Graham Gouldman) - Albums Collection 1986-2000 (6CD) [Re-Up]

Posted By: Designol
Wax UK (Andrew Gold & Graham Gouldman) - Albums Collection 1986-2000 (6CD) [Re-Up]

Wax UK (Andrew Gold & Graham Gouldman) - Albums Collection 1986-2000 (6CD)
EAC | APE | Image (Cue&Log) ~ 2.1 Gb | Mp3 (CBR320) ~ 770 Mb | Scans ~ 250 Mb
Pop/Rock, Pop, New Wave, Soft Rock | Time: 05:33:56

Wax was a 1980s pop rock group consisting of Andrew Gold and 10cc guitarist/bassist Graham Gouldman. In the US, they were listed as Wax UK. The band is best known for the hit singles "Right Between the Eyes" and "Bridge to Your Heart".

Wax UK was the union of veteran musicians Andrew Gold and Graham Gouldman, which produced several albums in the 1980s. Gold, the son of Academy Award-winning composer Ernest Gold and Marni Nixon (who had handled the singing for, among others, Natalie Wood in West Side Story), had been a member of Linda Ronstadt's band and found success as a solo artist and songwriter in the '70s. Gouldman had been a solo artist as well as a member of Hotlegs and 10CC.

In 1986, Wax UK released their debut, Magnetic Heaven, which spent nearly three months on the U.S. album charts, spawning the hit "Right Between the Eyes," which just failed to reach the Top 40, peaking at number 43. Two more albums by the duo followed, 1987's American English, which contained the successful European single "Bridge to Your Heart," and 1989's A Hundred Thousand in Fresh Notes. The latter two records failed to achieve sales of the debut and, by the beginning of the '90s, both Gold and Gouldman had moved on to other efforts; the former, in the singer/songwriter collaboration Bryndle; the latter, participating in a reunion with his 10CC mates.

Biography by Tom Demalon, Allmusic.com

Wax at Wiki



Wax UK (Andrew Gold & Graham Gouldman) - Albums Collection 1986-2000 (6CD) [Re-Up]

Wax UK - Magnetic Heaven (1986) Reissue 2008
EAC | APE | Image (Cue&Log) ~ 264 Mb | Mp3 (CBR320) ~ 104 Mb | Scans ~ 43 Mb
Label: Renaissance Records | # RMED-288 | Time: 00:45:42

The debut album by one of the most promising double acts of the mid-'80s, complicated somewhat by an overwhelming need to sound like contemporary artists. Neither Graham Gouldman nor Andrew Gold could be said to have built their careers on danceable pop music; nor could their respective audiences have really been dying to hear them try. But they went for it anyway and, aided by a studio stuffed with the latest in techno gadgetry, turned in an album that could certainly hold its own against the majority of what was on the streets at that time. Indeed, "Right Between the Eyes" deserved to be as big a hit as any contemporary smash you can name, and digging deeper into the album, it was clear that even if the duo weren't exactly busting a gut in the songwriting stakes, they did have their finger on the modern pulse.

Review by Dave Thompson, Allmusic.com

Tracklist:

01. Right Between The Eyes (04:08)
02. Hear No Evil (04:17)
03. Shadows Of Love (04:41)
04. Marie Claire (04:07)
05. Ball And Chain (05:48)
06. Systematic (04:19)
07. Breakout (04:19)
08. Only A Visitor (05:02)
09. Rise Up (05:26)
10. Magnetic Heaven (03:30)


Отчёт EAC об извлечении, выполненном 23. августа 2008, 13:52 для диска:
Wax / Magnetic Heaven

Дисковод: PLEXTOR CD-R PX-W5224A Adapter: 1 ID: 1
Режим чтения: Достоверный (C2: нет, Точный поток: да, Отключение кэша: да)
Коррекция смещения при чтении: 30
Способность читать области Lead-in и Lead-out : Да

Выходной формат: Monkey's Audio Lossless Encoder v3.99 DLL
High Lossless Compression

Другие параметры:
Заполнение пропущенных сэмплов тишиной : Да
Удаление блоков с тишиной в начале и конце : Нет
Установленный внешний ASPI-интерфейс


Характеристики диапазона извлечения и сообщения об ошибках
Выбранный диапазон
Имя файла D:\Releases\Wax_1986_MagneticHeaven\Wax_1986_MagneticHeaven.ape

Пиковый уровень 81.4 %
Качество диапазона 100.0 %
CRC 523BCAF1
Копирование… OK

Ошибок не произошло

Конец отчёта

[CUETools log; Date: 11.11.2017 23:43:09; Version: 2.1.4]
[CTDB TOCID: QdTRg6Q.qPUQOeei1sMi3jHuPyo-] found.
Track | CTDB Status
1 | (9/9) Accurately ripped
2 | (9/9) Accurately ripped
3 | (9/9) Accurately ripped
4 | (9/9) Accurately ripped
5 | (9/9) Accurately ripped
6 | (9/9) Accurately ripped
7 | (9/9) Accurately ripped
8 | (9/9) Accurately ripped
9 | (9/9) Accurately ripped
10 | (9/9) Accurately ripped
[AccurateRip ID: 00112795-008a269b-7a0ab60a] found.
Track [ CRC | V2 ] Status
01 [fead1206|fe722db3] (0+0/2) No match
02 [f85ce564|9c592047] (0+0/2) No match
03 [65f8815a|963e39b9] (0+0/2) No match
04 [8ff4316d|3eeb0459] (0+0/2) No match
05 [2f8ad8e7|7986d2f7] (0+0/2) No match
06 [5b3ce8f8|3ccb245e] (0+0/2) No match
07 [ffd5906d|4de2d067] (0+0/2) No match
08 [a498a440|8b66a63c] (0+0/2) No match
09 [946e082e|5367171a] (0+0/2) No match
10 [d205ff78|a39246d3] (0+0/2) No match
Offsetted by -444:
01 [f1240b0e] (0/2) No match (V2 was not tested)
02 [b7d97d85] (2/2) Accurately ripped
03 [3f2ef90e] (2/2) Accurately ripped
04 [9b7990b2] (2/2) Accurately ripped
05 [7bf84101] (2/2) Accurately ripped
06 [8bad5c29] (2/2) Accurately ripped
07 [dc7ccffa] (2/2) Accurately ripped
08 [7933ef8a] (2/2) Accurately ripped
09 [c5cd229f] (2/2) Accurately ripped
10 [51b915ed] (2/2) Accurately ripped
Offsetted by 36:
01 [16718f44] (0/2) No match (V2 was not tested)
02 [7a67a844] (0/2) No match (V2 was not tested)
03 [654521e6] (0/2) No match (V2 was not tested)
04 [ed286c7d] (0/2) No match (V2 was not tested)
05 [c9bcb630] (0/2) No match (V2 was not tested)
06 [fe080134] (0/2) No match (V2 was not tested)
07 [458dff98] (0/2) No match (V2 was not tested)
08 [30810be4] (0/2) No match (V2 was not tested)
09 [0ebe721b] (0/2) No match (V2 was not tested)
10 [ca18aa88] (0/2) No match (V2 was not tested)
Offsetted by 1413:
01 [5df7618c] (0/2) No match (V2 was not tested)
02 [1b4c0296] (0/2) No match (V2 was not tested)
03 [ef683056] (0/2) No match (V2 was not tested)
04 [8bc8b8e8] (0/2) No match (V2 was not tested)
05 [533a6a35] (0/2) No match (V2 was not tested)
06 [3f2f693d] (0/2) No match (V2 was not tested)
07 [0df9129f] (0/2) No match (V2 was not tested)
08 [23ca174b] (0/2) No match (V2 was not tested)
09 [f3581200] (0/2) No match (V2 was not tested)
10 [f71ee2e3] (0/2) No match (V2 was not tested)

Track Peak [ CRC32 ] [W/O NULL]
– 81,4 [523BCAF1] [8CA9E1F5]
01 81,4 [C850CB48] [C9292963]
02 71,0 [219229F0] [FDA82D29]
03 71,8 [F61E40BD] [1AD4FACC]
04 64,2 [4645FD8E] [0B122C64]
05 69,9 [D2F4DF69] [5E0A536C]
06 67,8 [44AA4C05] [4C19B5A3]
07 61,7 [7935618B] [DF95BE1F]
08 75,2 [C82230F7] [DE1A75C2]
09 68,4 [1E791855] [F4595A9D]
10 63,6 [FCA5BD71] [6BC318B5]

foobar2000 1.2 / Dynamic Range Meter 1.1.1
log date: 2017-11-11 23:54:41

––––––––––––––––––––––––––––––––––––––––
Analyzed: Wax / Magnetic Heaven
––––––––––––––––––––––––––––––––––––––––

DR Peak RMS Duration Track
––––––––––––––––––––––––––––––––––––––––
DR13 -1.78 dB -16.57 dB 4:09 01-Right Between The Eyes
DR13 -2.96 dB -17.49 dB 4:18 02-Hear No Evil
DR12 -2.87 dB -17.46 dB 4:42 03-Shadows Of Love
DR12 -3.84 dB -17.60 dB 4:08 04-Marie Claire
DR11 -3.10 dB -16.54 dB 5:48 05-Ball And Chain
DR12 -3.37 dB -16.78 dB 4:20 06-Systematic
DR13 -4.19 dB -18.76 dB 4:20 07-Breakout
DR13 -2.47 dB -19.00 dB 5:02 08-Only A Visitor
DR13 -3.29 dB -19.54 dB 5:26 09-Rise Up
DR12 -3.92 dB -20.01 dB 3:30 10-Magnetic Heaven
––––––––––––––––––––––––––––––––––––––––

Number of tracks: 10
Official DR value: DR12

Samplerate: 44100 Hz
Channels: 2
Bits per sample: 16
Bitrate: 807 kbps
Codec: Monkey's Audio
================================================================================




Wax UK (Andrew Gold & Graham Gouldman) - Albums Collection 1986-2000 (6CD) [Re-Up]

Wax UK - American English (1987) Reissue 2008
EAC | APE | Image (Cue&Log) ~ 246 Mb | Mp3 (CBR320) ~ 95 Mb | Scans ~ 46 Mb
Label: Renaissance Records | # RMED-0289 | Time: 00:41:33

The partnership of songwriters Graham Gouldman and Andrew Gold, stepping out of the wreckage of the recently deceased 10cc, always promised a lot more than it actually delivered. While there was no denying either the talents or the heritage of either player, Wax was doomed to remain a child of its time – that awful, awkward second half of the '80s during which production and arrangements took over from the actual songwriting, and swamped even the sweetest tune in bombast and swill. And so American English disguises 11 songs beneath echoing drums, bellowing keyboards and "look at me, I'm wonderful" vocals, until even the tracks that you know should be good, like the title track, the single "Bridge to Your Heart," and "Right Between the Eyes," are reduced to little more than background noises in a particularly annoying version of Miami Vice, and what should have been an object lesson in musical brilliance becomes a master class in the worst of '80s excess. Unless, of course, you like records that sound like a lot of doors being slammed.

Review by Dave Thompson, Allmusic.com

Tracklist:

01. American English (04:26)
02. In Some Other World (04:44)
03. Ready Or Not (03:33)
04. Call It Destiny (04:04)
05. Bridge To Your Heart (04:14)
06. Share The Glory (03:57)
07. Alright Tonight (04:16)
08. The Promise (03:19)
09. Heaven In Her Bed (04:37)
10. Bug In The Machine (04:20)


Отчёт EAC об извлечении, выполненном 23. августа 2008, 17:09 для диска:
Wax UK / American English

Дисковод: PLEXTOR CD-R PX-W5224A Adapter: 1 ID: 1
Режим чтения: Достоверный (C2: нет, Точный поток: да, Отключение кэша: да)
Коррекция смещения при чтении: 30
Способность читать области Lead-in и Lead-out : Да

Выходной формат: Monkey's Audio Lossless Encoder v3.99 DLL
High Lossless Compression

Другие параметры:
Заполнение пропущенных сэмплов тишиной : Да
Удаление блоков с тишиной в начале и конце : Нет
Установленный внешний ASPI-интерфейс


Характеристики диапазона извлечения и сообщения об ошибках
Выбранный диапазон
Имя файла D:\Releases\WaxUK_1987_AmericanEnglish\WaxUK_1987_AmericanEnglish.ape

Пиковый уровень 97.7 %
Качество диапазона 100.0 %
CRC 176829C3
Копирование… OK

Ошибок не произошло

Конец отчёта

[CUETools log; Date: 11.11.2017 23:41:14; Version: 2.1.4]
[CTDB TOCID: mDYoZBC8hijNfRsFIdixwavi0kM-] found.
Track | CTDB Status
1 | (7/9) Accurately ripped
2 | (7/9) Accurately ripped
3 | (7/9) Accurately ripped
4 | (7/9) Accurately ripped
5 | (7/9) Accurately ripped
6 | (7/9) Accurately ripped
7 | (7/9) Accurately ripped
8 | (7/9) Accurately ripped
9 | (7/9) Accurately ripped
10 | (7/9) Accurately ripped
[AccurateRip ID: 000fc9cf-007da879-8309bd0a] found.
Track [ CRC | V2 ] Status
01 [667e5cb5|5c78c336] (0+0/2) No match
02 [bc119659|27366f14] (0+0/2) No match
03 [bf86d974|2b7164e1] (0+0/2) No match
04 [4667e9b0|577c41f4] (0+0/2) No match
05 [ed458e01|7b9ddf85] (0+0/2) No match
06 [239b53dc|13ca1e84] (0+0/2) No match
07 [18d56b11|eee441c3] (0+0/2) No match
08 [b9fcc742|b2b3135d] (0+0/2) No match
09 [5155fb64|7fae1af3] (0+0/2) No match
10 [aa3f4256|cea620da] (0+0/2) No match
Offsetted by 36:
01 [8112ae0c] (0/2) No match (V2 was not tested)
02 [1e4fdcf9] (0/2) No match (V2 was not tested)
03 [52a53779] (0/2) No match (V2 was not tested)
04 [318d0cd0] (0/2) No match (V2 was not tested)
05 [f10170e0] (0/2) No match (V2 was not tested)
06 [71bb249e] (0/2) No match (V2 was not tested)
07 [f9fa15c1] (0/2) No match (V2 was not tested)
08 [9fa73c9b] (0/2) No match (V2 was not tested)
09 [53e5a196] (0/2) No match (V2 was not tested)
10 [02638d1e] (0/2) No match (V2 was not tested)
Offsetted by 1334:
01 [5bba8f24] (0/2) No match (V2 was not tested)
02 [9581e2c3] (0/2) No match (V2 was not tested)
03 [c3645c27] (0/2) No match (V2 was not tested)
04 [c7ff8cd1] (0/2) No match (V2 was not tested)
05 [6a469cef] (0/2) No match (V2 was not tested)
06 [757d95b2] (0/2) No match (V2 was not tested)
07 [1804d5c9] (0/2) No match (V2 was not tested)
08 [2037764b] (0/2) No match (V2 was not tested)
09 [4d5b5af4] (0/2) No match (V2 was not tested)
10 [16a524d4] (0/2) No match (V2 was not tested)

Track Peak [ CRC32 ] [W/O NULL]
– 97,7 [176829C3] [AD294AC8]
01 79,1 [64B17E21] [5C7989C6]
02 93,0 [F301B11F] [1BF1BD0C]
03 83,0 [B0C6504F] [340670DE]
04 97,7 [32264BAD] [61982D42]
05 84,1 [7A440D62] [57B79D6E]
06 68,3 [3EDD3EF6] [3BA1AC96]
07 79,3 [2B5C6A7D] [C580EE3C]
08 72,8 [9E58A6D0] [D6430920]
09 80,1 [E0C6F231] [8FC7E56E]
10 90,5 [240510DC] [8C5D6603]

foobar2000 1.2 / Dynamic Range Meter 1.1.1
log date: 2017-11-11 23:59:51

––––––––––––––––––––––––––––––––––––––––
Analyzed: Wax UK / American English
––––––––––––––––––––––––––––––––––––––––

DR Peak RMS Duration Track
––––––––––––––––––––––––––––––––––––––––
DR13 -2.03 dB -16.40 dB 4:26 01-American English
DR13 -0.62 dB -16.66 dB 4:45 02-In Some Other World
DR12 -1.61 dB -15.57 dB 3:34 03-Ready Or Not
DR13 -0.20 dB -15.29 dB 4:04 04-Call It Destiny
DR13 -1.50 dB -16.56 dB 4:14 05-Bridge To Your Heart
DR13 -3.30 dB -19.76 dB 3:57 06-Share The Glory
DR16 -2.01 dB -19.57 dB 4:16 07-Alright Tonight
DR12 -2.75 dB -18.34 dB 3:19 08-The Promise
DR14 -1.92 dB -18.58 dB 4:38 09-Heaven In Her Bed
DR15 -0.86 dB -17.84 dB 4:21 10-Bug In The Machine
––––––––––––––––––––––––––––––––––––––––

Number of tracks: 10
Official DR value: DR13

Samplerate: 44100 Hz
Channels: 2
Bits per sample: 16
Bitrate: 827 kbps
Codec: Monkey's Audio
================================================================================




Wax UK (Andrew Gold & Graham Gouldman) - Albums Collection 1986-2000 (6CD) [Re-Up]

Wax UK - A Hundred Thousand in Fresh Notes (1989)
EAC | APE | Image (Cue&Log) ~ 270 Mb | Mp3 (CBR320) ~ 101 Mb | Scans ~ 58 Mb
Label: RCA/BMG | # PD 74182 | Time: 00:44:06

Two great songwriters come together as Wax, Andrew Gold and Graham Gouldman. This is their third release.

Tracklist:

01. Anchors Aweigh (06:12)
02. Wherever You Are (03:26)
03. Railroad To Heaven (03:42)
04. He Said She Said (03:58)
05. Spell On You (04:08)
06. Don't Play That Song (04:24)
07. Pictures Of Paris (03:22)
08. Maybe (04:24)
09. Madeleine (05:16)
10. Credit Where Credit's Due (05:10)


Отчёт EAC об извлечении, выполненном 23. августа 2008, 17:36 для диска:
Wax / A Hundred Thousand In Fresh Notes

Дисковод: PLEXTOR CD-R PX-W5224A Adapter: 1 ID: 1
Режим чтения: Достоверный (C2: нет, Точный поток: да, Отключение кэша: да)
Коррекция смещения при чтении: 30
Способность читать области Lead-in и Lead-out : Да

Выходной формат: Monkey's Audio Lossless Encoder v3.99 DLL
High Lossless Compression

Другие параметры:
Заполнение пропущенных сэмплов тишиной : Да
Удаление блоков с тишиной в начале и конце : Нет
Установленный внешний ASPI-интерфейс


Характеристики диапазона извлечения и сообщения об ошибках
Выбранный диапазон
Имя файла D:\Releases\Wax_1989_AHundredThousandInFreshNotes\Wax_1989_AHundredThousandInFreshNotes.ape

Пиковый уровень 99.3 %
Качество диапазона 100.0 %
CRC 4EE2FF4C
Копирование… OK

Ошибок не произошло

Конец отчёта

[CUETools log; Date: 11.11.2017 23:43:56; Version: 2.1.4]
Pregap length 00:00:33.
[CTDB TOCID: 4hArp77x1Fyo995MEwN_UCPpMaI-] found.
Track | CTDB Status
1 | (14/14) Accurately ripped
2 | (14/14) Accurately ripped
3 | (14/14) Accurately ripped
4 | (14/14) Accurately ripped
5 | (14/14) Accurately ripped
6 | (14/14) Accurately ripped
7 | (14/14) Accurately ripped
8 | (14/14) Accurately ripped
9 | (14/14) Accurately ripped
10 | (14/14) Accurately ripped
[AccurateRip ID: 0010827c-0082fdc0-7e0a5c0a] found.
Track [ CRC | V2 ] Status
01 [a977ea2c|188a9860] (05+09/14) Accurately ripped
02 [0e85baf2|ef719db8] (05+09/14) Accurately ripped
03 [3ab0f138|0ba15261] (05+09/14) Accurately ripped
04 [44500317|78a85d97] (05+09/14) Accurately ripped
05 [29a6adcd|641c38f0] (05+09/14) Accurately ripped
06 [beee69fe|8ffea877] (05+09/14) Accurately ripped
07 [239e81a3|6d001102] (05+09/14) Accurately ripped
08 [a07f46d5|2eb06769] (05+09/14) Accurately ripped
09 [e99bd647|c4e5e7ae] (05+09/14) Accurately ripped
10 [1114af61|b994b160] (05+09/14) Accurately ripped

Track Peak [ CRC32 ] [W/O NULL]
– 99,3 [4EE2FF4C] [C16586C3]
01 91,1 [1CF542F5] [9A93C4A4]
02 73,5 [2CE5F774] [4965A0E1]
03 75,5 [A3461E67] [C2C31B88]
04 66,6 [A01A63F4] [E0CBD9EC]
05 97,1 [BC7D87A5] [2508B1B7]
06 99,3 [2BBED520] [E9E39578]
07 63,4 [3078D9F3] [F8C6097D]
08 72,2 [E802DFF0] [F8F2A82F]
09 76,5 [914AE08E] [C4920BCB]
10 90,6 [E1D903C7] [9EBB26ED]

foobar2000 1.2 / Dynamic Range Meter 1.1.1
log date: 2017-11-11 23:55:47

––––––––––––––––––––––––––––––––––––––––
Analyzed: Wax / A Hundred Thousand In Fresh Notes
––––––––––––––––––––––––––––––––––––––––

DR Peak RMS Duration Track
––––––––––––––––––––––––––––––––––––––––
DR11 -0.80 dB -15.38 dB 6:13 01-Anchors Aweigh
DR12 -2.67 dB -16.94 dB 3:26 02-Wherever You Are
DR12 -2.43 dB -16.37 dB 3:43 03-Railroad To Heaven
DR12 -3.53 dB -17.50 dB 3:58 04-He Said She Said
DR13 -0.25 dB -15.37 dB 4:12 05-Spell On You
DR14 -0.05 dB -17.16 dB 4:26 06-Don't Play That Song
DR13 -3.95 dB -18.96 dB 3:23 07-Pictures Of Paris
DR12 -2.82 dB -17.28 dB 4:24 08-Maybe
DR13 -2.32 dB -17.34 dB 5:16 09-Madeleine
DR14 -0.86 dB -18.02 dB 5:10 10-Credit Where Credit's Due
––––––––––––––––––––––––––––––––––––––––

Number of tracks: 10
Official DR value: DR13

Samplerate: 44100 Hz
Channels: 2
Bits per sample: 16
Bitrate: 855 kbps
Codec: Monkey's Audio
================================================================================




Wax UK (Andrew Gold & Graham Gouldman) - Albums Collection 1986-2000 (6CD) [Re-Up]

Andrew Gold & Graham Gouldman - The Wax Files (1997)
EAC | APE | Image (Cue&Log) ~ 501 Mb | Mp3 (CBR320) ~ 173 Mb | Scans ~ 53 Mb
Label: For Your Love | # FYL CD 10 | Time: 01:15:06

It feels great to be back in the saddle again as Wax. This album brings together six new songs we recorded in California over the past couple of years, two previously unreleased tracks from the Eighties albums. Hope you like it.

Andrew Gold & Graham Gouldman, January 1997

Tracklist:

01. Right Between The Eyes (04:08)
02. Shadows Of Love (04:39)
03. Under Her Spell (04:28)
04. Baby's Got A Gun (04:15)
05. Wherever You Are (03:25)
06. Bridge To Your Heart (04:12)
07. American English (04:24)
08. Ball And Chain (05:46)
09. Claire And Johnny (04:52)
10. Same Boat Now (03:39)
11. Can Anybody See You (04:09)
12. Touch And Go (03:49)
13. Maybe (04:21)
14. Don't Play That Song (04:22)
15. Holiday (04:42)
16. One More Heartache (05:02)
17. Thank You For Being A Friend (Live) (04:45)


Exact Audio Copy V0.99 prebeta 4 from 23. January 2008

Отчёт EAC об извлечении, выполненном 31. мая 2009, 18:17

Andrew Gold & Graham Gouldman / The Wax Files

Дисковод: Optiarc DVD RW AD-7173A Adapter: 1 ID: 0

Режим чтения : Достоверность
Использование точного потока : Да
Отключение кэша аудио : Да
Использование указателей C2 : Нет

Коррекция смещения при чтении : 48
Способность читать области Lead-in и Lead-out : Да
Заполнение пропущенных сэмплов тишиной : Да
Удаление блоков с тишиной в начале и конце : Нет
При вычислениях CRC использовались нулевые сэмплы : Да
Интерфейс : Установленный внешний ASPI-интерфейс

Выходной формат : Monkey's Audio Lossless Encoder v3.99 DLL
Формат сэмплов : High Lossless Compression


TOC извлечённого CD

Трек | Старт | Длительность | Начальный сектор | Конечный сектор
––––––––––––––––––––––––––––––––––-
1 | 0:00.00 | 4:10.25 | 0 | 18774
2 | 4:10.25 | 4:41.42 | 18775 | 39891
3 | 8:51.67 | 4:30.10 | 39892 | 60151
4 | 13:22.02 | 4:17.35 | 60152 | 79461
5 | 17:39.37 | 3:26.65 | 79462 | 94976
6 | 21:06.27 | 4:14.38 | 94977 | 114064
7 | 25:20.65 | 4:25.67 | 114065 | 134006
8 | 29:46.57 | 5:48.33 | 134007 | 160139
9 | 35:35.15 | 4:54.20 | 160140 | 182209
10 | 40:29.35 | 3:40.55 | 182210 | 198764
11 | 44:10.15 | 4:10.65 | 198765 | 217579
12 | 48:21.05 | 3:51.37 | 217580 | 234941
13 | 52:12.42 | 4:23.18 | 234942 | 254684
14 | 56:35.60 | 4:23.65 | 254685 | 274474
15 | 60:59.50 | 4:44.05 | 274475 | 295779
16 | 65:43.55 | 5:04.05 | 295780 | 318584
17 | 70:47.60 | 4:45.20 | 318585 | 339979


Характеристики диапазона извлечения и сообщения об ошибках

Выбранный диапазон

Имя файла D:\Releases\Wax_1997_TheWaxFiles\Wax_1997_TheWaxFiles.ape

Пиковый уровень 95.0 %
Качество диапазона 99.9 %
CRC теста 5F3EBEFF
CRC копии 5F3EBEFF
Копирование… OK

Ошибок не произошло


AccurateRip: сводка

Трек 1 нет в базе данных
Трек 2 нет в базе данных
Трек 3 нет в базе данных
Трек 4 нет в базе данных
Трек 5 нет в базе данных
Трек 6 нет в базе данных
Трек 7 нет в базе данных
Трек 8 нет в базе данных
Трек 9 нет в базе данных
Трек 10 нет в базе данных
Трек 11 нет в базе данных
Трек 12 нет в базе данных
Трек 13 нет в базе данных
Трек 14 нет в базе данных
Трек 15 нет в базе данных
Трек 16 нет в базе данных
Трек 17 нет в базе данных

Ни одного трека нет в базе AccurateRip

Конец отчёта

[CUETools log; Date: 11.11.2017 23:45:15; Version: 2.1.4]
[CTDB TOCID: aK8aEZyeuKScAmyKUDJ1fJ7eJq8-] found.
Track | CTDB Status
1 | (3/3) Accurately ripped
2 | (3/3) Accurately ripped
3 | (3/3) Accurately ripped
4 | (3/3) Accurately ripped
5 | (3/3) Accurately ripped
6 | (3/3) Accurately ripped
7 | (3/3) Accurately ripped
8 | (3/3) Accurately ripped
9 | (3/3) Accurately ripped
10 | (3/3) Accurately ripped
11 | (3/3) Accurately ripped
12 | (3/3) Accurately ripped
13 | (3/3) Accurately ripped
14 | (3/3) Accurately ripped
15 | (3/3) Accurately ripped
16 | (3/3) Accurately ripped
17 | (3/3) Accurately ripped
[AccurateRip ID: 002e0ee8-02486e5f-ea11b511] found.
Track [ CRC | V2 ] Status
01 [d4785871|f27b46db] (0+2/2) Accurately ripped
02 [332deab0|28befa7b] (0+2/2) Accurately ripped
03 [1e008039|f289ef45] (0+2/2) Accurately ripped
04 [811e9696|0f38c53b] (0+2/2) Accurately ripped
05 [e77a78db|f77337a8] (0+2/2) Accurately ripped
06 [52d6996d|ba77f586] (0+2/2) Accurately ripped
07 [2069e574|db150e52] (0+2/2) Accurately ripped
08 [fa0103ce|9b3c803d] (0+2/2) Accurately ripped
09 [f7b4f763|42d6cf96] (0+2/2) Accurately ripped
10 [4f6f3e2b|9940312e] (0+2/2) Accurately ripped
11 [45f822c8|1e78a93e] (0+2/2) Accurately ripped
12 [3d6d2391|fa68a58c] (0+2/2) Accurately ripped
13 [103b6e96|06a00574] (0+2/2) Accurately ripped
14 [ed95eefc|7c15b4b5] (0+2/2) Accurately ripped
15 [65ecc698|ab430020] (0+2/2) Accurately ripped
16 [7f4f048e|6780c216] (0+2/2) Accurately ripped
17 [ea439566|0ba05f63] (0+2/2) Accurately ripped

Track Peak [ CRC32 ] [W/O NULL] [ LOG ]
– 95,0 [5F3EBEFF] [321D264E] CRC32
01 94,3 [E95FAA6B] [22585ED7]
02 93,8 [D672B043] [5E9B3739]
03 93,9 [3E4E96BF] [7CD605AC]
04 86,5 [43DCA31C] [97FA8F11]
05 93,4 [515B0612] [08BF6EA2]
06 93,9 [1D6222DF] [26D46E7F]
07 93,6 [C1F3DC91] [90422AAB]
08 94,2 [4D75A40C] [161A2A9B]
09 92,8 [F55AE739] [0DD355A9]
10 93,3 [66FB3B1A] [1942A538]
11 93,9 [02487D7C] [9504A7C0]
12 94,3 [2D74934E] [52D89F8E]
13 95,0 [8BF001FE] [C6AEF838]
14 94,3 [5329C865] [25D6DDB7]
15 93,2 [5546EE8F] [57C565CE]
16 92,9 [F09BF3B8] [DAE84710]
17 93,9 [426819F6] [0A5EF38C]

foobar2000 1.2 / Dynamic Range Meter 1.1.1
log date: 2017-11-11 23:57:29

––––––––––––––––––––––––––––––––––––––––
Analyzed: Andrew Gold & Graham Gouldman / The Wax Files
––––––––––––––––––––––––––––––––––––––––

DR Peak RMS Duration Track
––––––––––––––––––––––––––––––––––––––––
DR8 -0.50 dB -10.69 dB 4:10 01-Right Between The Eyes
DR9 -0.55 dB -11.87 dB 4:42 02-Shadows Of Love
DR8 -0.54 dB -10.89 dB 4:30 03-Under Her Spell
DR12 -1.26 dB -16.09 dB 4:17 04-Baby's Got A Gun
DR10 -0.59 dB -12.37 dB 3:27 05-Wherever You Are
DR10 -0.54 dB -11.75 dB 4:15 06-Bridge To Your Heart
DR10 -0.57 dB -11.31 dB 4:26 07-American English
DR9 -0.52 dB -11.23 dB 5:48 08-Ball And Chain
DR10 -0.64 dB -13.67 dB 4:54 09-Claire And Johnny
DR10 -0.60 dB -13.30 dB 3:41 10-Same Boat Now
DR10 -0.55 dB -12.97 dB 4:11 11-Can Anybody See You
DR10 -0.50 dB -12.84 dB 3:51 12-Touch And Go
DR10 -0.44 dB -11.93 dB 4:23 13-Maybe
DR10 -0.50 dB -11.79 dB 4:24 14-Don't Play That Song
DR8 -0.61 dB -11.70 dB 4:44 15-Holiday
DR8 -0.64 dB -10.15 dB 5:04 16-One More Heartache
DR10 -0.55 dB -12.64 dB 4:45 17-Thank You For Being A Friend (Live)
––––––––––––––––––––––––––––––––––––––––

Number of tracks: 17
Official DR value: DR10

Samplerate: 44100 Hz
Channels: 2
Bits per sample: 16
Bitrate: 928 kbps
Codec: Monkey's Audio
================================================================================




Wax UK (Andrew Gold & Graham Gouldman) - Albums Collection 1986-2000 (6CD) [Re-Up]

Wax - Common Knowledge.com (1998)
EAC | APE | Image (Cue&Log) ~ 427 Mb | Mp3 (CBR320) ~ 143 Mb | Scans ~ 48 Mb
Label: For Your Love | # FYL CD 11 | Time: 01:02:35

10cc might well have been the most brilliantly inventive British band of the '70s but, by the '80s, few people cared about that; neither did they raise an eyebrow when Graham Gouldman, fresh from the group's 1983 split, teamed with L.A. singer/songwriter Andrew Gold in a new band, World in Action. An album was written and recorded, but when their first single, "Don't Break My Heart," slipped straight into the dumper, they changed the name to Common Knowledge and tried again. "Victoria" was no more fortunate than its predecessor and, while the duo would remain together and (third time's a charm) finally enjoy some success as Wax, the original album was shelved. It would be 15 years before it finally surfaced, padded out with two further songs from the same sessions ("Big Fat Baby" and "Heartbeat to Heartbeat") and three new songs ("Sometimes," the Stephen Bishop co-write "Shanghai Moon," and "First Time in Love"), recorded at Gold's home studio in 1997-1998. The result is a fascinating, if not necessarily brilliant,collection. It is certainly scarred by many of the difficulties that haunted the latter-day 10cc, with both players keeping a far closer eye on what they thought their audience might demand, as opposed to what they themselves were interested in; at the same time, however, it is definitely an improvement on the studio overkill that scarred their subsequent Wax albums, and so Common Knowledge takes its place in the discography as a prototype that actually wipes the floor with the finished thing.

Review by Dave Thompson, Allmusic.com

Tracklist:

01. Shanghai Moon (05:34)
02. Sometimes (03:51)
03. First Time In Love (03:40)
04. Victoria (04:12)
05. Don't Break My Heart (03:27)
06. Let's Have Some Lunch Sometime (03:38)
07. The King Of Showbiz (04:22)
08. Holiday (04:45)
09. Big Brother (02:57)
10. Separate Limos (04:54)
11. All Over You (04:25)
12. J.B. In Arabia (04:24)
13. One More Heartache (05:02)
14. Big Fat Baby (03:17)
15. Heartbeat To Heartbeat (03:59)


Exact Audio Copy V0.99 prebeta 5 from 4. May 2009

Отчёт EAC об извлечении, выполненном 21. сентября 2011, 8:40

Wax / Common Knowledge.com

Дисковод: PLEXTOR CD-R PX-W5224A Adapter: 0 ID: 1

Режим чтения : Достоверность
Использование точного потока : Да
Отключение кэша аудио : Да
Использование указателей C2 : Нет

Коррекция смещения при чтении : 30
Способность читать области Lead-in и Lead-out : Нет
Заполнение пропущенных сэмплов тишиной : Да
Удаление блоков с тишиной в начале и конце : Нет
При вычислениях CRC использовались нулевые сэмплы : Да
Интерфейс : Встроенный Win32-интерфейс для Win NT/2000

Выходной формат : Monkey's Audio Lossless Encoder v3.99 DLL
Формат сэмплов : High Lossless Compression


TOC извлечённого CD

Трек | Старт | Длительность | Начальный сектор | Конечный сектор
––––––––––––––––––––––––––––––––––-
1 | 0:01.00 | 5:34.23 | 75 | 25147
2 | 5:35.23 | 3:51.36 | 25148 | 42508
3 | 9:26.59 | 3:41.31 | 42509 | 59114
4 | 13:08.15 | 4:12.67 | 59115 | 78081
5 | 17:21.07 | 3:27.27 | 78082 | 93633
6 | 20:48.34 | 3:38.22 | 93634 | 110005
7 | 24:26.56 | 4:22.09 | 110006 | 129664
8 | 28:48.65 | 4:45.45 | 129665 | 151084
9 | 33:34.35 | 2:57.58 | 151085 | 164417
10 | 36:32.18 | 4:54.63 | 164418 | 186530
11 | 41:27.06 | 4:25.34 | 186531 | 206439
12 | 45:52.40 | 4:24.07 | 206440 | 226246
13 | 50:16.47 | 5:02.44 | 226247 | 248940
14 | 55:19.16 | 3:17.74 | 248941 | 263789
15 | 58:37.15 | 3:59.44 | 263790 | 281758


Характеристики диапазона извлечения и сообщения об ошибках

Выбранный диапазон

Имя файла D:\Releases\Wax_Discography_FullLengthAlbums\Wax_1984_Common Knowledge.com\Wax_1984_Common Knowledge.ape

Пиковый уровень 94.3 %
Качество диапазона 100.0 %
CRC теста 270442D5
CRC копии 270442D5
Копирование… OK

Ошибок не произошло


AccurateRip: сводка

Трек 1 точное извлечение (доверие 1) [52ABB2C1]
Трек 2 точное извлечение (доверие 1) [68B83717]
Трек 3 точное извлечение (доверие 1) [12CB6D20]
Трек 4 точное извлечение (доверие 1) [F2405405]
Трек 5 точное извлечение (доверие 1) [E8EACF83]
Трек 6 точное извлечение (доверие 1) [3B4F4F24]
Трек 7 точное извлечение (доверие 1) [DC791004]
Трек 8 точное извлечение (доверие 1) [19ED4D5F]
Трек 9 точное извлечение (доверие 1) [E15E84E6]
Трек 10 точное извлечение (доверие 1) [58AEE42C]
Трек 11 точное извлечение (доверие 1) [A0779A47]
Трек 12 точное извлечение (доверие 1) [E5AC6373]
Трек 13 точное извлечение (доверие 1) [0AD96108]
Трек 14 точное извлечение (доверие 1) [3C062FBA]
Трек 15 точное извлечение (доверие 1) [A03D0B23]

Все треки извлечены точно

Конец отчёта

[CUETools log; Date: 11.11.2017 23:42:21; Version: 2.1.4]
Pregap length 00:01:00.
[CTDB TOCID: X86rmbp8lGuyCJN2jpST9BX8sc0-] found.
Track | CTDB Status
1 | (2/2) Accurately ripped
2 | (2/2) Accurately ripped
3 | (2/2) Accurately ripped
4 | (2/2) Accurately ripped
5 | (2/2) Accurately ripped
6 | (2/2) Accurately ripped
7 | (2/2) Accurately ripped
8 | (2/2) Accurately ripped
9 | (2/2) Accurately ripped
10 | (2/2) Accurately ripped
11 | (2/2) Accurately ripped
12 | (2/2) Accurately ripped
13 | (2/2) Accurately ripped
14 | (2/2) Accurately ripped
15 | (2/2) Accurately ripped
[AccurateRip ID: 00229935-018699ab-ca0eab0f] found.
Track [ CRC | V2 ] Status
01 [52abb2c1|21762b04] (2+0/2) Accurately ripped
02 [68b83717|3fefe3b3] (2+0/2) Accurately ripped
03 [12cb6d20|2e03b2eb] (2+0/2) Accurately ripped
04 [f2405405|285c463b] (2+0/2) Accurately ripped
05 [e8eacf83|ea710cb7] (2+0/2) Accurately ripped
06 [3b4f4f24|5eda706e] (2+0/2) Accurately ripped
07 [dc791004|c786b11c] (2+0/2) Accurately ripped
08 [19ed4d5f|aa14612a] (2+0/2) Accurately ripped
09 [e15e84e6|39a9d0eb] (2+0/2) Accurately ripped
10 [58aee42c|e92c9ac9] (2+0/2) Accurately ripped
11 [a0779a47|e67e89fb] (2+0/2) Accurately ripped
12 [e5ac6373|e5e0a421] (2+0/2) Accurately ripped
13 [0ad96108|cedc7f17] (2+0/2) Accurately ripped
14 [3c062fba|52797f8d] (2+0/2) Accurately ripped
15 [a03d0b23|b219a2f5] (2+0/2) Accurately ripped

Track Peak [ CRC32 ] [W/O NULL] [ LOG ]
– 94,3 [270442D5] [E3A7EE10] CRC32
01 94,3 [2B9E5B3F] [9D4A960C]
02 94,3 [899265CA] [8EB92879]
03 94,0 [B965A9A7] [63D45418]
04 94,3 [37D794DD] [8B30A70C]
05 94,3 [4367A1C1] [DD83D658]
06 94,3 [E0F6FCD0] [935C84E9]
07 94,3 [C3B28794] [A74D49FF]
08 94,3 [892EF2B7] [26D5E74D]
09 94,3 [2E06F2A9] [D3FA3E12]
10 94,3 [D28646F2] [9B2680FB]
11 94,3 [E11D59B7] [04CE41FF]
12 94,3 [7EC4A139] [3DC7EA2E]
13 94,3 [DB6728AA] [258A3A1D]
14 94,3 [D6A69AE0] [9C8C8C43]
15 94,3 [3227ACDC] [2DEE1F50]

foobar2000 1.2 / Dynamic Range Meter 1.1.1
log date: 2017-11-11 23:53:40

––––––––––––––––––––––––––––––––––––––––
Analyzed: Wax / Common Knowledge.com
––––––––––––––––––––––––––––––––––––––––

DR Peak RMS Duration Track
––––––––––––––––––––––––––––––––––––––––
DR6 -0.50 dB -9.59 dB 5:34 01-Shanghai Moon
DR6 -0.50 dB -8.88 dB 3:51 02-Sometimes
DR6 -0.54 dB -8.02 dB 3:41 03-First Time In Love
DR6 -0.50 dB -8.10 dB 4:13 04-Victoria
DR7 -0.50 dB -9.03 dB 3:27 05-Don't Break My Heart
DR7 -0.50 dB -9.20 dB 3:38 06-Let's Have Some Lunch Sometime
DR8 -0.50 dB -9.84 dB 4:22 07-The King Of Showbiz
DR6 -0.50 dB -10.05 dB 4:46 08-Holiday
DR7 -0.50 dB -9.38 dB 2:58 09-Big Brother
DR7 -0.50 dB -10.62 dB 4:55 10-Separate Limos
DR5 -0.50 dB -7.64 dB 4:25 11-All Over You
DR6 -0.50 dB -9.14 dB 4:24 12-J.B. In Arabia
DR5 -0.50 dB -7.47 dB 5:03 13-One More Heartache
DR5 -0.51 dB -6.43 dB 3:18 14-Big Fat Baby
DR7 -0.50 dB -8.10 dB 4:00 15-Heartbeat To Heartbeat
––––––––––––––––––––––––––––––––––––––––

Number of tracks: 15
Official DR value: DR6

Samplerate: 44100 Hz
Channels: 2
Bits per sample: 16
Bitrate: 955 kbps
Codec: Monkey's Audio
================================================================================




Wax UK (Andrew Gold & Graham Gouldman) - Albums Collection 1986-2000 (6CD) [Re-Up]

Wax (Andrew Gold & Graham Gouldman) - Bikini (2000)
EAC | FLAC | Image (Cue&Log) ~ 436 Mb | Mp3 (CBR320) ~ 152 Mb | Scans included
Label: Quarkbrain Records | # 3204 | Time: 01:04:52

A Collection of Rareties, Demos, Unreleased Tracks, B-Sides, Live Cuts, Song Fragments, And Assorted Obscurities From 1983 'Til Now

Tracklist:

01. Introduction (0:16)
02. Rock My World (4:35)
03. Lazybones (4:20)
04. Ha Ha Went The Clown (0:39)
05. All On Board (0:15)
06. The Lie (3:44)
07. Gingers Bakery (0:22)
08. Welcome To The Neighborhood (0:38)
09. Time On His Hands (0:14)
10. Slow Down (5:07)
11. Bug On The Cote D'Azur (2:46)
12. Dirty Love (3:15)
13. 13/4 Time Thing (1:16)
14. Francesca McGregor (0:41)
15. People All Over This World (3:35)
16. A Single Kiss (3:43)
17. Chinese Backward Music (0:25)
18. Superman (1:00)
19. You Found Out (3:43)
20. Billiard Theme 1 (0:56)
21. Billiard Theme 2 (1:13)
22. Billiard Theme 3 (1:05)
23. On The Waterfront (2:49)
24. Untitled (0:17)
25. Last Time I Fell In Love (3:16)
26. Somebody's Waiting (4:18)
27. Does Anybody Remember The Sixties? (0:36)
28. Bridge To Your Heart Demo (3:58)
29. When East Meets West/Laundromat (1:21)
30. Francescas Magnetic Moon (0:23)
31. Lone Soldier (4:03)


Exact Audio Copy V0.99 prebeta 5 from 4. May 2009

EAC extraction logfile from 26. August 2009, 18:28

Wax / Bikini

Used drive : Optiarc DVD RW AD-7173A Adapter: 4 ID: 0

Read mode : Secure
Utilize accurate stream : Yes
Defeat audio cache : Yes
Make use of C2 pointers : No

Read offset correction : 48
Overread into Lead-In and Lead-Out : No
Fill up missing offset samples with silence : Yes
Delete leading and trailing silent blocks : No
Null samples used in CRC calculations : Yes
Used interface : Installed external ASPI interface

Used output format : User Defined Encoder
Selected bitrate : 128 kBit/s
Quality : High
Add ID3 tag : No
Command line compressor : C:\Program Files\FLAC\flac.exe
Additional command line options : -8 -V -T "ARTIST=%a" -T "TITLE=%t" -T "ALBUM=%g" -T "DATE=%y" -T "TRACKNUMBER=%n" -T "GENRE=%m" -T "COMMENT=EAC FLAC -8" %s


TOC of the extracted CD

Track | Start | Length | Start sector | End sector
––––––––––––––––––––––––––––-
1 | 0:00.00 | 0:16.27 | 0 | 1226
2 | 0:16.27 | 4:34.39 | 1227 | 21815
3 | 4:50.66 | 4:19.48 | 21816 | 41288
4 | 9:10.39 | 0:38.72 | 41289 | 44210
5 | 9:49.36 | 0:15.05 | 44211 | 45340
6 | 10:04.41 | 3:44.37 | 45341 | 62177
7 | 13:49.03 | 0:22.05 | 62178 | 63832
8 | 14:11.08 | 0:38.24 | 63833 | 66706
9 | 14:49.32 | 0:14.23 | 66707 | 67779
10 | 15:03.55 | 5:06.71 | 67780 | 90800
11 | 20:10.51 | 2:45.63 | 90801 | 103238
12 | 22:56.39 | 3:14.74 | 103239 | 117862
13 | 26:11.38 | 1:16.24 | 117863 | 123586
14 | 27:27.62 | 0:40.72 | 123587 | 126658
15 | 28:08.59 | 3:35.37 | 126659 | 142820
16 | 31:44.21 | 3:43.25 | 142821 | 159570
17 | 35:27.46 | 0:25.09 | 159571 | 161454
18 | 35:52.55 | 0:59.72 | 161455 | 165951
19 | 36:52.52 | 3:43.04 | 165952 | 182680
20 | 40:35.56 | 0:56.37 | 182681 | 186917
21 | 41:32.18 | 1:13.26 | 186918 | 192418
22 | 42:45.44 | 1:05.24 | 192419 | 197317
23 | 43:50.68 | 2:48.38 | 197318 | 209955
24 | 46:39.31 | 0:17.34 | 209956 | 211264
25 | 46:56.65 | 3:16.06 | 211265 | 225970
26 | 50:12.71 | 4:17.53 | 225971 | 245298
27 | 54:30.49 | 0:35.69 | 245299 | 247992
28 | 55:06.43 | 3:58.36 | 247993 | 265878
29 | 59:05.04 | 1:21.36 | 265879 | 271989
30 | 60:26.40 | 0:22.41 | 271990 | 273680
31 | 60:49.06 | 4:03.29 | 273681 | 291934


Range status and errors

Selected range

Filename C:\Wax Bikini\Wax - Bikini.wav

Peak level 99.3 %
Range quality 99.9 %
Test CRC 91C050C4
Copy CRC 91C050C4
Copy OK

No errors occurred

End of status report

[CUETools log; Date: 11.11.2017 23:46:23; Version: 2.1.4]
[CTDB TOCID: 9KANLywTRWjhNNrOxkq0ppucC0M-] found.
Track | CTDB Status
1 | (2/2) Accurately ripped
2 | (2/2) Accurately ripped
3 | (2/2) Accurately ripped
4 | (2/2) Accurately ripped
5 | (2/2) Accurately ripped
6 | (2/2) Accurately ripped
7 | (2/2) Accurately ripped
8 | (2/2) Accurately ripped
9 | (2/2) Accurately ripped
10 | (2/2) Accurately ripped
11 | (2/2) Accurately ripped
12 | (2/2) Accurately ripped
13 | (2/2) Accurately ripped
14 | (2/2) Accurately ripped
15 | (2/2) Accurately ripped
16 | (2/2) Accurately ripped
17 | (2/2) Accurately ripped
18 | (2/2) Accurately ripped
19 | (2/2) Accurately ripped
20 | (2/2) Accurately ripped
21 | (2/2) Accurately ripped
22 | (2/2) Accurately ripped
23 | (2/2) Accurately ripped
24 | (2/2) Accurately ripped
25 | (2/2) Accurately ripped
26 | (2/2) Accurately ripped
27 | (2/2) Accurately ripped
28 | (2/2) Accurately ripped
29 | (2/2) Accurately ripped
30 | (2/2) Accurately ripped
31 | (2/2) Accurately ripped
[AccurateRip ID: 00465663-060871bb-b70f341f] found.
Track [ CRC | V2 ] Status
01 [53d12930|5be4290c] (0+1/1) Accurately ripped
02 [450082e0|8532cf4b] (0+1/1) Accurately ripped
03 [24beec65|4410e07c] (0+1/1) Accurately ripped
04 [3d262615|d6f1ed90] (0+1/1) Accurately ripped
05 [0ab4eca6|f100e3fe] (0+1/1) Accurately ripped
06 [aad99db6|66bd6839] (0+1/1) Accurately ripped
07 [01898c1c|3e1c3765] (0+1/1) Accurately ripped
08 [1fbc2316|3f05f043] (0+1/1) Accurately ripped
09 [c62d6a17|06ae2746] (0+1/1) Accurately ripped
10 [df9d97d7|0a8b46df] (0+1/1) Accurately ripped
11 [b622f706|66b6cbc8] (0+1/1) Accurately ripped
12 [3d9b5908|619600df] (0+1/1) Accurately ripped
13 [1d6693d6|e2de725d] (0+1/1) Accurately ripped
14 [fff05ba9|475c5ffd] (0+1/1) Accurately ripped
15 [f09c7a16|9ba24572] (0+1/1) Accurately ripped
16 [bf5caed8|7efe8bf9] (0+1/1) Accurately ripped
17 [15d25d38|2868c8af] (0+1/1) Accurately ripped
18 [68212d0b|e815fdf4] (0+1/1) Accurately ripped
19 [464125e9|92ea9088] (0+1/1) Accurately ripped
20 [ba6fac72|0f37dcf8] (0+1/1) Accurately ripped
21 [ac13cdd3|06dfed3f] (0+1/1) Accurately ripped
22 [1b8567ca|280fdab1] (0+1/1) Accurately ripped
23 [66e469e5|65b8a7ce] (0+1/1) Accurately ripped
24 [a562f9a0|0b18d66d] (0+1/1) Accurately ripped
25 [fe6cf6d2|13b07124] (0+1/1) Accurately ripped
26 [c9a97f9d|55a12998] (0+1/1) Accurately ripped
27 [28aa18e7|b476e397] (0+1/1) Accurately ripped
28 [9223702f|a86b1ce8] (0+1/1) Accurately ripped
29 [244b3f16|e0409ebb] (0+1/1) Accurately ripped
30 [cad690b1|4051d470] (0+1/1) Accurately ripped
31 [76a752a8|5f958486] (0+1/1) Accurately ripped

Track Peak [ CRC32 ] [W/O NULL] [ LOG ]
– 99,3 [91C050C4] [07FB207A] CRC32
01 67,7 [C0AFD04E] [FB9AC13B]
02 93,2 [720B6B12] [358F3D1B]
03 90,5 [5865EC5B] [CC1761D9]
04 75,4 [45E74D66] [6A6E209E]
05 76,3 [1BFF7860] [5555F121]
06 85,5 [44FC4E8B] [90C58F0F]
07 65,8 [63884D66] [F632EFE3]
08 78,2 [C8A5852F] [8AFD0D87]
09 31,0 [E67A8AB1] [D2C3A42D]
10 99,3 [3921816C] [43B4C926]
11 88,4 [3F58E278] [7CEF9B84]
12 79,2 [ECBBC140] [47504505]
13 77,3 [EFB7DECF] [9D0BE843]
14 36,8 [9FC24342] [9972229E]
15 78,5 [9C35F61E] [2A83CFB9]
16 77,8 [413841FC] [CB729684]
17 68,5 [CEA1D6B2] [8F57C5D1]
18 77,4 [ACD28607] [BF8631C9]
19 81,6 [D168D232] [EC75FAD0]
20 77,6 [FADB99A4] [0DF099C0]
21 78,3 [BCA0F334] [32275C14]
22 77,6 [90A9EAF1] [00AAC35E]
23 78,2 [1893ADDF] [B7269276]
24 41,6 [7237F175] [2516FE19]
25 77,2 [D081FFB8] [D8D78AE7]
26 86,9 [327B0CF5] [BC23D2CE]
27 76,7 [4FBE6701] [0AA7CD10]
28 79,9 [A9FFFDEB] [0B7E3223]
29 77,5 [7412BAB4] [8F5EE277]
30 75,2 [D5F75C81] [35AD4A2C]
31 79,5 [CD3A6AF2] [589B60D6]

foobar2000 1.2 / Dynamic Range Meter 1.1.1
log date: 2017-11-11 23:58:57

––––––––––––––––––––––––––––––––––––––––
Analyzed: Wax / Bikini
––––––––––––––––––––––––––––––––––––––––

DR Peak RMS Duration Track
––––––––––––––––––––––––––––––––––––––––
DR11 -3.38 dB -18.34 dB 0:16 01-Introduction
DR8 -0.61 dB -10.22 dB 4:35 02-Rock My World
DR7 -0.86 dB -10.84 dB 4:20 03-Lazybones
DR10 -2.45 dB -15.36 dB 0:39 04-Ha Ha Went The Clown
DR9 -2.34 dB -12.51 dB 0:15 05-All On Board
DR7 -1.36 dB -10.01 dB 3:44 06-The Lie
DR9 -3.63 dB -15.05 dB 0:22 07-Gingers Bakery
DR11 -2.13 dB -15.26 dB 0:38 08-Welcome To The Neighborhood
DR9 -10.16 dB -21.87 dB 0:14 09-Time On His Hands
DR8 -0.06 dB -10.60 dB 5:07 10-Slow Down
DR12 -1.07 dB -18.06 dB 2:46 11-Bug On The Cote D'Azur
DR6 -2.02 dB -8.82 dB 3:15 12-Dirty Love
DR5 -2.23 dB -8.70 dB 1:16 13-13/4 Time Thing
DR9 -8.67 dB -21.92 dB 0:41 14-Francesca McGregor
DR6 -2.10 dB -10.19 dB 3:35 15-People All Over This World
DR7 -2.17 dB -9.99 dB 3:43 16-A Single Kiss
DR11 -3.28 dB -17.31 dB 0:25 17-Chinese Backward Music
DR7 -2.22 dB -10.40 dB 1:00 18-Superman
DR7 -1.76 dB -9.85 dB 3:43 19-You Found Out
DR5 -2.20 dB -8.32 dB 0:56 20-Billiard Theme 1
DR6 -2.12 dB -8.97 dB 1:13 21-Billiard Theme 2
DR6 -2.20 dB -9.38 dB 1:05 22-Billiard Theme 3
DR6 -2.13 dB -9.20 dB 2:49 23-On The Waterfront
DR9 -7.60 dB -17.48 dB 0:17 24-Untitled
DR8 -2.25 dB -11.58 dB 3:16 25-Last Time I Fell In Love
DR8 -1.22 dB -10.39 dB 4:18 26-Somebody's Waiting
DR7 -2.30 dB -14.33 dB 0:36 27-Does Anybody Remember The Sixties?
DR6 -1.95 dB -8.56 dB 3:58 28-Bridge To Your Heart Demo
DR6 -2.21 dB -8.58 dB 1:21 29-When East Meets West/Laundromat
DR9 -2.46 dB -17.27 dB 0:23 30-Francescas Magnetic Moon
DR7 -1.99 dB -10.34 dB 4:03 31-Lone Soldier
––––––––––––––––––––––––––––––––––––––––

Number of tracks: 31
Official DR value: DR8

Samplerate: 44100 Hz
Channels: 2
Bits per sample: 16
Bitrate: 932 kbps
Codec: Monkey's Audio
================================================================================