Subcategories

Waylon Jennings & Willie Nelson - Waylon & Willie (1978) {1995, Reissue, Remastered}

Posted By: popsakov
Waylon Jennings & Willie Nelson - Waylon & Willie (1978) {1995, Reissue, Remastered}

Waylon Jennings & Willie Nelson - Waylon & Willie (1995) {1995, Reissue, Remastered}
EAC Rip | WV (Img) + Cue + Log ~ 143 Mb | MP3 CBR320 ~ 68 Mb
Scans Included (JPG, 400 dpi) | RAR 5% Recovery
Country | RCA Records #07863 58401-2 / BMG Direct Marketing #D103040

It sat on the top of the country charts for 11 weeks and went double platinum, making it one of the biggest hits in either Waylon Jennings' or Willie Nelson's catalog. Years after its initial 1978 release, Waylon & Willie remains one of their biggest-selling albums, but its perennial popularity has more to do with their iconic status – something this album deliberately played up – than the quality of the music, which is, overall, merely good. Released in early 1978, a few months after Jennings' Ol' Waylon spent 13 weeks on the top of the charts in the summer of 1977, thanks in part to the hit single "Luckenbach, Texas" featuring a chorus sung by Nelson, the album was intended as a celebration of the peak of outlaw, but in retrospect, it looks like where the movement was beginning to slide into predictability, even if both singers are more or less in command of their talents here. Though still at the peak of his popularity, Waylon had begun to slip slightly creatively starting with the very good, but not great, Are You Ready for the Country, which suggested that he was having a little harder time getting a full album of consistently great material together. The patchwork nature of this album suggests that he still had the problem, but since it was divided into three solo songs apiece and five duets, this plays to his strengths, because the limited number of new songs doesn't give him room to stumble. Though a moody cover of Fleetwood Mac's "Gold Dust Woman" is a little awkward, his original "Lookin' for a Feeling" is sturdy, and the album-closing "The Wurlitzer Prize (I Don't Want to Get Over You)" is brilliant, possibly the best song here, even if the heart of the record – what the album is selling – is the four duets with Willie. One of these, of course, is the monster hit "Mammas Don't Let Your Babies Grow Up to Be Cowboys," with two others – "The Year 2003 Minus 25" and "Don't Cuss the Fiddle" – being laid-back, funny Kris Kristofferson songs that showcase Waylon & Willie's roguish humor and charm. The other, "Pick Up the Tempo," is one of Willie's classics, but it, like Nelson's three solo tracks, is a previously released Waylon recording stripped of his vocals and overdubbed by Nelson. This isn't a crippling problem – the songs are good, as are the performances and the singing, so they're modestly enjoyable – but they do sound a little distant, and it makes the entire album sound cobbled together: not the deliberate compilation of The Outlaws, but significantly less than a real album from either Waylon or Willie or both of them. Instead, it sounds like a vehicle for them to keep riding their huge popularity. Since it was cut at a time they were making consistently enjoyable music, it's fun, but it could have been much, much more than it is.
~ Stephen Thomas Erlewine, All Music

***************

Waylon Jennings & Willie Nelson - Waylon & Willie (1978) {1995, Reissue, Remastered}

Track List:

01. Mamas Don't Let Your Babies Grow Up To Be Cowboys [2:34]
02. Pick Up The Tempo [2:34]
03. If You Can Touch Her At All [3:05]
04. It's Not Supposed To Be That Way [3:21]
05. The Wurlitzer Prize (I Don't Want To Get Over You) [2:10]
06. I Can Get Off On You [2:23]
07. A Couple More Years [4:03]
08. Lookin' For A Feeling [2:38]

Exact Audio Copy V1.0 beta 6 from 9. April 2015

EAC extraction logfile from 2. April 2016, 13:23

Waylon Jennings & Willie Nelson / Waylon & Willie

Used drive : TSSTcorpCDDVDW SH-224DB Adapter: 1 ID: 0

Read mode : Secure
Utilize accurate stream : Yes
Defeat audio cache : Yes
Make use of C2 pointers : No

Read offset correction : 6
Overread into Lead-In and Lead-Out : No
Fill up missing offset samples with silence : Yes
Delete leading and trailing silent blocks : No
Null samples used in CRC calculations : Yes
Used interface : Native Win32 interface for Win NT & 2000

Used output format : User Defined Encoder
Selected bitrate : 1024 kBit/s
Quality : High
Add ID3 tag : No
Command line compressor : C:\Program Files (x86)\Exact Audio Copy\wavpack.exe
Additional command line options : -hm %source% %dest%


TOC of the extracted CD

Track | Start | Length | Start sector | End sector
––––––––––––––––––––––––––––-
1 | 0:00.00 | 2:34.25 | 0 | 11574
2 | 2:34.25 | 2:33.55 | 11575 | 23104
3 | 5:08.05 | 3:05.05 | 23105 | 36984
4 | 8:13.10 | 3:21.02 | 36985 | 52061
5 | 11:34.12 | 2:10.15 | 52062 | 61826
6 | 13:44.27 | 2:23.05 | 61827 | 72556
7 | 16:07.32 | 4:02.45 | 72557 | 90751
8 | 20:10.02 | 2:37.48 | 90752 | 102574


Range status and errors

Selected range

Filename G:\iso\Waylon Jennings & Willie Nelson - Waylon & Willie\Waylon Jennings & Willie Nelson - Waylon & Willie.wav

Peak level 97.3 %
Extraction speed 2.3 X
Range quality 100.0 %
Test CRC 218A0BDB
Copy CRC 218A0BDB
Copy OK

No errors occurred


AccurateRip summary

Track 1 accurately ripped (confidence 3) [823AC5CC] (AR v2)
Track 2 accurately ripped (confidence 3) [899C1D97] (AR v2)
Track 3 accurately ripped (confidence 3) [1DDF980E] (AR v2)
Track 4 accurately ripped (confidence 3) [977D42AC] (AR v2)
Track 5 accurately ripped (confidence 3) [321DF1CB] (AR v2)
Track 6 accurately ripped (confidence 3) [29BA484B] (AR v2)
Track 7 accurately ripped (confidence 3) [3B95890A] (AR v2)
Track 8 accurately ripped (confidence 3) [894C3184] (AR v2)

All tracks accurately ripped

End of status report

–– CUETools DB Plugin V2.1.6

[CTDB TOCID: FNZWxX3sRf_elTr8mcv_5a2yTfU-] found
Submit result: FNZWxX3sRf_elTr8mcv_5a2yTfU- has been confirmed
Track | CTDB Status
1 | (4/4) Accurately ripped
2 | (4/4) Accurately ripped
3 | (4/4) Accurately ripped
4 | (4/4) Accurately ripped
5 | (4/4) Accurately ripped
6 | (4/4) Accurately ripped
7 | (4/4) Accurately ripped
8 | (4/4) Accurately ripped


==== Log checksum 0BD0B4F6CCD4C7DCF0816BA06740D0B6FF48238DEDCA1252D0FB4A55BDED0A8F ====

foobar2000 1.2.6 / Dynamic Range Meter 1.1.1
log date: 2017-03-22 20:30:25

––––––––––––––––––––––––––––––––––––––––
Analyzed: Waylon Jennings & Willie Nelson / Waylon & Willie
––––––––––––––––––––––––––––––––––––––––

DR Peak RMS Duration Track
––––––––––––––––––––––––––––––––––––––––
DR13 -0.31 dB -15.73 dB 2:34 01-Mamas Don't Let Your Babies Grow Up To Be Cowboys
DR13 -0.24 dB -15.16 dB 2:34 02-Pick Up The Tempo
DR12 -0.24 dB -14.11 dB 3:05 03-If You Can Touch Her At All
DR14 -0.84 dB -17.33 dB 3:21 04-It's Not Supposed To Be That Way
DR12 -0.24 dB -14.11 dB 2:10 05-The Wurlitzer Prize (I Don't Want To Get Over You)
DR12 -0.24 dB -14.24 dB 2:23 06-I Can Get Off On You
DR14 -1.17 dB -16.82 dB 4:03 07-A Couple More Years
DR12 -0.24 dB -13.71 dB 2:38 08-Lookin' For A Feeling
––––––––––––––––––––––––––––––––––––––––

Number of tracks: 8
Official DR value: DR13

Samplerate: 44100 Hz
Channels: 2
Bits per sample: 16
Bitrate: 756 kbps
Codec: WavPack
================================================================================

[CUETools log; Date: 22.03.2017 20:30:27; Version: 2.1.5]
[CTDB TOCID: FNZWxX3sRf_elTr8mcv_5a2yTfU-] found.
Track | CTDB Status
1 | (7/7) Accurately ripped
2 | (7/7) Accurately ripped
3 | (7/7) Accurately ripped
4 | (7/7) Accurately ripped
5 | (7/7) Accurately ripped
6 | (7/7) Accurately ripped
7 | (7/7) Accurately ripped
8 | (7/7) Accurately ripped
[AccurateRip ID: 0006e36e-002e3720-67055708] found.
Track [ CRC | V2 ] Status
01 [18cd9a10|823ac5cc] (05+04/11) Accurately ripped
02 [e51b37f4|899c1d97] (05+04/11) Accurately ripped
03 [d6bd2c47|1ddf980e] (05+04/11) Accurately ripped
04 [4b37a1aa|977d42ac] (05+04/11) Accurately ripped
05 [1587cdc3|321df1cb] (05+04/11) Accurately ripped
06 [5536129c|29ba484b] (05+04/11) Accurately ripped
07 [996b04fc|3b95890a] (05+04/11) Accurately ripped
08 [2ea02d4a|894c3184] (05+04/11) Accurately ripped
Offsetted by -67:
01 [aa088f33] (02/11) Accurately ripped
02 [68ff15b5] (02/11) Accurately ripped
03 [3d77b4b8] (02/11) Accurately ripped
04 [7084a259] (02/11) Accurately ripped
05 [92ab182a] (02/11) Accurately ripped
06 [fcf72db0] (02/11) Accurately ripped
07 [16d0e628] (02/11) Accurately ripped
08 [457cecdd] (02/11) Accurately ripped

Track Peak [ CRC32 ] [W/O NULL] [ LOG ]
– 97,3 [218A0BDB] [58509AE2] CRC32
01 96,4 [35D85E63] [4298BC46]
02 97,3 [A4D1CCCE] [016D2B4A]
03 97,3 [D76FA5A7] [3DCF3F91]
04 90,7 [B2CD21CE] [97AA4FC8]
05 97,3 [4BFF489E] [B2D71591]
06 97,3 [8F56C644] [005F1482]
07 87,3 [0FAB8D5B] [2017728C]
08 97,3 [8E197113] [47CD5AA5]

Waylon Jennings & Willie Nelson - Waylon & Willie (1978) {1995, Reissue, Remastered}

Waylon Jennings & Willie Nelson - Waylon & Willie (1978) {1995, Reissue, Remastered}

All thanks go to shatterhand

> Visit my blog <