Subcategories

Freddie King, Albert King, Earl King - We Three Kings Of Blues Guitar (2013)

Posted By: Designol
Freddie King, Albert King, Earl King - We Three Kings Of Blues Guitar (2013)

Freddie King, Albert King, Earl King - We Three Kings Of Blues Guitar (2013)
EAC | FLAC | Image (Cue&Log) ~ 320 Mb | Mp3 (CBR320) ~ 125 Mb | Scans included | 00:50:40
Electric Blues, Modern Electric Blues, Rhythm & Blues | Label: Fuel | # 302 061 993 2

Curious, isn't it, how some of the greatest guitarists in post-war Blues history all shared the same regal surname? And entirely fitting. Freddie, Albert, and Earl King royally ruled the Blues kingdom with their brilliant innovations and seminal licks. All of them greatly impacted the Rock field as well. Eric Clapton cites Freddie as a major influence, while Stevie Ray Vaughan was an Albert acolyte. Jimi Hendrix did a dynamite version of Earl's 'Let The Good Times Roll.' These three kings of the electric Blues guitar played a mammoth role in defining the sound of post-war Blues guitar. Their influence remains monumental to this day.

There's just something about the name King in the modern blues world, where, beginning in the 1960s, four Kings – B.B., Albert, Freddie, and Earl – seemed to dominate the scene. This little single-disc sampler presents three of these King-named guitar slingers (there's no B.B. King here), featuring four tracks from Freddie King (including "Key to the Highway"), three tracks from Earl King (including "Those Lonely, Lonely Nights"), and two tracks from Albert King (including "Born Under a Bad Sign").

Review by Steve Leggett, Allmusic.com

Tracklist:

01. Freddie King - Going Down (04:17)
02. Freddie King - Woman Across the River (04:18)
03. Freddie King - Key to the Highway (05:32)
04. Freddie King - Hide Away (04:26)

05. Albert King - Blues Power (06:43)
06. Albert King - Blues at Sunrise (10:14)
07. Albert King - Born Under a Bad Sign (05:27)

08. Earl King - Street Parade (03:17)
09. Earl King - Trick Bag (03:56)
10. Earl King - Those Lonely, Lonely Nights (02:25)


Exact Audio Copy V1.1 from 23. June 2015

EAC extraction logfile from 16. September 2015, 13:50

Various Artists / We Three Kings of Blues Guitar

Used drive : ASUS SDRW-08D1S-U Adapter: 1 ID: 1

Read mode : Secure
Utilize accurate stream : Yes
Defeat audio cache : Yes
Make use of C2 pointers : No

Read offset correction : 667
Overread into Lead-In and Lead-Out : No
Fill up missing offset samples with silence : Yes
Delete leading and trailing silent blocks : No
Null samples used in CRC calculations : Yes
Used interface : Native Win32 interface for Win NT & 2000

Used output format : User Defined Encoder
Selected bitrate : 128 kBit/s
Quality : High
Add ID3 tag : No
Command line compressor : C:\Program Files (x86)\Exact Audio Copy\Flac\flac.exe
Additional command line options : -V -8 -T "Date=%year%" -T "Genre=%genre%" %source%


TOC of the extracted CD

Track | Start | Length | Start sector | End sector
––––––––––––––––––––––––––––-
1 | 0:00.00 | 4:17.49 | 0 | 19323
2 | 4:17.49 | 4:18.70 | 19324 | 38743
3 | 8:36.44 | 5:32.36 | 38744 | 63679
4 | 14:09.05 | 4:26.48 | 63680 | 83677
5 | 18:35.53 | 6:43.43 | 83678 | 113945
6 | 25:19.21 | 10:14.25 | 113946 | 160020
7 | 35:33.46 | 5:27.27 | 160021 | 184572
8 | 41:00.73 | 3:17.21 | 184573 | 199368
9 | 44:18.19 | 3:56.70 | 199369 | 217138
10 | 48:15.14 | 2:25.11 | 217139 | 228024


Range status and errors

Selected range

Filename C:\Users\Олег\Desktop\We Three Kings Of Blues Guitar\Various Artists - We Three Kings of Blues Guitar.wav

Peak level 100.0 %
Extraction speed 3.9 X
Range quality 100.0 %
Test CRC 1BFE85F7
Copy CRC 1BFE85F7
Copy OK

No errors occurred


AccurateRip summary

Track 1 not present in database
Track 2 not present in database
Track 3 not present in database
Track 4 not present in database
Track 5 not present in database
Track 6 not present in database
Track 7 not present in database
Track 8 not present in database
Track 9 not present in database
Track 10 not present in database

None of the tracks are present in the AccurateRip database

End of status report

–– CUETools DB Plugin V2.1.6

[CTDB TOCID: pF13MmGs2AWlMeF5.9fOfW38k0M-] found
Submit result: pF13MmGs2AWlMeF5.9fOfW38k0M- has been confirmed
Track | CTDB Status
1 | (2/2) Accurately ripped
2 | (2/2) Accurately ripped
3 | (2/2) Accurately ripped
4 | (2/2) Accurately ripped
5 | (2/2) Accurately ripped
6 | (2/2) Accurately ripped
7 | (2/2) Accurately ripped
8 | (2/2) Accurately ripped
9 | (2/2) Accurately ripped
10 | (2/2) Accurately ripped


==== Log checksum 4BF40437DB2B12995E48A32C76653EB8AD90DB981697F426C7EEB645A93DA37B ====

foobar2000 1.2 / Dynamic Range Meter 1.1.1
log date: 2015-09-17 15:02:09

––––––––––––––––––––––––––––––––––––––––
Analyzed: Albert King / We Three Kings of Blues Guitar (1-3)
Earl King / We Three Kings of Blues Guitar (4-6)
––––––––––––––––––––––––––––––––––––––––

DR Peak RMS Duration Track
––––––––––––––––––––––––––––––––––––––––
DR8 -1.20 dB -11.14 dB 6:44 05-Blues Power
DR9 -0.20 dB -12.58 dB 10:14 06-Blues at Sunrise
DR9 -0.20 dB -11.01 dB 5:27 07-Born Under a Bad Sign
DR10 -0.20 dB -11.61 dB 3:17 08-Street Parade
DR10 -0.20 dB -12.19 dB 3:57 09-Trick Bag
DR12 0.00 dB -12.92 dB 2:25 10-Those Lonely, Lonely Nights
––––––––––––––––––––––––––––––––––––––––

Number of tracks: 6
Official DR value: DR10

Samplerate: 44100 Hz
Channels: 2
Bits per sample: 16
Bitrate: 857 kbps
Codec: FLAC
================================================================================

––––––––––––––––––––––––––––––––––––––––
Analyzed: Freddie King / We Three Kings of Blues Guitar
––––––––––––––––––––––––––––––––––––––––

DR Peak RMS Duration Track
––––––––––––––––––––––––––––––––––––––––
DR8 -0.20 dB -9.45 dB 4:18 01-Going Down
DR11 -0.01 dB -13.77 dB 4:19 02-Woman Across the River
DR9 -0.20 dB -10.58 dB 5:32 03-Key to the Highway
DR8 -0.20 dB -9.54 dB 4:27 04-Hide Away
––––––––––––––––––––––––––––––––––––––––

Number of tracks: 4
Official DR value: DR9

Samplerate: 44100 Hz
Channels: 2
Bits per sample: 16
Bitrate: 857 kbps
Codec: FLAC
================================================================================

Freddie King, Albert King, Earl King - We Three Kings Of Blues Guitar (2013)

Freddie King, Albert King, Earl King - We Three Kings Of Blues Guitar (2013)