Subcategories

Mieczyslaw Weinberg - Polish Melodies, Op. 47, No. 2, Symphony No. 21, "Kaddish" (Bartenyeva, Siberian Symphony, Vasilyev)

Posted By: tapaz9
Mieczyslaw Weinberg - Polish Melodies, Op. 47, No. 2, Symphony No. 21, "Kaddish" (Bartenyeva, Siberian Symphony, Vasilyev)

Mieczyslaw Weinberg - Polish Melodies, Op. 47, No. 2, Symphony No. 21, "Kaddish" (Bartenyeva, Siberian Symphony, Vasilyev)
Classical | EAC: FLAC+Cue+Log | 1 Cd, Covers + Booklet | 328 Mb
Label:Toccata - Date:2014

Mieczysław Weinberg, born in Warsaw in 1919, became a close friend of Shostakovich in Moscow, after fleeing eastwards before the invading Nazis in 1939. His style has much in common with Shostakovich’s: fluent contrapuntal skill, a keen feeling for melody, often inflected with Jewish cantilena, and an acute sense of drama which combines a natural narrative manner with an extraordinary ability to create atmosphere. Since his death in 1996, his vast output – which includes 26 symphonies, seven operas and seventeen string quartets – has enjoyed increasing recognition as some of the most individual and compelling music to have been composed in the twentieth century. This recording pairs an early orchestral work, the suite Polish Tunes of 1950, with the last full orchestral symphony he was to complete, dedicated to the memory of those who died in the Warsaw Ghetto
Tracks:

01. Polish Melodies, Op. 47, No. 2 - I. Adagio - Allegro [0:02:11.00]
02. II. Andantino [0:04:05.51]
03. III. Allegro [0:03:27.01]
04. IV. Allegro moderato [0:03:54.23]
05. Symphony No. 21, Op.152, "Kaddish" - Largo - [0:17:46.62]
06. Allegro molto - [0:07:17.45]
07. Largo - [0:05:25.47]
08. Presto - [0:02:59.58]
09. Andantino - [0:07:07.51]
10. Lento [0:13:09.50]


Exact Audio Copy V1.0 beta 3 from 29. August 2011

EAC extraction logfile from 1. September 2014, 23:11

Mieczyslaw Weinberg / Polish Melodies, Op. 47, No. 2, Symphony No. 21, "Kaddish" (Bartenyeva, Siberian Symphony, Vasilyev)

Used drive : TSSTcorpCDDVDW SH-S223C Adapter: 0 ID: 1

Read mode : Secure
Utilize accurate stream : Yes
Defeat audio cache : Yes
Make use of C2 pointers : No

Read offset correction : 697
Overread into Lead-In and Lead-Out : No
Fill up missing offset samples with silence : Yes
Delete leading and trailing silent blocks : No
Null samples used in CRC calculations : Yes
Used interface : Native Win32 interface for Win NT & 2000

Used output format : User Defined Encoder
Selected bitrate : 1024 kBit/s
Quality : High
Add ID3 tag : No
Command line compressor : C:\Program Files (x86)\Exact Audio Copy\FLAC\FLAC.EXE
Additional command line options : -V -0 -T "COMMENT=Ripped by Tapaz9" -T "artist=%artist%" -T "title=%title%" -T "album=%albumtitle%" -T "date=%year%" -T "tracknumber=%tracknr%" -T "genre=%genre%" %source%


TOC of the extracted CD

Track | Start | Length | Start sector | End sector
––––––––––––––––––––––––––––-
1 | 0:00.00 | 2:11.00 | 0 | 9824
2 | 2:11.00 | 4:05.51 | 9825 | 28250
3 | 6:16.51 | 3:27.01 | 28251 | 43776
4 | 9:43.52 | 3:54.23 | 43777 | 61349
5 | 13:38.00 | 17:46.62 | 61350 | 141361
6 | 31:24.62 | 7:17.45 | 141362 | 174181
7 | 38:42.32 | 5:25.47 | 174182 | 198603
8 | 44:08.04 | 2:59.58 | 198604 | 212086
9 | 47:07.62 | 7:07.51 | 212087 | 244162
10 | 54:15.38 | 13:09.50 | 244163 | 303387


Range status and errors

Selected range

Filename F:\Musique\Weinberg, Mieczyslaw\Weinberg_SymphonyNo21\Mieczyslaw Weinberg - Polish Melodies, Op. 47, No. 2, Symphony No. 21, ''Kaddish''.wav

Peak level 98.1 %
Extraction speed 14.5 X
Range quality 100.0 %
Copy CRC 17CADAC5
Copy OK

No errors occurred

End of status report

==== Log checksum 3255996CEF911F42DE8976EA156AB6FF0044DD38F2E3D4B61A1318F4AAD78114 ====

No Mirrors and Torrent-uploads Please

For more classical music check out My Avax blog