Subcategories

Weser-Renaissance Bremen, Manfred Cordes - Morales: O Magnum Mysterium - Christmas Motets (2013)

Posted By: tirexiss
Weser-Renaissance Bremen, Manfred Cordes - Morales: O Magnum Mysterium - Christmas Motets (2013)

Weser-Renaissance Bremen, Manfred Cordes - Morales: O Magnum Mysterium - Christmas Motets (2013)
EAC | FLAC (tracks+.cue, log) | Covers Included | 69:12 | 336 MB
Genre: Classical, Sacred | Label: CPO | Catalog: 777 820-2

Yet another Christmas release features the Christmas vocal polyphony of Cristobal de Morales, who is regarded as the first significant Spanish composer of the Renaissance. Like most compositions for this Christian feast, his Christmas motets circulated and were performed throughout Europe, traveling far beyond Spain's borders. His archaic, mystical and expressive musical language, that one almost might term place-less and timeless, must have played a role in this dissemination. Moreover, Morales was active not only in Spanish cathedrals but also spent many years of his creative career as a papal singer in the Sistine Chapel in Rome. And it seems to have been precisely this individual blend of Spanish expressiveness and Roman strictness - with its added Franco-Flemish stamp - that makes Morales' music so unique and qualifies him as the first genuine European composer of his times.

Weser-Renaissance Bremen, Manfred Cordes - Morales: O Magnum Mysterium - Christmas Motets (2013)

Track List:

1. O Magnum Mysterium
2. Missus Est Gabriel
3. Ecce Virgo Concipiet
4. Veni Domine, Et Noli Tardare
5. Ave Maria, Gratia Plena
6. Puer Natus Est Nobis
7. Pastores, Dicite, Quidnam
8. Exaltata Est Sancta Dei Genetrix
9. Salve Regina
10. Sancta Et Immaculata Virginitas
11. Ave Regina Caelorum
12. Candida Virginitas
13. Salve Nos, Stella Maris
14. Cum Natus Esset Jesus

Performers:
Weser-Renaissance Bremen
Manfred Cordes - direction

Exact Audio Copy V1.0 beta 3 from 29. August 2011

EAC extraction logfile from 10. December 2017, 9:39

Weser-Renaissance Bremen/Manfred Cordes / O magnum mysterium - Christmas Motets

Used drive : hp CDDVDW TS-L633N Adapter: 1 ID: 0

Read mode : Secure
Utilize accurate stream : Yes
Defeat audio cache : Yes
Make use of C2 pointers : No

Read offset correction : 6
Overread into Lead-In and Lead-Out : No
Fill up missing offset samples with silence : Yes
Delete leading and trailing silent blocks : No
Null samples used in CRC calculations : Yes
Used interface : Native Win32 interface for Win NT & 2000
Gap handling : Appended to previous track

Used output format : User Defined Encoder
Selected bitrate : 1024 kBit/s
Quality : High
Add ID3 tag : No
Command line compressor : C:\Program Files (x86)\Exact Audio Copy\Flac\flac.exe
Additional command line options : -8 -V -T "ARTIST=%artist%" -T "TITLE=%title%" -T "ALBUM=%albumtitle%" -T "DATE=%year%" -T "TRACKNUMBER=%tracknr%" -T "GENRE=%genre%" -T "PERFORMER=%albuminterpret%" -T "COMPOSER=%composer%" %haslyrics%–tag-from-file=LYRICS="%lyricsfile%"%haslyrics% -T "ALBUMARTIST=%albumartist%" -T "DISCNUMBER=%cdnumber%" -T "TOTALDISCS=%totalcds%" -T "TOTALTRACKS=%numtracks%" -T "COMMENT=%comment%" %source% -o %dest%


TOC of the extracted CD

Track | Start | Length | Start sector | End sector
––––––––––––––––––––––––––––-
1 | 0:00.00 | 3:14.04 | 0 | 14553
2 | 3:14.04 | 6:01.63 | 14554 | 41691
3 | 9:15.67 | 3:21.21 | 41692 | 56787
4 | 12:37.13 | 4:06.21 | 56788 | 75258
5 | 16:43.34 | 3:07.27 | 75259 | 89310
6 | 19:50.61 | 2:24.55 | 89311 | 100165
7 | 22:15.41 | 3:33.17 | 100166 | 116157
8 | 25:48.58 | 6:46.07 | 116158 | 146614
9 | 32:34.65 | 9:08.00 | 146615 | 187714
10 | 41:42.65 | 6:12.35 | 187715 | 215649
11 | 47:55.25 | 3:38.10 | 215650 | 232009
12 | 51:33.35 | 5:05.34 | 232010 | 254918
13 | 56:38.69 | 1:31.52 | 254919 | 261795
14 | 58:10.46 | 11:06.16 | 261796 | 311761


Track 1

Filename I:\MIMIC\Kerst 2017\Morales - Christmas Motets - Weser-Renaissance Bremen (Manfred Cordes)\01 O magnum mysterium a 4.wav

Pre-gap length 0:00:02.00

Peak level 71.4 %
Extraction speed 2.4 X
Track quality 100.0 %
Test CRC A5431491
Copy CRC A5431491
Accurately ripped (confidence 1) [924CEDEE] (AR v2)
Copy OK

Track 2

Filename I:\MIMIC\Kerst 2017\Morales - Christmas Motets - Weser-Renaissance Bremen (Manfred Cordes)\02 Missus est Gabriel angelus a 4.wav

Peak level 67.9 %
Extraction speed 2.4 X
Track quality 99.9 %
Test CRC BA76FBBE
Copy CRC BA76FBBE
Accurately ripped (confidence 1) [22C28534] (AR v2)
Copy OK

Track 3

Filename I:\MIMIC\Kerst 2017\Morales - Christmas Motets - Weser-Renaissance Bremen (Manfred Cordes)\03 Ecce, virgo concipiet a 4.wav

Peak level 67.9 %
Extraction speed 2.8 X
Track quality 100.0 %
Test CRC 62E2C1D8
Copy CRC 62E2C1D8
Accurately ripped (confidence 1) [98BBD114] (AR v2)
Copy OK

Track 4

Filename I:\MIMIC\Kerst 2017\Morales - Christmas Motets - Weser-Renaissance Bremen (Manfred Cordes)\04 Veni, Domine, et noli tardare a 6.wav

Peak level 63.9 %
Extraction speed 3.1 X
Track quality 100.0 %
Test CRC 941B44BB
Copy CRC 941B44BB
Accurately ripped (confidence 1) [C49AAAF8] (AR v2)
Copy OK

Track 5

Filename I:\MIMIC\Kerst 2017\Morales - Christmas Motets - Weser-Renaissance Bremen (Manfred Cordes)\05 Ave Maria, gratia plena a 5.wav

Peak level 69.5 %
Extraction speed 3.1 X
Track quality 100.0 %
Test CRC C80E7DE5
Copy CRC C80E7DE5
Accurately ripped (confidence 1) [7D824F1B] (AR v2)
Copy OK

Track 6

Filename I:\MIMIC\Kerst 2017\Morales - Christmas Motets - Weser-Renaissance Bremen (Manfred Cordes)\06 Puer natus est nobis a 3.wav

Peak level 77.1 %
Extraction speed 2.2 X
Track quality 99.9 %
Test CRC 8403E038
Copy CRC 8403E038
Accurately ripped (confidence 1) [98C0980A] (AR v2)
Copy OK

Track 7

Filename I:\MIMIC\Kerst 2017\Morales - Christmas Motets - Weser-Renaissance Bremen (Manfred Cordes)\07 Pastores dicite, quidnam vidistis a 4.wav

Peak level 74.1 %
Extraction speed 3.4 X
Track quality 100.0 %
Test CRC 184C90E2
Copy CRC 184C90E2
Accurately ripped (confidence 1) [DED4F50F] (AR v2)
Copy OK

Track 8

Filename I:\MIMIC\Kerst 2017\Morales - Christmas Motets - Weser-Renaissance Bremen (Manfred Cordes)\08 Exaltata est Sancta Dei genitrix a 4.wav

Peak level 86.5 %
Extraction speed 3.9 X
Track quality 100.0 %
Test CRC B60F1F0F
Copy CRC B60F1F0F
Accurately ripped (confidence 1) [3FEC7E0D] (AR v2)
Copy OK

Track 9

Filename I:\MIMIC\Kerst 2017\Morales - Christmas Motets - Weser-Renaissance Bremen (Manfred Cordes)\09 Salve Regina a 5.wav

Peak level 94.9 %
Extraction speed 4.3 X
Track quality 100.0 %
Test CRC D8827EEF
Copy CRC D8827EEF
Accurately ripped (confidence 1) [A91BDC03] (AR v2)
Copy OK

Track 10

Filename I:\MIMIC\Kerst 2017\Morales - Christmas Motets - Weser-Renaissance Bremen (Manfred Cordes)\10 Sancta et immaculata virginitas a 4.wav

Peak level 59.1 %
Extraction speed 3.8 X
Track quality 99.9 %
Test CRC BEC39A58
Copy CRC BEC39A58
Accurately ripped (confidence 1) [F68456B2] (AR v2)
Copy OK

Track 11

Filename I:\MIMIC\Kerst 2017\Morales - Christmas Motets - Weser-Renaissance Bremen (Manfred Cordes)\11 Ave Regina coelorum a 5.wav

Peak level 76.5 %
Extraction speed 3.3 X
Track quality 99.9 %
Test CRC 3C971C8E
Copy CRC 3C971C8E
Accurately ripped (confidence 1) [3BE6FA63] (AR v2)
Copy OK

Track 12

Filename I:\MIMIC\Kerst 2017\Morales - Christmas Motets - Weser-Renaissance Bremen (Manfred Cordes)\12 Candida virginitas a 4.wav

Peak level 66.8 %
Extraction speed 3.9 X
Track quality 99.9 %
Test CRC E1711F6B
Copy CRC E1711F6B
Accurately ripped (confidence 1) [B81D0BA1] (AR v2)
Copy OK

Track 13

Filename I:\MIMIC\Kerst 2017\Morales - Christmas Motets - Weser-Renaissance Bremen (Manfred Cordes)\13 Salva nos, stella maris a 5.wav

Peak level 56.0 %
Extraction speed 3.7 X
Track quality 100.0 %
Test CRC FD297760
Copy CRC FD297760
Accurately ripped (confidence 1) [CF600228] (AR v2)
Copy OK

Track 14

Filename I:\MIMIC\Kerst 2017\Morales - Christmas Motets - Weser-Renaissance Bremen (Manfred Cordes)\14 Cum natus esset Iesus a 5.wav

Peak level 98.8 %
Extraction speed 5.2 X
Track quality 100.0 %
Test CRC 897719E1
Copy CRC 897719E1
Accurately ripped (confidence 1) [E99762F2] (AR v2)
Copy OK


All tracks accurately ripped

No errors occurred

End of status report

==== Log checksum 01C89FE9D2664BEA78BF72DF34EDFC146FB4C5EA5C63FBA66793574982AADFBC ====

[CUETools log; Date: 17.12.2017 11:08:06; Version: 2.1.5]
[CTDB TOCID: IXvDFd5yMrPBDZ9x7Opux4z1k2o-] found.
Track | CTDB Status
1 | (6/6) Accurately ripped
2 | (6/6) Accurately ripped
3 | (6/6) Accurately ripped
4 | (6/6) Accurately ripped
5 | (6/6) Accurately ripped
6 | (6/6) Accurately ripped
7 | (6/6) Accurately ripped
8 | (6/6) Accurately ripped
9 | (6/6) Accurately ripped
10 | (6/6) Accurately ripped
11 | (6/6) Accurately ripped
12 | (6/6) Accurately ripped
13 | (6/6) Accurately ripped
14 | (6/6) Accurately ripped
[AccurateRip ID: 00201c4b-015debb0-c6103c0e] found.
Track [ CRC | V2 ] Status
01 [251ba3a3|924cedee] (1+1/2) Accurately ripped
02 [8111a2bc|22c28534] (1+1/2) Accurately ripped
03 [4906059f|98bbd114] (1+1/2) Accurately ripped
04 [10aabc8f|c49aaaf8] (1+1/2) Accurately ripped
05 [06587bc1|7d824f1b] (1+1/2) Accurately ripped
06 [ffc52974|98c0980a] (1+1/2) Accurately ripped
07 [36b1b4aa|ded4f50f] (1+1/2) Accurately ripped
08 [11bfaee8|3fec7e0d] (1+1/2) Accurately ripped
09 [1c4e3a83|a91bdc03] (1+1/2) Accurately ripped
10 [d49de596|f68456b2] (1+1/2) Accurately ripped
11 [87c3789c|3be6fa63] (1+1/2) Accurately ripped
12 [2d50f3d8|b81d0ba1] (1+1/2) Accurately ripped
13 [99d3ab88|cf600228] (1+1/2) Accurately ripped
14 [d2d7bee4|e99762f2] (1+1/2) Accurately ripped

Track Peak [ CRC32 ] [W/O NULL] [ LOG ]
– 98,8 [CCA3104D] [4FF28ABD]
01 71,4 [A5431491] [E2186C98] CRC32
02 67,9 [BA76FBBE] [91A39475] CRC32
03 67,9 [62E2C1D8] [DAD14F34] CRC32
04 63,9 [941B44BB] [F27CCDF4] CRC32
05 69,5 [C80E7DE5] [CF5BB17F] CRC32
06 77,1 [8403E038] [DAEDCF28] CRC32
07 74,1 [184C90E2] [BDDEDBB0] CRC32
08 86,5 [B60F1F0F] [D2D07709] CRC32
09 94,9 [D8827EEF] [FE179C60] CRC32
10 59,1 [BEC39A58] [FD0EE988] CRC32
11 76,5 [3C971C8E] [68D28B9A] CRC32
12 66,8 [E1711F6B] [A7F5F1E2] CRC32
13 56,0 [FD297760] [30DC86A1] CRC32
14 98,8 [897719E1] [F029EDA5] CRC32

Thanks to the Original ripper (unknown)!

Download: