Subcategories

Whitney Houston - Whitney Dancin' Special (1986) {Japan 1st Press}

Posted By: popsakov
Whitney Houston - Whitney Dancin' Special (1986) {Japan 1st Press}

Whitney Houston - Whitney Dancin' Special (1986) {Japan 1st Press}
EAC Rip | FLAC (Img) + Cue + Log ~ 259 Mb | MP3 CBR320 ~ 94 Mb
Full Scans ~ 352 Mb | RAR 5% Recovery
Electronic / Dance / R&B / Funk / Soul / Pop
Arista / Nippon Phonogram Co., Ltd. #28RD-76

Whitney Dancin' Special also known as just Dancin' Special, is the first extended play/remix album by American R&B/pop singer Whitney Houston, it was released exclusively in Japan on November 1, 1986 by Arista Records. It was manufactured and distributed by Nippon Phonogram during its original release, and by BMG Victor during its re-issue. It includes 5 remixed and 1 instrumental versions of songs from her self-titled debut album. The album peaked at #14 in the Japanese charts.

***************

Whitney Houston - Whitney Dancin' Special (1986) {Japan 1st Press}

Whitney Houston - Whitney Dancin' Special (1986) {Japan 1st Press}

Track List:

01. How Will I Know (Dance Remix) [0:06:34.35]
02. You Give Good Love (Extended Version) [0:04:50.08]
03. Thinking About You (Extended Dance Version) [0:07:18.27]
04. Someone For Me (Remix) [0:07:24.18]
05. Thinking About You (Dub Version) [0:08:09.62]
06. How Will I Know (Instrumental Version) [0:04:42.73]

Exact Audio Copy V1.3 from 2. September 2016

EAC extraction logfile from 13. November 2016, 1:30

Whitney Houston / Whitney Dancin' Special

Used drive : PLEXTOR DVDR PX-810SA Adapter: 1 ID: 0

Read mode : Secure
Utilize accurate stream : Yes
Defeat audio cache : Yes
Make use of C2 pointers : No

Read offset correction : 48
Overread into Lead-In and Lead-Out : No
Fill up missing offset samples with silence : Yes
Delete leading and trailing silent blocks : No
Null samples used in CRC calculations : Yes
Used interface : Installed external ASPI interface

Used output format : User Defined Encoder
Selected bitrate : 1024 kBit/s
Quality : High
Add ID3 tag : No
Command line compressor : C:\Program Files (x86)\Exact Audio Copy\Flac\flac.exe
Additional command line options : -8 -V -T "Date=%year%" -T "Genre=%genre%" -T "COMMENT=ripped by bvstudio®" %source%


TOC of the extracted CD

Track | Start | Length | Start sector | End sector
––––––––––––––––––––––––––––-
1 | 0:00.37 | 6:34.35 | 37 | 29621
2 | 6:34.72 | 4:50.08 | 29622 | 51379
3 | 11:25.05 | 7:18.27 | 51380 | 84256
4 | 18:43.32 | 7:24.18 | 84257 | 117574
5 | 26:07.50 | 8:09.62 | 117575 | 154311
6 | 34:17.37 | 4:42.73 | 154312 | 175534


Range status and errors

Selected range

Filename F:\1986 - Whitney Dancin' Special (1986 - Japan - 28RD-76)\Whitney Houston - Whitney Dancin' Special.wav

Peak level 100.0 %
Extraction speed 7.0 X
Range quality 100.0 %
Test CRC B34077EC
Copy CRC B34077EC
Copy OK

No errors occurred


AccurateRip summary

Track 1 accurately ripped (confidence 3) [E4C0C255] (AR v2)
Track 2 accurately ripped (confidence 3) [FED8C8B7] (AR v2)
Track 3 accurately ripped (confidence 3) [EEAA5D16] (AR v2)
Track 4 accurately ripped (confidence 3) [FCA68B25] (AR v2)
Track 5 accurately ripped (confidence 3) [EDA2BEC3] (AR v2)
Track 6 accurately ripped (confidence 3) [F70C3AE3] (AR v2)

All tracks accurately ripped

End of status report

–– CUETools DB Plugin V2.1.6

[CTDB TOCID: K.yGwbdktrIwmI0IrQRdqHvTRWI-] found
Submit result: K.yGwbdktrIwmI0IrQRdqHvTRWI- has been confirmed
Track | CTDB Status
1 | (20/20) Accurately ripped
2 | (20/20) Accurately ripped
3 | (18/20) Accurately ripped
4 | (17/20) Accurately ripped
5 | (17/20) Accurately ripped
6 | (15/20) Accurately ripped, or (2/20) differs in 3 samples @04:31:39


==== Log checksum 33F745EFA8F1B5AA788194A1079340688CEE11BA0BA56A5772D16C3FB561EF9E ====

[CUETools log; Date: 13.06.2019 22:21:13; Version: 2.1.6]
Pregap length 00:00:37.
[CTDB TOCID: K.yGwbdktrIwmI0IrQRdqHvTRWI-] found.
Track | CTDB Status
1 | (36/36) Accurately ripped
2 | (36/36) Accurately ripped
3 | (34/36) Accurately ripped
4 | (33/36) Accurately ripped
5 | (33/36) Accurately ripped
6 | (31/36) Accurately ripped, or (2/36) differs in 3 samples @04:31:39
[AccurateRip ID: 0009596e-00323f0d-57092406] found.
Track [ CRC | V2 ] Status
01 [1c30ea0b|e4c0c255] (04+06/41) Accurately ripped
02 [f8136552|fed8c8b7] (04+06/40) Accurately ripped
03 [462e0299|eeaa5d16] (04+04/38) Accurately ripped
04 [f73aee5e|fca68b25] (04+05/40) Accurately ripped
05 [5afa0e0f|eda2bec3] (04+04/38) Accurately ripped
06 [ed81f512|f70c3ae3] (03+04/36) Accurately ripped
Offsetted by 347:
01 [5e5a4160] (09/41) Accurately ripped
02 [d3698eab] (09/40) Accurately ripped
03 [38305dac] (09/38) Accurately ripped
04 [e338fe76] (10/40) Accurately ripped
05 [62e41e85] (10/38) Accurately ripped
06 [9becc31b] (10/36) Accurately ripped
Offsetted by 210:
01 [4147b859] (00/41) No match (V2 was not tested)
02 [1b6ea3f8] (00/40) No match (V2 was not tested)
03 [72d4b13b] (00/38) No match (V2 was not tested)
04 [ee12a86e] (00/40) No match (V2 was not tested)
05 [91eefe33] (00/38) No match (V2 was not tested)
06 [dc988ad8] (00/36) No match (V2 was not tested)
Offsetted by 441:
01 [9d4734e2] (00/41) No match (V2 was not tested)
02 [dbec9c15] (00/40) No match (V2 was not tested)
03 [0a58d7ba] (00/38) No match (V2 was not tested)
04 [b0ccc1e6] (00/40) No match (V2 was not tested)
05 [67fc6cc1] (00/38) No match (V2 was not tested)
06 [96cafc65] (00/36) No match (V2 was not tested)

Track Peak [ CRC32 ] [W/O NULL] [ LOG ]
– 100,0 [B34077EC] [9E609F58] CRC32
01 93,0 [77CD40A7] [03C36B73]
02 100,0 [5A8BB6F6] [934002CC]
03 97,3 [0BB3D5B3] [E87FD71C]
04 100,0 [E4AC71F3] [633ECF74]
05 100,0 [41B22C4D] [CA68809C]
06 93,0 [9C6FC98C] [C52BBEB1]

Whitney Houston - Whitney Dancin' Special (1986) {Japan 1st Press}

All thanks go to bvstudio

>>> Whitney Houston in my Blog <<<

Download from icerbox.com: