Subcategories

Wilco - A.M. (Deluxe Edition) (1995/2017)

Posted By: SERTiL
Wilco - A.M. (Deluxe Edition) (1995/2017)

Wilco - A.M. (Deluxe Edition) (1995/2017)
EAC Rip | FLAC (tracks)+cue, log, artwork | 565 MB
Label: Sire – R2-563214 | Tracks: 21 | Time: 71:10 min
Alt-Country, Indie Rock

Wilco continues to make excellent records and play shows that stir the soul, but the group invented the terrain it continues to explore more than 20 years ago with its first two albums - A.M. (1995) and Being There (1996). On December 1, Rhino will revisit those landmark albums with remastered versions of the originals expanded with rare and unreleased music that will be new to even the most dedicated fans.

A.M.: Special Edition offers up eight unreleased bonus tracks that feature an early version of “Outtasite (Outta Mind)” and “When You Find Trouble,” which is the last studio recording made by Uncle Tupelo. In the album’s liner note, Stirratt writes “Listening back to records 15 to 20 years later, I’m always taken with the confident but guileless quality of bands in their 20s, that strange mixture of innocence and conviction, and this is one of those records—we were barely a band at that point, just trying to make some noise.”

Wilco - A.M. (Deluxe Edition) (1995/2017)


Tracklist:
1. I Must Be High
2. Casino Queen
3. Box Full Of Letters
4. Shouldn’t Be Ashamed
5. Pick Up The Change
6. I Thought I Held You
7. That’s Not The Issue
8. It’s Just That Simple
9. Should’ve Been In Love
10. Passenger Side
11. Dash 7
12. Blue Eyed Soul
13. Too Far Apart

Bonus Material
14. When You Find Trouble – Uncle Tupelo
15. Those I’ll Provide
16. Lost Love (Take 1 Vocal 2)
17. Myrna Lee
18. She Don’t Have To See You
19. Outtasite (Outta Mind) (Early Version) (Take 6)
20. Piss It Away
21. Hesitation Rocks

Personnel:
Jeff Tweedy, lead vocals, rhythm guitar, acoustic guitar, bass (track 8)
John Stirratt, bass, piano, organ, backing vocals, lead vocals/acoustic guitar (track 8)
Ken Coomer, drums, backing vocals
Max Johnston, dobro, fiddle, mandolin, banjo, backing vocals
Brian Henneman, lead guitar, small stoned guitar, backing vocals
Daniel Corrigan, backing vocals
Lloyd Maines, pedal steel guitar

Produced by Brian Paulson Wilco

Digitally remastered

Exact Audio Copy V1.1 from 23. June 2015

EAC extraction logfile from 1. December 2017, 16:03

Wilco / A.M. (Special Edition)

Used drive : ASUS BW-12D1S-U Adapter: 1 ID: 1

Read mode : Secure
Utilize accurate stream : Yes
Defeat audio cache : Yes
Make use of C2 pointers : No

Read offset correction : 667
Overread into Lead-In and Lead-Out : No
Fill up missing offset samples with silence : Yes
Delete leading and trailing silent blocks : No
Null samples used in CRC calculations : Yes
Used interface : Native Win32 interface for Win NT & 2000
Gap handling : Appended to previous track

Used output format : User Defined Encoder
Selected bitrate : 1024 kBit/s
Quality : High
Add ID3 tag : No
Command line compressor : C:\Program Files (x86)\Exact Audio Copy\FLAC\FLAC.EXE
Additional command line options : -6 -V -T "ARTIST=%artist%" -T "TITLE=%title%" -T "ALBUM=%albumtitle%" -T "DATE=%year%" -T "TRACKNUMBER=%tracknr%" -T "GENRE=%genre%" -T "COMMENT=%comment%" -T "BAND=%albuminterpret%" -T "ALBUMARTIST=%albuminterpret%" -T "COMPOSER=%composer%" %haslyrics%–tag-from-file=LYRICS="%lyricsfile%"%haslyrics% -T "DISCNUMBER=%cdnumber%" -T "TOTALDISCS=%totalcds%" -T "TOTALTRACKS=%numtracks%" %hascover%–picture="%coverfile%"%hascover% %source% -o %dest%


TOC of the extracted CD

Track | Start | Length | Start sector | End sector
––––––––––––––––––––––––––––-
1 | 0:00.00 | 3:00.18 | 0 | 13517
2 | 3:00.18 | 2:44.70 | 13518 | 25887
3 | 5:45.13 | 3:06.03 | 25888 | 39840
4 | 8:51.16 | 3:29.62 | 39841 | 55577
5 | 12:21.03 | 2:55.53 | 55578 | 68755
6 | 15:16.56 | 3:48.72 | 68756 | 85927
7 | 19:05.53 | 3:21.11 | 85928 | 101013
8 | 22:26.64 | 3:46.28 | 101014 | 117991
9 | 26:13.17 | 3:36.50 | 117992 | 134241
10 | 29:49.67 | 3:34.07 | 134242 | 150298
11 | 33:23.74 | 3:29.47 | 150299 | 166020
12 | 36:53.46 | 4:04.64 | 166021 | 184384
13 | 40:58.35 | 3:48.35 | 184385 | 201519
14 | 44:46.70 | 4:02.20 | 201520 | 219689
15 | 48:49.15 | 3:04.62 | 219690 | 233551
16 | 51:54.02 | 2:58.65 | 233552 | 246966
17 | 54:52.67 | 3:35.52 | 246967 | 263143
18 | 58:28.44 | 4:44.07 | 263144 | 284450
19 | 63:12.51 | 2:47.58 | 284451 | 297033
20 | 66:00.34 | 1:59.03 | 297034 | 305961
21 | 67:59.37 | 3:21.23 | 305962 | 321059


Track 1

Filename C:\Users\Alexandre\Downloads\Torrents of Autumn\Wilco [1995] A.M. (2017 deluxe remast. ed.)\01. I Must Be High (Remastered).wav

Pre-gap length 0:00:02.00

Peak level 100.0 %
Extraction speed 3.7 X
Track quality 99.9 %
Test CRC EAA1758C
Copy CRC EAA1758C
Track not present in AccurateRip database
Copy OK

Track 2

Filename C:\Users\Alexandre\Downloads\Torrents of Autumn\Wilco [1995] A.M. (2017 deluxe remast. ed.)\02. Casino Queen (Remastered).wav

Pre-gap length 0:00:00.33

Peak level 100.0 %
Extraction speed 4.5 X
Track quality 100.0 %
Test CRC E3FB5C44
Copy CRC E3FB5C44
Track not present in AccurateRip database
Copy OK

Track 3

Filename C:\Users\Alexandre\Downloads\Torrents of Autumn\Wilco [1995] A.M. (2017 deluxe remast. ed.)\03. Box Full Of Letters (Remastered).wav

Pre-gap length 0:00:00.09

Peak level 100.0 %
Extraction speed 4.9 X
Track quality 100.0 %
Test CRC 10502647
Copy CRC 10502647
Track not present in AccurateRip database
Copy OK

Track 4

Filename C:\Users\Alexandre\Downloads\Torrents of Autumn\Wilco [1995] A.M. (2017 deluxe remast. ed.)\04. Shouldn't Be Ashamed (Remastered).wav

Pre-gap length 0:00:01.14

Peak level 100.0 %
Extraction speed 4.6 X
Track quality 99.9 %
Test CRC 985130E3
Copy CRC 985130E3
Track not present in AccurateRip database
Copy OK

Track 5

Filename C:\Users\Alexandre\Downloads\Torrents of Autumn\Wilco [1995] A.M. (2017 deluxe remast. ed.)\05. Pick Up The Change (Remastered).wav

Pre-gap length 0:00:02.16

Peak level 100.0 %
Extraction speed 5.3 X
Track quality 100.0 %
Test CRC A6552857
Copy CRC A6552857
Track not present in AccurateRip database
Copy OK

Track 6

Filename C:\Users\Alexandre\Downloads\Torrents of Autumn\Wilco [1995] A.M. (2017 deluxe remast. ed.)\06. I Thought I Held You (Remastered).wav

Pre-gap length 0:00:00.31

Peak level 100.0 %
Extraction speed 5.8 X
Track quality 100.0 %
Test CRC C0528BED
Copy CRC C0528BED
Track not present in AccurateRip database
Copy OK

Track 7

Filename C:\Users\Alexandre\Downloads\Torrents of Autumn\Wilco [1995] A.M. (2017 deluxe remast. ed.)\07. That's Not The Issue (Remastered).wav

Pre-gap length 0:00:01.01

Peak level 99.6 %
Extraction speed 5.2 X
Track quality 99.9 %
Test CRC AD8D03F8
Copy CRC AD8D03F8
Track not present in AccurateRip database
Copy OK

Track 8

Filename C:\Users\Alexandre\Downloads\Torrents of Autumn\Wilco [1995] A.M. (2017 deluxe remast. ed.)\08. It's Just That Simple (Remastered).wav

Pre-gap length 0:00:00.57

Peak level 100.0 %
Extraction speed 5.5 X
Track quality 99.9 %
Test CRC 1876965F
Copy CRC 1876965F
Track not present in AccurateRip database
Copy OK

Track 9

Filename C:\Users\Alexandre\Downloads\Torrents of Autumn\Wilco [1995] A.M. (2017 deluxe remast. ed.)\09. Should've Been In Love (Remastered).wav

Pre-gap length 0:00:01.37

Peak level 99.3 %
Extraction speed 6.5 X
Track quality 100.0 %
Test CRC 678AF02E
Copy CRC 678AF02E
Track not present in AccurateRip database
Copy OK

Track 10

Filename C:\Users\Alexandre\Downloads\Torrents of Autumn\Wilco [1995] A.M. (2017 deluxe remast. ed.)\10. Passenger Side (Remastered).wav

Pre-gap length 0:00:01.11

Peak level 99.3 %
Extraction speed 5.9 X
Track quality 99.9 %
Test CRC 25A9BA2B
Copy CRC 25A9BA2B
Track not present in AccurateRip database
Copy OK

Track 11

Filename C:\Users\Alexandre\Downloads\Torrents of Autumn\Wilco [1995] A.M. (2017 deluxe remast. ed.)\11. Dash 7 (Remastered).wav

Pre-gap length 0:00:00.34

Peak level 95.8 %
Extraction speed 6.6 X
Track quality 100.0 %
Test CRC E8DCD030
Copy CRC E8DCD030
Track not present in AccurateRip database
Copy OK

Track 12

Filename C:\Users\Alexandre\Downloads\Torrents of Autumn\Wilco [1995] A.M. (2017 deluxe remast. ed.)\12. Blue Eyed Soul (Remastered).wav

Peak level 100.0 %
Extraction speed 7.3 X
Track quality 100.0 %
Test CRC 5846DA6E
Copy CRC 5846DA6E
Track not present in AccurateRip database
Copy OK

Track 13

Filename C:\Users\Alexandre\Downloads\Torrents of Autumn\Wilco [1995] A.M. (2017 deluxe remast. ed.)\13. Too Far Apart (Remastered).wav

Peak level 100.0 %
Extraction speed 7.2 X
Track quality 100.0 %
Test CRC 5BDE0C69
Copy CRC 5BDE0C69
Track not present in AccurateRip database
Copy OK

Track 14

Filename C:\Users\Alexandre\Downloads\Torrents of Autumn\Wilco [1995] A.M. (2017 deluxe remast. ed.)\14. When You Find Trouble.wav

Pre-gap length 0:00:04.35

Peak level 100.0 %
Extraction speed 7.1 X
Track quality 100.0 %
Test CRC 29540F9C
Copy CRC 29540F9C
Track not present in AccurateRip database
Copy OK

Track 15

Filename C:\Users\Alexandre\Downloads\Torrents of Autumn\Wilco [1995] A.M. (2017 deluxe remast. ed.)\15. Those I'll Provide.wav

Pre-gap length 0:00:01.41

Peak level 100.0 %
Extraction speed 7.1 X
Track quality 100.0 %
Test CRC A3761D6F
Copy CRC A3761D6F
Track not present in AccurateRip database
Copy OK

Track 16

Filename C:\Users\Alexandre\Downloads\Torrents of Autumn\Wilco [1995] A.M. (2017 deluxe remast. ed.)\16. Lost Love (Take 1 Vocal 2).wav

Pre-gap length 0:00:01.26

Peak level 100.0 %
Extraction speed 7.5 X
Track quality 100.0 %
Test CRC 9065F9F3
Copy CRC 9065F9F3
Track not present in AccurateRip database
Copy OK

Track 17

Filename C:\Users\Alexandre\Downloads\Torrents of Autumn\Wilco [1995] A.M. (2017 deluxe remast. ed.)\17. Myrna Lee.wav

Pre-gap length 0:00:01.49

Peak level 100.0 %
Extraction speed 7.8 X
Track quality 100.0 %
Test CRC 88E45B90
Copy CRC 88E45B90
Track not present in AccurateRip database
Copy OK

Track 18

Filename C:\Users\Alexandre\Downloads\Torrents of Autumn\Wilco [1995] A.M. (2017 deluxe remast. ed.)\18. She Don't Have To See You.wav

Peak level 100.0 %
Extraction speed 8.1 X
Track quality 100.0 %
Test CRC 4A321059
Copy CRC 4A321059
Track not present in AccurateRip database
Copy OK

Track 19

Filename C:\Users\Alexandre\Downloads\Torrents of Autumn\Wilco [1995] A.M. (2017 deluxe remast. ed.)\19. Outtasite (Outta Mind) (Early Version).wav

Peak level 100.0 %
Extraction speed 7.7 X
Track quality 100.0 %
Test CRC 1C1171F7
Copy CRC 1C1171F7
Track not present in AccurateRip database
Copy OK

Track 20

Filename C:\Users\Alexandre\Downloads\Torrents of Autumn\Wilco [1995] A.M. (2017 deluxe remast. ed.)\20. Piss It Away.wav

Pre-gap length 0:00:01.48

Peak level 100.0 %
Extraction speed 7.4 X
Track quality 100.0 %
Test CRC 5112B710
Copy CRC 5112B710
Track not present in AccurateRip database
Copy OK

Track 21

Filename C:\Users\Alexandre\Downloads\Torrents of Autumn\Wilco [1995] A.M. (2017 deluxe remast. ed.)\21. Hesitation Rocks.wav

Peak level 100.0 %
Extraction speed 7.9 X
Track quality 100.0 %
Test CRC 010516DD
Copy CRC 010516DD
Track not present in AccurateRip database
Copy OK


None of the tracks are present in the AccurateRip database

No errors occurred

End of status report

–– CUETools DB Plugin V2.1.6

[CTDB TOCID: 0xTnX3MdYfQUJ_zCnu1qcxu.qOE-] disk not present in database
Submit result: 0xTnX3MdYfQUJ_zCnu1qcxu.qOE- has been uploaded


==== Log checksum 0891DA854C02516BC837BB10BC5CB0910F579CEF99DA8DFA569B58AE17D259E2 ====


Pier Paolo Pasolini - Racconti di Canterbury, I (1972)


Thanks to the Original customer.