Subcategories

WildeStarr - A Tell Tale Heart (2012)

Posted By: Andi_Deris
WildeStarr - A Tell Tale Heart (2012)

WildeStarr - A Tell Tale Heart (2012)
EAC Rip | FLAC: Image+Cue+Log | MP3 CBR 320 kbps | Scans
374 Mb | 122 Mb | Time: 46:53
Scarlet Records | SC 227-2
Melodic Power Metal, Heavy Metal

WildeStarr returns with a vengeance with their new album "A TELL TALE HEART". 10 blistering tracks of pure metal, full of passion, anger and fury, inspired by the stories of Edgar Allen Poe. The new WildeStarr CD goes above and beyond where their debut CD "ARRIVAL" left off. "A TELL TALE HEART" will take you on a dark journey of searing metallic force filled with twists and turns, leaving you breathless.

WildeStarr - A Tell Tale Heart (2012)




WildeStarr - A Tell Tale Heart (2012)


Track Listing

01. Immortal (4:08)
02. Transformis Ligeia (4:12)
03. A Perfect Storm (5:41)
04. Valkyrie Cry (5:41)
05. Last Holy King (5:06)
06. In Staccata (3:43)
07. Not Sane (4:14)
08. Seven Shades Of Winter (3:51)
09. The Pit Or The Pendulum (5:39)
10. Usher In The Twilight (4:38)

The Band

• London Wilde: Vocals, Keyboards
• Dave Starr (Chastain, ex-Lääz Rockit, ex-Vicious Rumors): Bass, Guitars
• Josh Foster (ex-Mourn No More): Drums

WildeStarr - A Tell Tale Heart (2012)


Exact Audio Copy V0.99 prebeta 5 from 4. May 2009

EAC extraction logfile from 24. November 2012, 11:34

Wilde Starr / A Tell Tale Heart

Used drive : Optiarc DVD RW AD-7240S Adapter: 0 ID: 0

Read mode : Secure
Utilize accurate stream : Yes
Defeat audio cache : Yes
Make use of C2 pointers : No

Read offset correction : 48
Overread into Lead-In and Lead-Out : No
Fill up missing offset samples with silence : Yes
Delete leading and trailing silent blocks : No
Null samples used in CRC calculations : No
Used interface : Native Win32 interface for Win NT & 2000

Used output format : User Defined Encoder
Selected bitrate : 32 kBit/s
Quality : High
Add ID3 tag : No
Command line compressor : C:\FLAC.EXE
Additional command line options : -6 -V %s


TOC of the extracted CD

Track | Start | Length | Start sector | End sector
––––––––––––––––––––––––––––-
1 | 0:00.00 | 4:08.45 | 0 | 18644
2 | 4:08.45 | 4:12.30 | 18645 | 37574
3 | 8:21.00 | 5:41.28 | 37575 | 63177
4 | 14:02.28 | 5:41.71 | 63178 | 88823
5 | 19:44.24 | 5:06.72 | 88824 | 111845
6 | 24:51.21 | 3:43.69 | 111846 | 128639
7 | 28:35.15 | 4:14.00 | 128640 | 147689
8 | 32:49.15 | 3:51.31 | 147690 | 165045
9 | 36:40.46 | 5:39.71 | 165046 | 190541
10 | 42:20.42 | 4:38.12 | 190542 | 211403


Range status and errors

Selected range

Filename D:\Wilde Starr - A Tell Tale Heart.wav

Peak level 98.8 %
Range quality 100.0 %
Copy CRC 47EAB62B
Copy OK

No errors occurred


AccurateRip summary

Track 1 not present in database
Track 2 not present in database
Track 3 not present in database
Track 4 not present in database
Track 5 not present in database
Track 6 not present in database
Track 7 not present in database
Track 8 not present in database
Track 9 not present in database
Track 10 not present in database

None of the tracks are present in the AccurateRip database

End of status report


Many thanks to the original uploader: Exploded



Password: pass