William Christie - Rameau: Pieces de clavecin & Nouvelles Suites de Pieces de clavecin (2003)

Posted By: ArlegZ
William Christie - Rameau: Pieces de clavecin & Nouvelles Suites de Pieces de clavecin (2003)

William Christie - Rameau: Pièces de clavecin & Nouvelles Suites de Pièces de clavecin (2003)
EAC | FLAC | Image (Cue & Log) ~ 739 Mb | Total time: 115:44 | Scans included
Classical | Label: Harmonia Mundi | # HMX 2901120.21 | Recorded: 1983

Compared to his colleagues in the French Baroque harpsichord business, Rameau wrote relatively little keyboard music. It all fits on two discs. Like the keyboard sonatas of his contemporary Scarlatti, these pieces contain moments when Rameau clearly uses the harpsichord to evoke the sound of the orchestra–trumpets, flutes, and drums–but unlike Scarlatti's, several of these pieces were actually orchestrated and reappear as dance numbers in Rameau's operas. William Christie is our leading exponent of French Baroque opera, Rameau in particular, and it follows that he is alive to every detail in these fascinating and delightful miniatures. At midprice, this is a great deal.
-David Hurwitz

Performer:
William Christie, clavecin

Track List:
CD1:
Pièces de clavecin (1724)
01. Suite en mi mineur: Allemande
02. Courante
03. Gigue en rondeau I
04. Gigue en rondeau II
05. Le Rappel des oiseaux
06. La Villageoise. Rondeau
07. Rigaudons I & II
08. Musette en rondeau. Tendrement
09. Tambourin
10. Suite en Ré majeur: Les Tendres Plaintes. Rondeau
11. Les Niais de Sologne & deux doubles
12. Les Soupirs. Tendrement
13. La Joyeuse. Rondeau
14. La Follette. Rondeau
15. L'Entretien des muses
16. La Boiteuse
17. Les Tourbillons. Rondeau
18. Le Lardon. Menuet
19. Les Cyclopes. Rondeau
CD2:
Nouvelles Suites de Pièces de clavecin (1728)
01. Suite en La majeur: Allemande
02. Courante
03. Sarabande
04. Les Trois Mains
05. Fanfarinette
06. La Triomphante
07. Gavotte avec six doubles
08. Suite en Sol majeur: Les Tricotets. Rondeau
09. L'Indifférente
10. Menuets I & II
11. La Poule
12. Les Triolets
13. Les Sauvages
14. L'Enharmonique. Gratieusement
15. L'Egyptienne


Exact Audio Copy V1.0 beta 3 from 29. August 2011

EAC extraction logfile from 29. September 2017, 15:47

William Christie / Rameau - Pièces de clavecin (1724)

Used drive : HL-DT-STDVDRAM GH24NS95 Adapter: 0 ID: 0

Read mode : Secure
Utilize accurate stream : Yes
Defeat audio cache : Yes
Make use of C2 pointers : No

Read offset correction : 6
Overread into Lead-In and Lead-Out : No
Fill up missing offset samples with silence : Yes
Delete leading and trailing silent blocks : No
Null samples used in CRC calculations : Yes
Used interface : Native Win32 interface for Win NT & 2000

Used output format : User Defined Encoder
Selected bitrate : 128 kBit/s
Quality : High
Add ID3 tag : No
Command line compressor : C:\Program Files\Exact Audio Copy\Flac\flac.exe
Additional command line options : -V -8 -T "Date=%year%" -T "Genre=%genre%" %source%


TOC of the extracted CD

Track | Start | Length | Start sector | End sector
––––––––––––––––––––––––––––-
1 | 0:00.33 | 4:29.60 | 33 | 20267
2 | 4:30.18 | 2:00.60 | 20268 | 29327
3 | 6:31.03 | 1:26.50 | 29328 | 35827
4 | 7:57.53 | 2:21.32 | 35828 | 46434
5 | 10:19.10 | 2:47.38 | 46435 | 58997
6 | 13:06.48 | 2:31.22 | 58998 | 70344
7 | 15:37.70 | 2:20.15 | 70345 | 80859
8 | 17:58.10 | 3:15.38 | 80860 | 95522
9 | 21:13.48 | 1:20.60 | 95523 | 101582
10 | 22:34.33 | 3:37.30 | 101583 | 117887
11 | 26:11.63 | 6:45.37 | 117888 | 148299
12 | 32:57.25 | 3:32.43 | 148300 | 164242
13 | 36:29.68 | 1:17.20 | 164243 | 170037
14 | 37:47.13 | 1:41.27 | 170038 | 177639
15 | 39:28.40 | 3:58.28 | 177640 | 195517
16 | 43:26.68 | 0:54.52 | 195518 | 199619
17 | 44:21.45 | 2:43.40 | 199620 | 211884
18 | 47:05.10 | 0:50.40 | 211885 | 215674
19 | 47:55.50 | 3:50.08 | 215675 | 232932


Range status and errors

Selected range

Filename C:\Rameau - Pièces de clavecin (1724).wav

Peak level 77.2 %
Extraction speed 1.7 X
Range quality 100.0 %
Test CRC 4AFB3562
Copy CRC 4AFB3562
Copy OK

No errors occurred

End of status report

==== Log checksum 6AA5649926B7DFC7EF88330A54938AA291242506119812D7129F9614EF51005D ====


Exact Audio Copy V1.0 beta 3 from 29. August 2011

EAC extraction logfile from 29. September 2017, 16:22

William Christie / Rameau - Nouvelles suites de Pièces de clavecin (1728)

Used drive : HL-DT-STDVDRAM GH24NS95 Adapter: 0 ID: 0

Read mode : Secure
Utilize accurate stream : Yes
Defeat audio cache : Yes
Make use of C2 pointers : No

Read offset correction : 6
Overread into Lead-In and Lead-Out : No
Fill up missing offset samples with silence : Yes
Delete leading and trailing silent blocks : No
Null samples used in CRC calculations : Yes
Used interface : Native Win32 interface for Win NT & 2000

Used output format : User Defined Encoder
Selected bitrate : 128 kBit/s
Quality : High
Add ID3 tag : No
Command line compressor : C:\Program Files\Exact Audio Copy\Flac\flac.exe
Additional command line options : -V -8 -T "Date=%year%" -T "Genre=%genre%" %source%


TOC of the extracted CD

Track | Start | Length | Start sector | End sector
––––––––––––––––––––––––––––-
1 | 0:00.00 | 8:26.50 | 0 | 37999
2 | 8:26.50 | 4:52.30 | 38000 | 59929
3 | 13:19.05 | 3:26.72 | 59930 | 75451
4 | 16:46.02 | 5:49.18 | 75452 | 101644
5 | 22:35.20 | 3:23.45 | 101645 | 116914
6 | 25:58.65 | 1:45.60 | 116915 | 124849
7 | 27:44.50 | 8:38.25 | 124850 | 163724
8 | 36:23.00 | 1:58.02 | 163725 | 172576
9 | 38:21.02 | 2:08.00 | 172577 | 182176
10 | 40:29.02 | 2:23.20 | 182177 | 192921
11 | 42:52.22 | 5:08.48 | 192922 | 216069
12 | 48:00.70 | 3:57.32 | 216070 | 233876
13 | 51:58.27 | 2:04.65 | 233877 | 243241
14 | 54:03.17 | 6:13.50 | 243242 | 271266
15 | 60:16.67 | 3:50.65 | 271267 | 288581


Range status and errors

Selected range

Filename C:\Rameau - Nouvelles suites de Pièces de clavecin (1728).wav

Peak level 97.3 %
Extraction speed 8.2 X
Range quality 100.0 %
Test CRC 9D648E92
Copy CRC 9D648E92
Copy OK

No errors occurred

End of status report

==== Log checksum 12EF629871655CE9ABCC0CD186F751D3383C80C301E36590D2685A92991829F9 ====

William Christie - Rameau: Pieces de clavecin & Nouvelles Suites de Pieces de clavecin (2003)