Willie Nelson - Revolutions Of Time: The Journey 1975-1993 (1995) [3CD Box Set]

Posted By: v3122
Willie Nelson - Revolutions Of Time: The Journey 1975-1993 (1995) [3CD Box Set]

Willie Nelson - Revolutions Of Time: The Journey 1975-1993 (1995)
EAC | Flac(Image) + Cue + Log & MP3 CBR 320Kbps
Columbia C3K 64796 | ~ 1107 or 474 Mb | Scans(jpg) -> 34 Mb
Country

Compiling material from Willie Nelson's later career, the box set Revolutions of Time: The Journey 1975-1993 provides a thorough overview of the singer's most popular recordings, as well as some of his most obscure. Divided into three thematic discs – "Pilgrimage," "Sojourns," and "Exodus" – the box contains most of his hits from the era, including selections from The Red Headed Stranger and Stardust. These songs are on "Pilgrimage." "Sojourns" concentrates on his duets, while "Exodus" is filled with songs from the late '80s and early '90s. It doesn't round up all of his best songs of the era – there are still several gems hidden away on the original albums – but it does provide an effective and thoroughly entertaining portrait of Nelson's later career. Revolutions of Time could be all that the casual fan needs to hear from Nelson's later career, and every country fan should be familiar with much of these songs.

by Stephen Thomas Erlewine, allmusic
Willie Nelson - Revolutions Of Time: The Journey 1975-1993 (1995):

Willie Nelson - Revolutions Of Time: The Journey 1975-1993 (1995) [3CD Box Set]

Tracklist CD1 - Pilgrimage:

01. Time Of The Preacher (02:28)
02. Blue Eyes Crying In The Rain (02:20)
03. If You've Got The Money I've Got The Time (02:05)
04. Uncloudy Day (04:41)
05. Always Late (With Your Kisses) (02:26)
06. Georgia On My Mind (04:20)
07. Blue Skies (03:34)
08. Whiskey River (03:33)
09. Stay A Little Longer (03:25)
10. Mr. Record Man (02:01)
11. Loving Her Was Easier (Than Anything I'll Ever Do Again) (05:51)
12. Mammas Don't Let Your Babies Grow Up To Be Cowboys (03:28)
13. My Heroes Have Always Been Cowboys (03:05)
14. It's Not Supposed To Be That Way (03:23)
15. On The Road Again (02:34)
16. Angel Flying Too Close To The Ground (04:26)
17. Mona Lisa (02:32)
18. Always On My Mind (03:33)
19. Last Thing I Needed The First Thing This Morning (04:19)
20. The Party's Over (02:49)

Converted to Image (CUETools 2.1.4)

Exact Audio Copy V0.99 prebeta 4 from 23. January 2008

EAC extraction logfile from 21. September 2009, 19:34

Willie Nelson / Revolutions of Time: The Journey 1975-1993 (Disc 1) The Pilgrimage

Used drive : TSSTcorpCD/DVDW TS-H552L Adapter: 4 ID: 0

Read mode : Secure
Utilize accurate stream : Yes
Defeat audio cache : Yes
Make use of C2 pointers : No

Read offset correction : 6
Overread into Lead-In and Lead-Out : No
Fill up missing offset samples with silence : Yes
Delete leading and trailing silent blocks : No
Null samples used in CRC calculations : Yes
Used interface : Native Win32 interface for Win NT & 2000
Gap handling : Appended to previous track

Used output format : User Defined Encoder
Selected bitrate : 1024 kBit/s
Quality : High
Add ID3 tag : No
Command line compressor : C:\Program Files\FLAC\flac.exe
Additional command line options : -8 -V -T "ARTIST=%a" -T "TITLE=%t" -T "ALBUM=%g" -T "DATE=%y" -T "TRACKNUMBER=%n" -T "TOTALTRACKS=%x" -T "GENRE=%m" -T "ALBUMARTIST=%v" -T "ALBUM ARTIST=%v" -T "COMMENT=EAC V0.99 prebeta 4, Secure Mode, Test & Copy, Accurat


TOC of the extracted CD

Track | Start | Length | Start sector | End sector
––––––––––––––––––––––––––––-
1 | 0:00.00 | 2:28.07 | 0 | 11106
2 | 2:28.07 | 2:20.70 | 11107 | 21676
3 | 4:49.02 | 2:05.73 | 21677 | 31124
4 | 6:55.00 | 4:41.47 | 31125 | 52246
5 | 11:36.47 | 2:26.15 | 52247 | 63211
6 | 14:02.62 | 4:20.30 | 63212 | 82741
7 | 18:23.17 | 3:34.33 | 82742 | 98824
8 | 21:57.50 | 3:33.32 | 98825 | 114831
9 | 25:31.07 | 3:25.35 | 114832 | 130241
10 | 28:56.42 | 2:01.50 | 130242 | 139366
11 | 30:58.17 | 5:51.13 | 139367 | 165704
12 | 36:49.30 | 3:28.50 | 165705 | 181354
13 | 40:18.05 | 3:05.22 | 181355 | 195251
14 | 43:23.27 | 3:23.45 | 195252 | 210521
15 | 46:46.72 | 2:34.68 | 210522 | 222139
16 | 49:21.65 | 4:26.05 | 222140 | 242094
17 | 53:47.70 | 2:32.65 | 242095 | 253559
18 | 56:20.60 | 3:33.07 | 253560 | 269541
19 | 59:53.67 | 4:19.60 | 269542 | 289026
20 | 64:13.52 | 2:49.33 | 289027 | 301734


Track 1

Filename J:\Willie Nelson - Revolutions Of Time….The Journey 1975-1993 (1995) [FLAC]\CD 1\01 - Time Of The Preacher.wav

Pre-gap length 0:00:02.00

Peak level 94.4 %
Track quality 99.7 %
Test CRC DF59CE31
Copy CRC DF59CE31
Accurately ripped (confidence 7) [9B0BEB5E]
Copy OK

Track 2

Filename J:\Willie Nelson - Revolutions Of Time….The Journey 1975-1993 (1995) [FLAC]\CD 1\02 - Blue Eyes Crying In The Rain.wav

Pre-gap length 0:00:02.12

Peak level 88.9 %
Track quality 99.9 %
Test CRC 57966394
Copy CRC 57966394
Accurately ripped (confidence 7) [80C044BB]
Copy OK

Track 3

Filename J:\Willie Nelson - Revolutions Of Time….The Journey 1975-1993 (1995) [FLAC]\CD 1\03 - If You've Got The Money (I've Got The Time).wav

Pre-gap length 0:00:02.02

Peak level 86.6 %
Track quality 100.0 %
Test CRC 773AAC6A
Copy CRC 773AAC6A
Accurately ripped (confidence 7) [AE0F32F7]
Copy OK

Track 4

Filename J:\Willie Nelson - Revolutions Of Time….The Journey 1975-1993 (1995) [FLAC]\CD 1\04 - Uncloudy Day.wav

Pre-gap length 0:00:02.20

Peak level 94.4 %
Track quality 100.0 %
Test CRC 97091927
Copy CRC 97091927
Accurately ripped (confidence 7) [16C97F11]
Copy OK

Track 5

Filename J:\Willie Nelson - Revolutions Of Time….The Journey 1975-1993 (1995) [FLAC]\CD 1\05 - Always Late (With Your Kisses).wav

Pre-gap length 0:00:02.07

Peak level 77.1 %
Track quality 100.0 %
Test CRC 2ECA95D0
Copy CRC 2ECA95D0
Accurately ripped (confidence 7) [D5CBD923]
Copy OK

Track 6

Filename J:\Willie Nelson - Revolutions Of Time….The Journey 1975-1993 (1995) [FLAC]\CD 1\06 - Georgia On My Mind.wav

Pre-gap length 0:00:02.37

Peak level 90.2 %
Track quality 100.0 %
Test CRC C03A45B8
Copy CRC C03A45B8
Accurately ripped (confidence 7) [84C0C3B1]
Copy OK

Track 7

Filename J:\Willie Nelson - Revolutions Of Time….The Journey 1975-1993 (1995) [FLAC]\CD 1\07 - Blue Skies.wav

Pre-gap length 0:00:02.05

Peak level 94.2 %
Track quality 100.0 %
Test CRC DB3C02F4
Copy CRC DB3C02F4
Accurately ripped (confidence 7) [A1F44B06]
Copy OK

Track 8

Filename J:\Willie Nelson - Revolutions Of Time….The Journey 1975-1993 (1995) [FLAC]\CD 1\08 - Whiskey River.wav

Pre-gap length 0:00:02.10

Peak level 85.4 %
Track quality 100.0 %
Test CRC 1BDF7864
Copy CRC 1BDF7864
Accurately ripped (confidence 7) [36334013]
Copy OK

Track 9

Filename J:\Willie Nelson - Revolutions Of Time….The Journey 1975-1993 (1995) [FLAC]\CD 1\09 - Stay A Little Longer.wav

Peak level 85.2 %
Track quality 100.0 %
Test CRC FCECFC91
Copy CRC FCECFC91
Accurately ripped (confidence 7) [6A4FF384]
Copy OK

Track 10

Filename J:\Willie Nelson - Revolutions Of Time….The Journey 1975-1993 (1995) [FLAC]\CD 1\10 - Mr. Record Man.wav

Peak level 83.2 %
Track quality 100.0 %
Test CRC CAF9D93A
Copy CRC CAF9D93A
Accurately ripped (confidence 7) [DFA1508F]
Copy OK

Track 11

Filename J:\Willie Nelson - Revolutions Of Time….The Journey 1975-1993 (1995) [FLAC]\CD 1\11 - Loving Her Was Easier (That Anything I'll Ever Do Again).wav

Pre-gap length 0:00:01.67

Peak level 94.4 %
Track quality 100.0 %
Test CRC 9381E8E2
Copy CRC 9381E8E2
Accurately ripped (confidence 7) [FD9B95BE]
Copy OK

Track 12

Filename J:\Willie Nelson - Revolutions Of Time….The Journey 1975-1993 (1995) [FLAC]\CD 1\12 - Mamas Don't Let Your Babies Grow Up To Be Cowboys.wav

Pre-gap length 0:00:01.65

Peak level 94.4 %
Track quality 100.0 %
Test CRC 86B5383A
Copy CRC 86B5383A
Accurately ripped (confidence 7) [D0B566C3]
Copy OK

Track 13

Filename J:\Willie Nelson - Revolutions Of Time….The Journey 1975-1993 (1995) [FLAC]\CD 1\13 - My Heros Have Always Been Cowboys.wav

Pre-gap length 0:00:02.61

Peak level 94.4 %
Track quality 99.9 %
Test CRC FCFE61BF
Copy CRC FCFE61BF
Accurately ripped (confidence 7) [1BD5A790]
Copy OK

Track 14

Filename J:\Willie Nelson - Revolutions Of Time….The Journey 1975-1993 (1995) [FLAC]\CD 1\14 - It's Not Supposed To Be That Way.wav

Pre-gap length 0:00:02.06

Peak level 92.8 %
Track quality 100.0 %
Test CRC B8F74143
Copy CRC B8F74143
Accurately ripped (confidence 7) [557783E4]
Copy OK

Track 15

Filename J:\Willie Nelson - Revolutions Of Time….The Journey 1975-1993 (1995) [FLAC]\CD 1\15 - On The Road Again.wav

Pre-gap length 0:00:02.08

Peak level 92.0 %
Track quality 100.0 %
Test CRC CE4751CC
Copy CRC CE4751CC
Accurately ripped (confidence 7) [CB759FC6]
Copy OK

Track 16

Filename J:\Willie Nelson - Revolutions Of Time….The Journey 1975-1993 (1995) [FLAC]\CD 1\16 - Angel Flying Too Close To The Ground.wav

Pre-gap length 0:00:01.59

Peak level 84.6 %
Track quality 100.0 %
Test CRC 8B2CF676
Copy CRC 8B2CF676
Accurately ripped (confidence 7) [D7BE0CC4]
Copy OK

Track 17

Filename J:\Willie Nelson - Revolutions Of Time….The Journey 1975-1993 (1995) [FLAC]\CD 1\17 - Mona Lisa.wav

Pre-gap length 0:00:02.41

Peak level 81.0 %
Track quality 100.0 %
Test CRC AAB63199
Copy CRC AAB63199
Accurately ripped (confidence 7) [C37B9C54]
Copy OK

Track 18

Filename J:\Willie Nelson - Revolutions Of Time….The Journey 1975-1993 (1995) [FLAC]\CD 1\18 - Always On My Mind.wav

Pre-gap length 0:00:02.00

Peak level 83.6 %
Track quality 100.0 %
Test CRC 85A14843
Copy CRC 85A14843
Accurately ripped (confidence 6) [816EE018]
Copy OK

Track 19

Filename J:\Willie Nelson - Revolutions Of Time….The Journey 1975-1993 (1995) [FLAC]\CD 1\19 - Last Thing I Needed First Thing In The Morning.wav

Pre-gap length 0:00:02.27

Peak level 82.9 %
Track quality 100.0 %
Test CRC A51F57CD
Copy CRC A51F57CD
Accurately ripped (confidence 6) [4D5C39CF]
Copy OK

Track 20

Filename J:\Willie Nelson - Revolutions Of Time….The Journey 1975-1993 (1995) [FLAC]\CD 1\20 - The Party's Over.wav

Pre-gap length 0:00:02.12

Peak level 94.4 %
Track quality 100.0 %
Test CRC B3DE5BAC
Copy CRC B3DE5BAC
Accurately ripped (confidence 6) [4F5B8669]
Copy OK


All tracks accurately ripped

No errors occurred

End of status report

foobar2000 1.2.9 / Dynamic Range Meter 1.1.1
log date: 2017-07-13 11:58:00

––––––––––––––––––––––––––––––––––––––––
Analyzed: Willie Nelson / Revolutions of Time: The Journey 1975-1993 (CD1) The Pilgrimage
––––––––––––––––––––––––––––––––––––––––

DR Peak RMS Duration Track
––––––––––––––––––––––––––––––––––––––––
DR13 -0.50 dB -16.27 dB 2:28 01-Time Of The Preacher
DR13 -1.01 dB -17.08 dB 2:21 02-Blue Eyes Crying In The Rain
DR11 -1.24 dB -14.77 dB 2:06 03-If You've Got The Money (I've Got The Time)
DR12 -0.50 dB -14.67 dB 4:42 04-Uncloudy Day
DR11 -2.25 dB -15.95 dB 2:26 05-Always Late (With Your Kisses)
DR12 -0.89 dB -16.32 dB 4:20 06-Georgia On My Mind
DR12 -0.52 dB -15.50 dB 3:34 07-Blue Skies
DR12 -1.37 dB -15.28 dB 3:33 08-Whiskey River
DR11 -1.39 dB -15.18 dB 3:25 09-Stay A Little Longer
DR15 -1.60 dB -19.75 dB 2:02 10-Mr. Record Man
DR13 -0.50 dB -16.58 dB 5:51 11-Loving Her Was Easier (That Anything I'll Ever Do Again)
DR12 -0.50 dB -14.91 dB 3:29 12-Mamas Don't Let Your Babies Grow Up To Be Cowboys
DR14 -0.50 dB -17.07 dB 3:05 13-My Heros Have Always Been Cowboys
DR12 -0.65 dB -15.99 dB 3:24 14-It's Not Supposed To Be That Way
DR11 -0.72 dB -14.85 dB 2:35 15-On The Road Again
DR11 -1.45 dB -16.06 dB 4:26 16-Angel Flying Too Close To The Ground
DR12 -1.82 dB -17.88 dB 2:33 17-Mona Lisa
DR12 -1.55 dB -16.22 dB 3:33 18-Always On My Mind
DR10 -1.63 dB -14.17 dB 4:20 19-Last Thing I Needed First Thing In The Morning
DR13 -0.50 dB -15.36 dB 2:49 20-The Party's Over
––––––––––––––––––––––––––––––––––––––––

Number of tracks: 20
Official DR value: DR12

Samplerate: 44100 Hz
Channels: 2
Bits per sample: 16
Bitrate: 722 kbps
Codec: FLAC

[CUETools log; Date: 13.07.2017 11:57:46; Version: 2.1.4]
[CTDB TOCID: Zvd7kyj7.TyvY8z6TVtO4Q0idRw-] found.
Track | CTDB Status
1 | ( 7/19) Accurately ripped, or (11/19) differs in 32 samples @00:00:26-00:00:27
2 | (19/19) Accurately ripped
3 | (19/19) Accurately ripped
4 | (19/19) Accurately ripped
5 | (19/19) Accurately ripped
6 | (19/19) Accurately ripped
7 | (19/19) Accurately ripped
8 | (19/19) Accurately ripped
9 | (19/19) Accurately ripped
10 | (18/19) Accurately ripped
11 | (19/19) Accurately ripped
12 | (19/19) Accurately ripped
13 | (19/19) Accurately ripped
14 | (18/19) Accurately ripped
15 | (18/19) Accurately ripped
16 | (18/19) Accurately ripped
17 | (19/19) Accurately ripped
18 | (19/19) Accurately ripped
19 | (19/19) Accurately ripped
20 | (19/19) Accurately ripped
[AccurateRip ID: 002ef0d5-02badcb9-170fb714] found.
Track [ CRC | V2 ] Status
01 [9b0beb5e|2911ab3a] (13+07/46) Accurately ripped
02 [80c044bb|f643088d] (13+07/46) Accurately ripped
03 [ae0f32f7|b3ceb002] (13+07/46) Accurately ripped
04 [16c97f11|ec95c48d] (13+07/46) Accurately ripped
05 [d5cbd923|2c27701e] (13+07/46) Accurately ripped
06 [84c0c3b1|9eb34e48] (13+07/46) Accurately ripped
07 [a1f44b06|16379695] (13+07/44) Accurately ripped
08 [36334013|f742068a] (13+07/46) Accurately ripped
09 [6a4ff384|0028ac97] (13+07/46) Accurately ripped
10 [dfa1508f|2337f2f8] (13+07/46) Accurately ripped
11 [fd9b95be|8ca99a13] (13+07/45) Accurately ripped
12 [d0b566c3|70ee0f44] (13+07/46) Accurately ripped
13 [1bd5a790|6cba2416] (13+07/46) Accurately ripped
14 [557783e4|36beb0b5] (13+07/46) Accurately ripped
15 [cb759fc6|ca9792dd] (13+07/46) Accurately ripped
16 [d7be0cc4|e0d3d188] (13+07/46) Accurately ripped
17 [c37b9c54|a83695a7] (13+07/45) Accurately ripped
18 [816ee018|c659b91e] (12+07/44) Accurately ripped
19 [4d5c39cf|40e59a9b] (12+06/43) Accurately ripped
20 [4f5b8669|12163da3] (12+07/39) Accurately ripped
Offsetted by -325:
01 [1b1497fc] (00/46) No match (V2 was not tested)
02 [10596b4a] (06/46) Accurately ripped
03 [92ec5493] (06/46) Accurately ripped
04 [ee97a2a9] (06/46) Accurately ripped
05 [0b4fb243] (06/46) Accurately ripped
06 [b023115d] (06/46) Accurately ripped
07 [0cb4fe2e] (06/44) Accurately ripped
08 [d4f5cffb] (06/46) Accurately ripped
09 [2d42867d] (06/46) Accurately ripped
10 [4bf6cde4] (06/46) Accurately ripped
11 [cd9219b2] (06/45) Accurately ripped
12 [8b82fdbb] (06/46) Accurately ripped
13 [1ade151e] (06/46) Accurately ripped
14 [61088b9c] (06/46) Accurately ripped
15 [7cc4716f] (06/46) Accurately ripped
16 [6f0ab59e] (06/46) Accurately ripped
17 [31284dd8] (06/45) Accurately ripped
18 [f7fa1fda] (06/44) Accurately ripped
19 [1ecd454d] (06/43) Accurately ripped
20 [a98a8eca] (00/39) No match (V2 was not tested)
Offsetted by -47:
01 [45963b78] (00/46) No match (V2 was not tested)
02 [d5521588] (08/46) Accurately ripped
03 [8f5a804b] (08/46) Accurately ripped
04 [21840ed9] (08/46) Accurately ripped
05 [fc416083] (08/46) Accurately ripped
06 [9eb82335] (08/46) Accurately ripped
07 [732a277e] (07/44) Accurately ripped
08 [1aa3b08c] (08/46) Accurately ripped
09 [0fa0889d] (08/46) Accurately ripped
10 [a2a44f77] (08/46) Accurately ripped
11 [eba2171a] (07/45) Accurately ripped
12 [9a9744ab] (08/46) Accurately ripped
13 [b8720c7a] (08/46) Accurately ripped
14 [67ae5c0c] (08/46) Accurately ripped
15 [ffe1e8a1] (08/46) Accurately ripped
16 [c9638612] (08/46) Accurately ripped
17 [7cb28460] (08/45) Accurately ripped
18 [5913291e] (08/44) Accurately ripped
19 [41e6aa89] (08/43) Accurately ripped
20 [b3d5546c] (00/39) No match (V2 was not tested)

Track Peak [ CRC32 ] [W/O NULL] [ LOG ]
– 94,4 [84B08B13] [3DAD383E]
01 94,4 [DF59CE31] [C5000242] CRC32
02 88,9 [57966394] [0F47E7B9] CRC32
03 86,6 [773AAC6A] [65FCEC16] CRC32
04 94,4 [97091927] [B94A839F] CRC32
05 77,1 [2ECA95D0] [4137CD4B] CRC32
06 90,2 [C03A45B8] [74C1D189] CRC32
07 94,2 [DB3C02F4] [2F48C4E5] CRC32
08 85,4 [1BDF7864] [B121D6A3] CRC32
09 85,2 [FCECFC91] [635EE5D1] CRC32
10 83,2 [CAF9D93A] [8D943AFC] CRC32
11 94,4 [9381E8E2] [D4A1C3C0] CRC32
12 94,4 [86B5383A] [E7CE05DA] CRC32
13 94,4 [FCFE61BF] [055B8907] CRC32
14 92,8 [B8F74143] [9C564357] CRC32
15 92,0 [CE4751CC] [D15B9504] CRC32
16 84,6 [8B2CF676] [258696D1] CRC32
17 81,0 [AAB63199] [47F5669F] CRC32
18 83,6 [85A14843] [E739D8E5] CRC32
19 82,9 [A51F57CD] [C5FEA59B] CRC32
20 94,4 [B3DE5BAC] [2FC5C0B2] CRC32

Willie Nelson - Revolutions Of Time: The Journey 1975-1993 (1995) [3CD Box Set]

Tracklist CD2 - Sojourns:

01. Summertime with Leon Russell (02:28)
02. Faded Love with Ray Price (03:50)
03. Night Life with Ray Price (04:05)
04. Pancho And Lefty with Merle Haggard (04:47)
05. Old Friends with Roger Miller & Ray Price (03:07)
06. In The Jailhouse Now with Webb Pierce (02:08)
07. Everything's Beautiful (In It's Own Way) with Dolly Parton (03:15)
08. Take It To The Limit with Waylon Jennings (03:50)
09. To All The Girls I've Loved Before with Julio Iglesias (03:33)
10. How Do You Feel About Foolin' Around with Kris Kristofferson (02:45)
11. Seven Spanish Angels with Ray Charles (03:51)
12. Hello Walls with Faron Young (02:31)
13. I'm Movin' On (02:45)
14. Highwayman with Waylon Jennings, Kris Kristofferson & Johnny Cash (03:03)
15. Slow Movin' Outlaw with Lacy J. Dalton (03:34)
16. Are There Any More Real Cowboys with Neil Young (03:02)
17. They All Went To Mexico with Carlos Santana (04:46)
18. Half A Man with George Jones (03:04)
19. Texas On A Saturday Night with Mel Tillis (02:40)
20. Heartland with Bob Dylan (04:30)

Converted to Image (CUETools 2.1.4)

Exact Audio Copy V0.99 prebeta 4 from 23. January 2008

EAC extraction logfile from 21. September 2009, 20:38

Willie Nelson / Revolutions Of Time CD2

Used drive : HL-DT-STDVDRAM GE20LU10 Adapter: 5 ID: 0

Read mode : Secure
Utilize accurate stream : Yes
Defeat audio cache : Yes
Make use of C2 pointers : No

Read offset correction : 667
Overread into Lead-In and Lead-Out : No
Fill up missing offset samples with silence : Yes
Delete leading and trailing silent blocks : No
Null samples used in CRC calculations : Yes
Used interface : Native Win32 interface for Win NT & 2000
Gap handling : Appended to previous track

Used output format : User Defined Encoder
Selected bitrate : 1024 kBit/s
Quality : High
Add ID3 tag : No
Command line compressor : C:\Program Files\FLAC\flac.exe
Additional command line options : -8 -V -T "ARTIST=%a" -T "TITLE=%t" -T "ALBUM=%g" -T "DATE=%y" -T "TRACKNUMBER=%n" -T "TOTALTRACKS=%x" -T "GENRE=%m" -T "ALBUMARTIST=%v" -T "ALBUM ARTIST=%v" -T "COMMENT=EAC V0.99 prebeta 4, Secure Mode, Test & Copy, Accurat


TOC of the extracted CD

Track | Start | Length | Start sector | End sector
––––––––––––––––––––––––––––-
1 | 0:00.00 | 2:28.22 | 0 | 11121
2 | 2:28.22 | 3:50.25 | 11122 | 28396
3 | 6:18.47 | 4:05.20 | 28397 | 46791
4 | 10:23.67 | 4:47.73 | 46792 | 68389
5 | 15:11.65 | 3:07.72 | 68390 | 82486
6 | 18:19.62 | 2:08.60 | 82487 | 92146
7 | 20:28.47 | 3:15.65 | 92147 | 106836
8 | 23:44.37 | 3:50.08 | 106837 | 124094
9 | 27:34.45 | 3:33.15 | 124095 | 140084
10 | 31:07.60 | 2:45.40 | 140085 | 152499
11 | 33:53.25 | 3:51.12 | 152500 | 169836
12 | 37:44.37 | 2:31.68 | 169837 | 181229
13 | 40:16.30 | 2:45.22 | 181230 | 193626
14 | 43:01.52 | 3:03.18 | 193627 | 207369
15 | 46:04.70 | 3:34.07 | 207370 | 223426
16 | 49:39.02 | 3:02.65 | 223427 | 237141
17 | 52:41.67 | 4:46.50 | 237142 | 258641
18 | 57:28.42 | 3:04.70 | 258642 | 272511
19 | 60:33.37 | 2:40.55 | 272512 | 284566
20 | 63:14.17 | 4:30.40 | 284567 | 304856


Track 1

Filename J:\Willie Nelson - Revolutions Of Time….The Journey 1975-1993 (1995) [FLAC]\CD 2\01 - Summertime (with Leon Russel).wav

Pre-gap length 0:00:02.00

Peak level 91.9 %
Track quality 100.0 %
Test CRC 2F3AE79D
Copy CRC 2F3AE79D
Accurately ripped (confidence 9) [E686107F]
Copy OK

Track 2

Filename J:\Willie Nelson - Revolutions Of Time….The Journey 1975-1993 (1995) [FLAC]\CD 2\02 - Faded Love (with Ray Price).wav

Pre-gap length 0:00:02.39

Peak level 76.8 %
Track quality 100.0 %
Test CRC E299996A
Copy CRC E299996A
Accurately ripped (confidence 8) [184147E5]
Copy OK

Track 3

Filename J:\Willie Nelson - Revolutions Of Time….The Journey 1975-1993 (1995) [FLAC]\CD 2\03 - Night Life (with Ray Price).wav

Pre-gap length 0:00:02.21

Peak level 85.1 %
Track quality 100.0 %
Test CRC 50547E4C
Copy CRC 50547E4C
Accurately ripped (confidence 9) [1FFABB29]
Copy OK

Track 4

Filename J:\Willie Nelson - Revolutions Of Time….The Journey 1975-1993 (1995) [FLAC]\CD 2\04 - Pancho And Lefty (with Merle Haggard).wav

Pre-gap length 0:00:02.17

Peak level 66.8 %
Track quality 100.0 %
Test CRC 54503FE3
Copy CRC 54503FE3
Accurately ripped (confidence 9) [E1E52809]
Copy OK

Track 5

Filename J:\Willie Nelson - Revolutions Of Time….The Journey 1975-1993 (1995) [FLAC]\CD 2\05 - Old Friends (with Roger Miller & Ray Price).wav

Pre-gap length 0:00:02.16

Peak level 87.5 %
Track quality 99.9 %
Test CRC 1008DC9F
Copy CRC 1008DC9F
Accurately ripped (confidence 9) [0A101713]
Copy OK

Track 6

Filename J:\Willie Nelson - Revolutions Of Time….The Journey 1975-1993 (1995) [FLAC]\CD 2\06 - In The Jailhouse Now (with Webb Pierce).wav

Pre-gap length 0:00:02.35

Peak level 80.4 %
Track quality 100.0 %
Test CRC 1FB2C250
Copy CRC 1FB2C250
Accurately ripped (confidence 9) [BF02CF3B]
Copy OK

Track 7

Filename J:\Willie Nelson - Revolutions Of Time….The Journey 1975-1993 (1995) [FLAC]\CD 2\07 - Everything's Beautiful (In It's Own Way) (with Dolly Parton).wav

Pre-gap length 0:00:02.30

Peak level 65.4 %
Track quality 100.0 %
Test CRC F79C6953
Copy CRC F79C6953
Accurately ripped (confidence 9) [B7ED49DB]
Copy OK

Track 8

Filename J:\Willie Nelson - Revolutions Of Time….The Journey 1975-1993 (1995) [FLAC]\CD 2\08 - Take It To The Limit (with Waylon Jennings).wav

Pre-gap length 0:00:02.44

Peak level 69.5 %
Track quality 99.9 %
Test CRC 0A7AA454
Copy CRC 0A7AA454
Accurately ripped (confidence 9) [EBAC9B4C]
Copy OK

Track 9

Filename J:\Willie Nelson - Revolutions Of Time….The Journey 1975-1993 (1995) [FLAC]\CD 2\09 - To All The Girls I've Loved Before (with Julio Iglesias).wav

Pre-gap length 0:00:02.23

Peak level 68.7 %
Track quality 99.9 %
Test CRC 7E311145
Copy CRC 7E311145
Accurately ripped (confidence 9) [2577D0AE]
Copy OK

Track 10

Filename J:\Willie Nelson - Revolutions Of Time….The Journey 1975-1993 (1995) [FLAC]\CD 2\10 - How Do You Feel About Foolin' Around (with Kris Kristofferson).wav

Pre-gap length 0:00:02.12

Peak level 72.3 %
Track quality 100.0 %
Test CRC EB791A29
Copy CRC EB791A29
Accurately ripped (confidence 9) [3A5B3A08]
Copy OK

Track 11

Filename J:\Willie Nelson - Revolutions Of Time….The Journey 1975-1993 (1995) [FLAC]\CD 2\11 - Seven Spanish Angels (with Ray Charles).wav

Pre-gap length 0:00:02.05

Peak level 86.4 %
Track quality 100.0 %
Test CRC D2449ED3
Copy CRC D2449ED3
Accurately ripped (confidence 9) [8CDC5947]
Copy OK

Track 12

Filename J:\Willie Nelson - Revolutions Of Time….The Journey 1975-1993 (1995) [FLAC]\CD 2\12 - Hello Walls (with Faron Young).wav

Pre-gap length 0:00:02.44

Peak level 96.7 %
Track quality 100.0 %
Test CRC 923D6930
Copy CRC 923D6930
Accurately ripped (confidence 9) [2284CCDF]
Copy OK

Track 13

Filename J:\Willie Nelson - Revolutions Of Time….The Journey 1975-1993 (1995) [FLAC]\CD 2\13 - I'm Movin' On (with Hank Snow).wav

Pre-gap length 0:00:02.15

Peak level 100.0 %
Track quality 100.0 %
Test CRC 16FE1F83
Copy CRC 16FE1F83
Accurately ripped (confidence 9) [3A382337]
Copy OK

Track 14

Filename J:\Willie Nelson - Revolutions Of Time….The Journey 1975-1993 (1995) [FLAC]\CD 2\14 - Highwayman (with Johnny Cash, Waylon Jennings & Kris Kristofferson).wav

Pre-gap length 0:00:02.14

Peak level 80.6 %
Track quality 100.0 %
Test CRC 1AD8C9E0
Copy CRC 1AD8C9E0
Accurately ripped (confidence 8) [B976FC7A]
Copy OK

Track 15

Filename J:\Willie Nelson - Revolutions Of Time….The Journey 1975-1993 (1995) [FLAC]\CD 2\15 - Slow Movin' Outlaw (with Lacy J. Dalton).wav

Pre-gap length 0:00:02.15

Peak level 67.9 %
Track quality 100.0 %
Test CRC 51DEBC47
Copy CRC 51DEBC47
Accurately ripped (confidence 9) [9E951094]
Copy OK

Track 16

Filename J:\Willie Nelson - Revolutions Of Time….The Journey 1975-1993 (1995) [FLAC]\CD 2\16 - Are There Anymore Real Cowboys (with Neil Young).wav

Pre-gap length 0:00:02.27

Peak level 81.2 %
Track quality 100.0 %
Test CRC 15066DB2
Copy CRC 15066DB2
Accurately ripped (confidence 9) [87F83990]
Copy OK

Track 17

Filename J:\Willie Nelson - Revolutions Of Time….The Journey 1975-1993 (1995) [FLAC]\CD 2\17 - They All Went To Mexico (with Carlos Santana).wav

Pre-gap length 0:00:02.09

Peak level 93.9 %
Track quality 100.0 %
Test CRC 09194A5D
Copy CRC 09194A5D
Accurately ripped (confidence 9) [3AB69866]
Copy OK

Track 18

Filename J:\Willie Nelson - Revolutions Of Time….The Journey 1975-1993 (1995) [FLAC]\CD 2\18 - Half A Man (with George Jones).wav

Pre-gap length 0:00:02.27

Peak level 99.9 %
Track quality 99.9 %
Test CRC 74312F05
Copy CRC 74312F05
Accurately ripped (confidence 9) [78542773]
Copy OK

Track 19

Filename J:\Willie Nelson - Revolutions Of Time….The Journey 1975-1993 (1995) [FLAC]\CD 2\19 - Texas On A Saturday Night (with Mel Tillis).wav

Pre-gap length 0:00:02.19

Peak level 70.1 %
Track quality 99.9 %
Test CRC 0A21BBF0
Copy CRC 0A21BBF0
Accurately ripped (confidence 9) [5A137BE3]
Copy OK

Track 20

Filename J:\Willie Nelson - Revolutions Of Time….The Journey 1975-1993 (1995) [FLAC]\CD 2\20 - Heartland (with Bob Dylan).wav

Pre-gap length 0:00:02.10

Peak level 60.6 %
Track quality 100.0 %
Test CRC BF80519B
Copy CRC BF80519B
Accurately ripped (confidence 8) [60CF45CB]
Copy OK


All tracks accurately ripped

No errors occurred

End of status report

foobar2000 1.2.9 / Dynamic Range Meter 1.1.1
log date: 2017-07-13 11:58:17

––––––––––––––––––––––––––––––––––––––––
Analyzed: Willie Nelson / Revolutions of Time: The Journey 1975-1993 (CD2) Sojourns
––––––––––––––––––––––––––––––––––––––––

DR Peak RMS Duration Track
––––––––––––––––––––––––––––––––––––––––
DR15 -0.73 dB -18.67 dB 2:28 01-Summertime (with Leon Russel)
DR12 -2.29 dB -17.47 dB 3:50 02-Faded Love (with Ray Price)
DR13 -1.40 dB -18.00 dB 4:05 03-Night Life (with Ray Price)
DR12 -3.49 dB -18.23 dB 4:48 04-Pancho And Lefty (with Merle Haggard)
DR12 -1.16 dB -17.74 dB 3:08 05-Old Friends (with Roger Miller & Ray Price)
DR12 -1.89 dB -15.90 dB 2:09 06-In The Jailhouse Now (with Webb Pierce)
DR12 -3.68 dB -18.69 dB 3:16 07-Everything's Beautiful (In It's Own Way) (with Dolly Parton)
DR11 -3.15 dB -18.44 dB 3:50 08-Take It To The Limit (with Waylon Jennings)
DR12 -3.26 dB -17.66 dB 3:33 09-To All The Girls I've Loved Before (with Julio Iglesias)
DR12 -2.81 dB -16.12 dB 2:46 10-How Do You Feel About Foolin' Around (with Kris Kristofferson)
DR13 -1.26 dB -17.63 dB 3:51 11-Seven Spanish Angels (with Ray Charles)
DR14 -0.29 dB -17.43 dB 2:32 12-Hello Walls (with Faron Young)
DR14 0.00 dB -15.88 dB 2:45 13-I'm Movin' On (with Hank Snow)
DR12 -1.87 dB -16.20 dB 3:03 14-Highwayman (with Johnny Cash, Waylon Jennings & Kris Kristofferson)
DR13 -3.36 dB -18.25 dB 3:34 15-Slow Movin' Outlaw (with Lacy J. Dalton)
DR13 -1.80 dB -16.92 dB 3:03 16-Are There Anymore Real Cowboys (with Neil Young)
DR12 -0.54 dB -15.28 dB 4:47 17-They All Went To Mexico (with Carlos Santana)
DR14 0.00 dB -17.07 dB 3:05 18-Half A Man (with George Jones)
DR10 -3.08 dB -15.08 dB 2:41 19-Texas On A Saturday Night (with Mel Tillis)
DR8 -4.35 dB -14.70 dB 4:31 20-Heartland (with Bob Dylan)
––––––––––––––––––––––––––––––––––––––––

Number of tracks: 20
Official DR value: DR12

Samplerate: 44100 Hz
Channels: 2
Bits per sample: 16
Bitrate: 765 kbps
Codec: FLAC

[CUETools log; Date: 13.07.2017 11:58:05; Version: 2.1.4]
[CTDB TOCID: Ykc7xFNNZvOIZc0g8WefcYXtQqI-] found.
Track | CTDB Status
1 | (23/23) Accurately ripped
2 | (23/23) Accurately ripped
3 | (23/23) Accurately ripped
4 | (23/23) Accurately ripped
5 | (23/23) Accurately ripped
6 | (23/23) Accurately ripped
7 | (22/23) Accurately ripped
8 | (23/23) Accurately ripped
9 | (23/23) Accurately ripped
10 | (23/23) Accurately ripped
11 | (23/23) Accurately ripped
12 | (23/23) Accurately ripped
13 | (23/23) Accurately ripped
14 | (23/23) Accurately ripped
15 | (23/23) Accurately ripped
16 | (23/23) Accurately ripped
17 | (23/23) Accurately ripped
18 | (23/23) Accurately ripped
19 | (22/23) Accurately ripped
20 | (23/23) Accurately ripped
[AccurateRip ID: 00309d8f-02c6ac2b-150fe014] found.
Track [ CRC | V2 ] Status
01 [e686107f|e3470cee] (12+05/41) Accurately ripped
02 [184147e5|92b49288] (11+06/42) Accurately ripped
03 [1ffabb29|496c496e] (12+06/43) Accurately ripped
04 [e1e52809|d7b0aa8b] (12+07/44) Accurately ripped
05 [0a101713|09b78b1c] (12+06/43) Accurately ripped
06 [bf02cf3b|01bdfceb] (12+06/43) Accurately ripped
07 [b7ed49db|1de19c4c] (12+06/43) Accurately ripped
08 [ebac9b4c|501bc812] (12+06/43) Accurately ripped
09 [2577d0ae|425e64be] (12+07/44) Accurately ripped
10 [3a5b3a08|5e660b20] (12+07/44) Accurately ripped
11 [8cdc5947|e9be1045] (12+07/44) Accurately ripped
12 [2284ccdf|90f53be0] (12+06/43) Accurately ripped
13 [3a382337|62193408] (12+06/43) Accurately ripped
14 [b976fc7a|3952e8f3] (11+07/43) Accurately ripped
15 [9e951094|04fad4a4] (12+06/43) Accurately ripped
16 [87f83990|d571a3e6] (12+08/45) Accurately ripped
17 [3ab69866|b23a98b2] (12+08/44) Accurately ripped
18 [78542773|4ba417a1] (12+07/44) Accurately ripped
19 [5a137be3|132bcc78] (12+07/44) Accurately ripped
20 [60cf45cb|4e3bdbb0] (11+07/42) Accurately ripped
Offsetted by -397:
01 [2400aa69] (06/41) Accurately ripped
02 [145689cf] (06/42) Accurately ripped
03 [1e163e2f] (06/43) Accurately ripped
04 [5bbbb1de] (06/44) Accurately ripped
05 [820eedfb] (06/43) Accurately ripped
06 [83662d99] (06/43) Accurately ripped
07 [c48d2f30] (06/43) Accurately ripped
08 [0faaea4c] (06/43) Accurately ripped
09 [cc4a1c5c] (06/44) Accurately ripped
10 [ae3bf4dc] (06/44) Accurately ripped
11 [4f8bc55a] (06/44) Accurately ripped
12 [15e6d7cf] (06/43) Accurately ripped
13 [dbea9554] (06/43) Accurately ripped
14 [fb138e3a] (06/43) Accurately ripped
15 [6319d4a8] (06/43) Accurately ripped
16 [e1b4c69a] (06/45) Accurately ripped
17 [97dd6135] (06/44) Accurately ripped
18 [36ae6116] (06/44) Accurately ripped
19 [e7f801b6] (06/44) Accurately ripped
20 [2961bfab] (00/42) No match (V2 was not tested)
Offsetted by -119:
01 [d330c470] (06/41) Accurately ripped
02 [01cd2243] (07/42) Accurately ripped
03 [e6058e9b] (07/43) Accurately ripped
04 [172e7dd8] (07/44) Accurately ripped
05 [e0a6a24b] (07/43) Accurately ripped
06 [d3301235] (07/43) Accurately ripped
07 [f474ea2a] (07/43) Accurately ripped
08 [e50d784c] (07/43) Accurately ripped
09 [c6626098] (07/44) Accurately ripped
10 [851203c4] (07/44) Accurately ripped
11 [9fe1dbb0] (07/44) Accurately ripped
12 [0e9dacaf] (07/43) Accurately ripped
13 [abd0ee5e] (07/43) Accurately ripped
14 [d8180dba] (07/43) Accurately ripped
15 [c2eb4a10] (07/43) Accurately ripped
16 [d719874e] (07/45) Accurately ripped
17 [139280c3] (06/44) Accurately ripped
18 [6a745b8c] (07/44) Accurately ripped
19 [db04278c] (07/44) Accurately ripped
20 [4bae716b] (00/42) No match (V2 was not tested)

Track Peak [ CRC32 ] [W/O NULL] [ LOG ]
– 100,0 [1771DA89] [6E9BE7FA]
01 91,9 [2F3AE79D] [85DCE687] CRC32
02 76,8 [E299996A] [8F65B903] CRC32
03 85,1 [50547E4C] [64C8BDC7] CRC32
04 66,8 [54503FE3] [30BBC37F] CRC32
05 87,5 [1008DC9F] [71563A0B] CRC32
06 80,4 [1FB2C250] [261EEDC5] CRC32
07 65,4 [F79C6953] [D1C15382] CRC32
08 69,5 [0A7AA454] [FFE1DF1F] CRC32
09 68,7 [7E311145] [15DE094D] CRC32
10 72,3 [EB791A29] [13822A99] CRC32
11 86,4 [D2449ED3] [67DB0099] CRC32
12 96,7 [923D6930] [A401D0B5] CRC32
13 100,0 [16FE1F83] [09D0EFB3] CRC32
14 80,6 [1AD8C9E0] [24337C38] CRC32
15 67,9 [51DEBC47] [5E92B18C] CRC32
16 81,2 [15066DB2] [7A87F943] CRC32
17 93,9 [09194A5D] [477A707D] CRC32
18 99,9 [74312F05] [362CB40E] CRC32
19 70,1 [0A21BBF0] [D34759EB] CRC32
20 60,6 [BF80519B] [A6B49C16] CRC32

Willie Nelson - Revolutions Of Time: The Journey 1975-1993 (1995) [3CD Box Set]

Tracklist CD3 - Exodus:

01. Nobody Slides, My Friend (01:43)
02. Little Old Fashioned Karma (03:20)
03. Harbor Lights (03:48)
04. Without A Song (03:51)
05. Good Time Charlie's Got The Blues (02:55)
06. City Of New Orleans (04:51)
07. Who'll Buy My Memories? (03:33)
08. Write Your Own Songs (03:18)
09. Forgiving You Was Easy (02:48)
10. Me And Paul (02:51)
11. When I Dream (03:31)
12. My Own Peculiar Way (02:54)
13. Living In The Promiseland (03:21)
14. There Is No Easy Way (But There Is A Way) (02:33)
15. Ole Buttermilk Sky (02:51)
16. A Horse Called Music (04:25)
17. Nothing I Can Do About It Now (03:18)
18. Is The Better Part Over (03:32)
19. Ain't Necessarily So (03:05)
20. Still Is Still Moving To Me (03:29)

Converted to Image (CUETools 2.1.4)

Exact Audio Copy V0.99 prebeta 4 from 23. January 2008

EAC extraction logfile from 21. September 2009, 20:00

Willie Nelson / Revolutions of time…the journey 1975-1993 - CD - Exodus

Used drive : TSSTcorpCD/DVDW TS-H552L Adapter: 4 ID: 0

Read mode : Secure
Utilize accurate stream : Yes
Defeat audio cache : Yes
Make use of C2 pointers : No

Read offset correction : 6
Overread into Lead-In and Lead-Out : No
Fill up missing offset samples with silence : Yes
Delete leading and trailing silent blocks : No
Null samples used in CRC calculations : Yes
Used interface : Native Win32 interface for Win NT & 2000
Gap handling : Appended to previous track

Used output format : User Defined Encoder
Selected bitrate : 1024 kBit/s
Quality : High
Add ID3 tag : No
Command line compressor : C:\Program Files\FLAC\flac.exe
Additional command line options : -8 -V -T "ARTIST=%a" -T "TITLE=%t" -T "ALBUM=%g" -T "DATE=%y" -T "TRACKNUMBER=%n" -T "TOTALTRACKS=%x" -T "GENRE=%m" -T "ALBUMARTIST=%v" -T "ALBUM ARTIST=%v" -T "COMMENT=EAC V0.99 prebeta 4, Secure Mode, Test & Copy, Accurat


TOC of the extracted CD

Track | Start | Length | Start sector | End sector
––––––––––––––––––––––––––––-
1 | 0:00.00 | 1:43.67 | 0 | 7791
2 | 1:43.67 | 3:20.28 | 7792 | 22819
3 | 5:04.20 | 3:48.50 | 22820 | 39969
4 | 8:52.70 | 3:51.17 | 39970 | 57311
5 | 12:44.12 | 2:55.05 | 57312 | 70441
6 | 15:39.17 | 4:51.45 | 70442 | 92311
7 | 20:30.62 | 3:33.25 | 92312 | 108311
8 | 24:04.12 | 3:18.15 | 108312 | 123176
9 | 27:22.27 | 2:48.48 | 123177 | 135824
10 | 30:11.00 | 2:51.60 | 135825 | 148709
11 | 33:02.60 | 3:31.37 | 148710 | 164571
12 | 36:34.22 | 2:54.53 | 164572 | 177674
13 | 39:29.00 | 3:21.42 | 177675 | 192791
14 | 42:50.42 | 2:33.55 | 192792 | 204321
15 | 45:24.22 | 2:51.03 | 204322 | 217149
16 | 48:15.25 | 4:25.52 | 217150 | 237076
17 | 52:41.02 | 3:18.43 | 237077 | 251969
18 | 55:59.45 | 3:32.10 | 251970 | 267879
19 | 59:31.55 | 3:05.70 | 267880 | 281824
20 | 62:37.50 | 3:29.62 | 281825 | 297561


Track 1

Filename J:\Willie Nelson - Revolutions Of Time….The Journey 1975-1993 (1995) [FLAC]\CD 2\01 - Nobody Slides, My Friend.wav

Pre-gap length 0:00:02.00

Peak level 67.0 %
Track quality 100.0 %
Test CRC 127CBDD3
Copy CRC 127CBDD3
Accurately ripped (confidence 9) [6348FB6A]
Copy OK

Track 2

Filename J:\Willie Nelson - Revolutions Of Time….The Journey 1975-1993 (1995) [FLAC]\CD 2\02 - Little Old Fashioned Karma.wav

Pre-gap length 0:00:02.00

Peak level 71.2 %
Track quality 100.0 %
Test CRC 64D045AD
Copy CRC 64D045AD
Accurately ripped (confidence 9) [67E8FBC8]
Copy OK

Track 3

Filename J:\Willie Nelson - Revolutions Of Time….The Journey 1975-1993 (1995) [FLAC]\CD 2\03 - Harbor Lights.wav

Pre-gap length 0:00:01.68

Peak level 76.7 %
Track quality 100.0 %
Test CRC 083E8466
Copy CRC 083E8466
Accurately ripped (confidence 9) [A9D87C17]
Copy OK

Track 4

Filename J:\Willie Nelson - Revolutions Of Time….The Journey 1975-1993 (1995) [FLAC]\CD 2\04 - Without A Song.wav

Pre-gap length 0:00:01.63

Peak level 74.0 %
Track quality 100.0 %
Test CRC B1E107BD
Copy CRC B1E107BD
Accurately ripped (confidence 9) [BCE068F2]
Copy OK

Track 5

Filename J:\Willie Nelson - Revolutions Of Time….The Journey 1975-1993 (1995) [FLAC]\CD 2\05 - Good Time Charlie's Got The Blues.wav

Pre-gap length 0:00:01.67

Peak level 76.1 %
Track quality 100.0 %
Test CRC E33343D8
Copy CRC E33343D8
Accurately ripped (confidence 9) [1A1A821E]
Copy OK

Track 6

Filename J:\Willie Nelson - Revolutions Of Time….The Journey 1975-1993 (1995) [FLAC]\CD 2\06 - City Of New Orleans.wav

Pre-gap length 0:00:02.02

Peak level 66.1 %
Track quality 100.0 %
Test CRC 0BB9CE4F
Copy CRC 0BB9CE4F
Accurately ripped (confidence 9) [2F17A3E0]
Copy OK

Track 7

Filename J:\Willie Nelson - Revolutions Of Time….The Journey 1975-1993 (1995) [FLAC]\CD 2\07 - Who'll Buy My Memories.wav

Pre-gap length 0:00:02.22

Peak level 56.0 %
Track quality 100.0 %
Test CRC 43D72DB9
Copy CRC 43D72DB9
Accurately ripped (confidence 9) [55014EDA]
Copy OK

Track 8

Filename J:\Willie Nelson - Revolutions Of Time….The Journey 1975-1993 (1995) [FLAC]\CD 2\08 - Write Your Own Songs.wav

Pre-gap length 0:00:02.00

Peak level 69.0 %
Track quality 100.0 %
Test CRC 5666E694
Copy CRC 5666E694
Accurately ripped (confidence 9) [DAD9E925]
Copy OK

Track 9

Filename J:\Willie Nelson - Revolutions Of Time….The Journey 1975-1993 (1995) [FLAC]\CD 2\09 - Forgiving You Was Easy.wav

Pre-gap length 0:00:01.45

Peak level 58.9 %
Track quality 100.0 %
Test CRC 774E017C
Copy CRC 774E017C
Accurately ripped (confidence 9) [2961F36F]
Copy OK

Track 10

Filename J:\Willie Nelson - Revolutions Of Time….The Journey 1975-1993 (1995) [FLAC]\CD 2\10 - Me And Paul.wav

Pre-gap length 0:00:01.55

Peak level 74.2 %
Track quality 100.0 %
Test CRC 0710187A
Copy CRC 0710187A
Accurately ripped (confidence 9) [7C8CC5DF]
Copy OK

Track 11

Filename J:\Willie Nelson - Revolutions Of Time….The Journey 1975-1993 (1995) [FLAC]\CD 2\11 - When I Dream.wav

Pre-gap length 0:00:02.03

Peak level 91.9 %
Track quality 99.9 %
Test CRC 38C615D5
Copy CRC 38C615D5
Accurately ripped (confidence 9) [F02FFAB5]
Copy OK

Track 12

Filename J:\Willie Nelson - Revolutions Of Time….The Journey 1975-1993 (1995) [FLAC]\CD 2\12 - My Own Peculiar Way.wav

Pre-gap length 0:00:02.25

Peak level 99.4 %
Track quality 100.0 %
Test CRC 91A4B662
Copy CRC 91A4B662
Accurately ripped (confidence 9) [1AED4296]
Copy OK

Track 13

Filename J:\Willie Nelson - Revolutions Of Time….The Journey 1975-1993 (1995) [FLAC]\CD 2\13 - Living In The Promiseland.wav

Pre-gap length 0:00:01.63

Peak level 80.9 %
Track quality 99.9 %
Test CRC EC96EF70
Copy CRC EC96EF70
Accurately ripped (confidence 9) [298543D5]
Copy OK

Track 14

Filename J:\Willie Nelson - Revolutions Of Time….The Journey 1975-1993 (1995) [FLAC]\CD 2\14 - There Is No Easy Way (But There Is A Way).wav

Pre-gap length 0:00:01.67

Peak level 93.3 %
Track quality 99.9 %
Test CRC 791FBA30
Copy CRC 791FBA30
Accurately ripped (confidence 9) [F5A73871]
Copy OK

Track 15

Filename J:\Willie Nelson - Revolutions Of Time….The Journey 1975-1993 (1995) [FLAC]\CD 2\15 - Ole Buttermilk Sky.wav

Pre-gap length 0:00:02.05

Peak level 84.3 %
Track quality 100.0 %
Test CRC 51656D5B
Copy CRC 51656D5B
Accurately ripped (confidence 9) [90039E40]
Copy OK

Track 16

Filename J:\Willie Nelson - Revolutions Of Time….The Journey 1975-1993 (1995) [FLAC]\CD 2\16 - A Horse Called Music.wav

Pre-gap length 0:00:01.48

Peak level 86.1 %
Track quality 100.0 %
Test CRC 0BEA149A
Copy CRC 0BEA149A
Accurately ripped (confidence 9) [72B9AC89]
Copy OK

Track 17

Filename J:\Willie Nelson - Revolutions Of Time….The Journey 1975-1993 (1995) [FLAC]\CD 2\17 - Nothing I Can Do About It Now.wav

Pre-gap length 0:00:02.15

Peak level 74.8 %
Track quality 99.9 %
Test CRC 8AEB7D54
Copy CRC 8AEB7D54
Accurately ripped (confidence 9) [77A43FB7]
Copy OK

Track 18

Filename J:\Willie Nelson - Revolutions Of Time….The Journey 1975-1993 (1995) [FLAC]\CD 2\18 - Is The Better Part Over.wav

Pre-gap length 0:00:02.18

Peak level 82.5 %
Track quality 100.0 %
Test CRC 2CDA7934
Copy CRC 2CDA7934
Accurately ripped (confidence 9) [0E7FD253]
Copy OK

Track 19

Filename J:\Willie Nelson - Revolutions Of Time….The Journey 1975-1993 (1995) [FLAC]\CD 2\19 - Ain't Necessarily So.wav

Pre-gap length 0:00:01.55

Peak level 71.8 %
Track quality 99.9 %
Test CRC B1BD9FCC
Copy CRC B1BD9FCC
Accurately ripped (confidence 9) [3E29D45A]
Copy OK

Track 20

Filename J:\Willie Nelson - Revolutions Of Time….The Journey 1975-1993 (1995) [FLAC]\CD 2\20 - Still Is Still Moving To Me.wav

Pre-gap length 0:00:02.08

Peak level 83.2 %
Track quality 100.0 %
Test CRC 4CC71543
Copy CRC 4CC71543
Accurately ripped (confidence 8) [D9B4A4B1]
Copy OK


All tracks accurately ripped

No errors occurred

End of status report

foobar2000 1.2.9 / Dynamic Range Meter 1.1.1
log date: 2017-07-13 11:58:34

––––––––––––––––––––––––––––––––––––––––
Analyzed: Willie Nelson / Revolutions of time…the journey 1975-1993 (CD3) - Exodus
––––––––––––––––––––––––––––––––––––––––

DR Peak RMS Duration Track
––––––––––––––––––––––––––––––––––––––––
DR12 -3.47 dB -17.10 dB 1:44 01-Nobody Slides, My Friend
DR9 -2.94 dB -14.80 dB 3:20 02-Little Old Fashioned Karma
DR11 -2.30 dB -14.93 dB 3:49 03-Harbor Lights
DR11 -2.61 dB -15.88 dB 3:51 04-Without A Song
DR11 -2.36 dB -15.53 dB 2:55 05-Good Time Charlie's Got The Blues
DR9 -3.59 dB -14.26 dB 4:52 06-City Of New Orleans
DR8 -5.03 dB -15.30 dB 3:33 07-Who'll Buy My Memories
DR10 -3.22 dB -14.47 dB 3:18 08-Write Your Own Songs
DR9 -4.60 dB -15.18 dB 2:49 09-Forgiving You Was Easy
DR13 -2.59 dB -16.79 dB 2:52 10-Me And Paul
DR13 -0.72 dB -17.62 dB 3:31 11-When I Dream
DR12 -0.05 dB -17.07 dB 2:55 12-My Own Peculiar Way
DR13 -1.83 dB -17.69 dB 3:22 13-Living In The Promiseland
DR14 -0.60 dB -17.09 dB 2:34 14-There Is No Easy Way (But There Is A Way)
DR13 -1.48 dB -16.12 dB 2:51 15-Ole Buttermilk Sky
DR13 -1.30 dB -17.75 dB 4:26 16-A Horse Called Music
DR11 -2.52 dB -15.47 dB 3:19 17-Nothing I Can Do About It Now
DR13 -1.67 dB -18.28 dB 3:32 18-Is The Better Part Over
DR9 -2.87 dB -13.45 dB 3:06 19-Ain't Necessarily So
DR11 -1.59 dB -13.93 dB 3:30 20-Still Is Still Moving To Me
––––––––––––––––––––––––––––––––––––––––

Number of tracks: 20
Official DR value: DR11

Samplerate: 44100 Hz
Channels: 2
Bits per sample: 16
Bitrate: 756 kbps
Codec: FLAC

[CUETools log; Date: 13.07.2017 11:58:23; Version: 2.1.4]
[CTDB TOCID: bbE64kOB.5dKXZRcttGPmWlyZQY-] found.
Track | CTDB Status
1 | (30/30) Accurately ripped
2 | (30/30) Accurately ripped
3 | (30/30) Accurately ripped
4 | (30/30) Accurately ripped
5 | (30/30) Accurately ripped
6 | (30/30) Accurately ripped
7 | (30/30) Accurately ripped
8 | (30/30) Accurately ripped
9 | (30/30) Accurately ripped
10 | (30/30) Accurately ripped
11 | (30/30) Accurately ripped
12 | (30/30) Accurately ripped
13 | (30/30) Accurately ripped
14 | (30/30) Accurately ripped
15 | (30/30) Accurately ripped
16 | (30/30) Accurately ripped
17 | (30/30) Accurately ripped
18 | (30/30) Accurately ripped
19 | (29/30) Accurately ripped
20 | (30/30) Accurately ripped
[AccurateRip ID: 002f4b69-02b84ada-260f7f14] found.
Track [ CRC | V2 ] Status
01 [6348fb6a|d9214766] (14+09/44) Accurately ripped
02 [67e8fbc8|58c609f5] (14+09/44) Accurately ripped
03 [a9d87c17|1cda6f07] (15+09/45) Accurately ripped
04 [bce068f2|cae6af81] (15+09/45) Accurately ripped
05 [1a1a821e|9721f6e8] (14+08/43) Accurately ripped
06 [2f17a3e0|90217bc9] (15+09/45) Accurately ripped
07 [55014eda|35d3a7db] (15+09/45) Accurately ripped
08 [dad9e925|4715e86d] (15+09/45) Accurately ripped
09 [2961f36f|bb770fc9] (15+09/45) Accurately ripped
10 [7c8cc5df|2fbbb997] (15+09/45) Accurately ripped
11 [f02ffab5|ec0351e7] (15+08/44) Accurately ripped
12 [1aed4296|0b237890] (15+08/44) Accurately ripped
13 [298543d5|de09b438] (15+09/45) Accurately ripped
14 [f5a73871|eb3a2c4f] (15+08/44) Accurately ripped
15 [90039e40|99277348] (15+08/44) Accurately ripped
16 [72b9ac89|deeec837] (15+09/44) Accurately ripped
17 [77a43fb7|fd4d4ffb] (15+09/44) Accurately ripped
18 [0e7fd253|0d4ed1ce] (15+09/45) Accurately ripped
19 [3e29d45a|1512400a] (15+08/44) Accurately ripped
20 [d9b4a4b1|9d67125b] (14+09/44) Accurately ripped
Offsetted by 2277:
01 [a6d8d5ff] (02/44) Accurately ripped
02 [de0e8a18] (02/44) Accurately ripped
03 [1a5a7c17] (02/45) Accurately ripped
04 [63a53d49] (02/45) Accurately ripped
05 [b1f751c3] (02/43) Accurately ripped
06 [124c697f] (02/45) Accurately ripped
07 [e13ffecd] (02/45) Accurately ripped
08 [70c3cf97] (02/45) Accurately ripped
09 [e7bcb029] (02/45) Accurately ripped
10 [972067ea] (02/45) Accurately ripped
11 [db50265e] (02/44) Accurately ripped
12 [085fb828] (02/44) Accurately ripped
13 [fd27dcfb] (02/45) Accurately ripped
14 [3ef1c30d] (02/44) Accurately ripped
15 [ccb57a7e] (02/44) Accurately ripped
16 [50c9ac89] (02/44) Accurately ripped
17 [f39d3fb7] (02/44) Accurately ripped
18 [9a0fd253] (02/45) Accurately ripped
19 [cebbd45a] (02/44) Accurately ripped
20 [94b7f8a0] (02/44) Accurately ripped
Offsetted by 2658:
01 [fbae1fac] (03/44) Accurately ripped
02 [d2cba1e8] (03/44) Accurately ripped
03 [704c7c17] (03/45) Accurately ripped
04 [e4660c28] (03/45) Accurately ripped
05 [ee1df400] (03/43) Accurately ripped
06 [0e27b566] (03/45) Accurately ripped
07 [36c6f168] (03/45) Accurately ripped
08 [81c11ff9] (03/45) Accurately ripped
09 [da0dfa93] (03/45) Accurately ripped
10 [12a2addd] (03/45) Accurately ripped
11 [5d0c577f] (03/44) Accurately ripped
12 [6308f6aa] (03/44) Accurately ripped
13 [70812171] (03/45) Accurately ripped
14 [fa425dc9] (03/44) Accurately ripped
15 [ddf29b4c] (03/44) Accurately ripped
16 [0a59ac89] (03/44) Accurately ripped
17 [6e8e3fb7] (03/44) Accurately ripped
18 [b51fd253] (03/45) Accurately ripped
19 [903dd45a] (03/44) Accurately ripped
20 [bc715c57] (03/44) Accurately ripped
Offsetted by -2032:
01 [9ed7727a] (00/44) No match (V2 was not tested)
02 [a3f87cc8] (00/44) No match (V2 was not tested)
03 [df787c17] (00/45) No match (V2 was not tested)
04 [b8dc19a2] (00/45) No match (V2 was not tested)
05 [d94c762e] (00/43) No match (V2 was not tested)
06 [9a860f10] (00/45) No match (V2 was not tested)
07 [e231964a] (00/45) No match (V2 was not tested)
08 [803d91c5] (00/45) No match (V2 was not tested)
09 [c7b0668f] (00/45) No match (V2 was not tested)
10 [3f2b50cf] (00/45) No match (V2 was not tested)
11 [3c444a05] (00/44) No match (V2 was not tested)
12 [8cbbf536] (00/44) No match (V2 was not tested)
13 [c253d6b5] (00/45) No match (V2 was not tested)
14 [0ea3ff31] (00/44) No match (V2 was not tested)
15 [896844a0] (00/44) No match (V2 was not tested)
16 [3fb9ac89] (00/44) No match (V2 was not tested)
17 [e7f43fb7] (00/44) No match (V2 was not tested)
18 [d37fd253] (00/45) No match (V2 was not tested)
19 [e0c9d45a] (00/44) No match (V2 was not tested)
20 [b08290e1] (00/44) No match (V2 was not tested)
Offsetted by -1819:
01 [18d9c5ff] (00/44) No match
02 [ce0d8a18] (00/44) No match
03 [7a5a7c17] (00/45) No match
04 [639c8d49] (00/45) No match
05 [81fb41c3] (00/43) No match
06 [a249397f] (00/45) No match
07 [b1408ecd] (00/45) No match
08 [10cb2f97] (00/45) No match
09 [97b99029] (00/45) No match
10 [f71d77ea] (00/45) No match
11 [cb58d65e] (00/44) No match
12 [385d1828] (00/44) No match
13 [2d24fcfb] (00/45) No match
14 [2ecb030d] (00/44) No match
15 [7cdf1a7e] (00/44) No match
16 [50c9ac89] (02/44) Accurately ripped
17 [a39d3fb7] (00/44) No match
18 [9a0fd253] (02/45) Accurately ripped
19 [2ebbd45a] (00/44) No match
20 [c4b3c8a0] (00/44) No match
Offsetted by -1438:
01 [6daf0fac] (00/44) No match
02 [c2caa1e8] (00/44) No match
03 [d04c7c17] (00/45) No match
04 [e45d5c28] (00/45) No match
05 [be21e400] (00/43) No match
06 [9e248566] (00/45) No match
07 [06c78168] (00/45) No match
08 [21c87ff9] (00/45) No match
09 [8a0ada93] (00/45) No match
10 [729fbddd] (00/45) No match
11 [4d15077f] (00/44) No match
12 [930656aa] (00/44) No match
13 [a07e4171] (00/45) No match
14 [ea1b9dc9] (00/44) No match
15 [8e1c3b4c] (00/44) No match
16 [0a59ac89] (03/44) Accurately ripped
17 [1e8e3fb7] (00/44) No match
18 [b51fd253] (03/45) Accurately ripped
19 [f03dd45a] (00/44) No match
20 [ec6d2c57] (00/44) No match
Offsetted by 1624:
01 [a6959c42] (00/44) No match (V2 was not tested)
02 [64416148] (00/44) No match (V2 was not tested)
03 [64c87c17] (00/45) No match (V2 was not tested)
04 [26e3daba] (00/45) No match (V2 was not tested)
05 [aba0f276] (00/43) No match (V2 was not tested)
06 [bc00e768] (00/45) No match (V2 was not tested)
07 [138915c2] (00/45) No match (V2 was not tested)
08 [b466fc95] (00/45) No match (V2 was not tested)
09 [ca1b309f] (00/45) No match (V2 was not tested)
10 [defdf007] (00/45) No match (V2 was not tested)
11 [c48488ed] (00/44) No match (V2 was not tested)
12 [b6e64d06] (00/44) No match (V2 was not tested)
13 [7bfe67a5] (00/45) No match (V2 was not tested)
14 [d18e9591] (00/44) No match (V2 was not tested)
15 [052b1d50] (00/44) No match (V2 was not tested)
16 [7a39ac89] (00/44) No match (V2 was not tested)
17 [5b5c3fb7] (00/44) No match (V2 was not tested)
18 [e9ffd253] (00/45) No match (V2 was not tested)
19 [f099d45a] (00/44) No match (V2 was not tested)
20 [412e4db9] (00/44) No match (V2 was not tested)
Offsetted by 1864:
01 [4ce78e32] (00/44) No match (V2 was not tested)
02 [61317048] (00/44) No match (V2 was not tested)
03 [b9287c17] (00/45) No match (V2 was not tested)
04 [eae45d0a] (00/45) No match (V2 was not tested)
05 [c770b766] (00/43) No match (V2 was not tested)
06 [cf911738] (00/45) No match (V2 was not tested)
07 [41590d52] (00/45) No match (V2 was not tested)
08 [b5068df5] (00/45) No match (V2 was not tested)
09 [68cb5f7f] (00/45) No match (V2 was not tested)
10 [f65e1c17] (00/45) No match (V2 was not tested)
11 [b174069d] (00/44) No match (V2 was not tested)
12 [fa167466] (00/44) No match (V2 was not tested)
13 [882e92c5] (00/45) No match (V2 was not tested)
14 [4180dad1] (00/44) No match (V2 was not tested)
15 [78d8acf0] (00/44) No match (V2 was not tested)
16 [fd39ac89] (00/44) No match (V2 was not tested)
17 [480c3fb7] (00/44) No match (V2 was not tested)
18 [f4ffd253] (00/45) No match (V2 was not tested)
19 [27f9d45a] (00/44) No match (V2 was not tested)
20 [ef5e8c89] (00/44) No match (V2 was not tested)
Offsetted by 2395:
01 [09b00f15] (00/44) No match (V2 was not tested)
02 [94049178] (00/44) No match (V2 was not tested)
03 [a3d67c17] (00/45) No match (V2 was not tested)
04 [86257d5b] (00/45) No match (V2 was not tested)
05 [f4f934b9] (00/43) No match (V2 was not tested)
06 [b7a68101] (00/45) No match (V2 was not tested)
07 [3381faa7] (00/45) No match (V2 was not tested)
08 [a6679933] (00/45) No match (V2 was not tested)
09 [9e4ac735] (00/45) No match (V2 was not tested)
10 [a07c7d94] (00/45) No match (V2 was not tested)
11 [e745e64c] (00/44) No match (V2 was not tested)
12 [9ebdcb84] (00/44) No match (V2 was not tested)
13 [4325f22f] (00/45) No match (V2 was not tested)
14 [62c8e0d5] (00/44) No match (V2 was not tested)
15 [52624782] (00/44) No match (V2 was not tested)
16 [68a9ac89] (00/44) No match (V2 was not tested)
17 [b6eb3fb7] (00/44) No match (V2 was not tested)
18 [36efd253] (00/45) No match (V2 was not tested)
19 [6c17d45a] (00/44) No match (V2 was not tested)
20 [c3f61782] (00/44) No match (V2 was not tested)

Track Peak [ CRC32 ] [W/O NULL] [ LOG ]
– 99,4 [77037B69] [C7F751A8]
01 67,0 [127CBDD3] [12C7493A] CRC32
02 71,2 [64D045AD] [3C295490] CRC32
03 76,7 [083E8466] [F816DDE2] CRC32
04 74,0 [B1E107BD] [39C8C217] CRC32
05 76,1 [E33343D8] [22792491] CRC32
06 66,1 [0BB9CE4F] [20D5FB0D] CRC32
07 56,0 [43D72DB9] [68CF7CE6] CRC32
08 69,0 [5666E694] [6FB5853C] CRC32
09 58,9 [774E017C] [BEAA4B18] CRC32
10 74,2 [0710187A] [7BFF5406] CRC32
11 91,9 [38C615D5] [16AC07DE] CRC32
12 99,4 [91A4B662] [C7E9A793] CRC32
13 80,9 [EC96EF70] [13CB72A4] CRC32
14 93,3 [791FBA30] [D83267D4] CRC32
15 84,3 [51656D5B] [EF7CE096] CRC32
16 86,1 [0BEA149A] [5AE3FDEB] CRC32
17 74,8 [8AEB7D54] [4120FEF3] CRC32
18 82,5 [2CDA7934] [1344055B] CRC32
19 71,8 [B1BD9FCC] [841813A6] CRC32
20 83,2 [4CC71543] [4AFA343B] CRC32

Willie Nelson - Revolutions Of Time: The Journey 1975-1993 (1995) [3CD Box Set]

All thanks go to the original releaser

Box Set in my Blog

Download Willie Nelson - Revolutions Of Time: The Journey 1975-1993 (1995):