Subcategories

Willie Nelson - Ride Me Back Home (2019)

Posted By: popsakov
Willie Nelson - Ride Me Back Home (2019)

Willie Nelson - Ride Me Back Home (2019)
EAC Rip | FLAC (Img) + Cue + Log ~ 362 Mb | MP3 CBR320 ~ 213 Mb
Full Scans | 00:43:26 | RAR 5% Recovery
Country | Legacy / Sony Music #19075935622 | Unofficial Release

Like so many Willie Nelson albums of the 2010s, Ride Me Back Home bears a title that appears to be a vague nod to Nelson's mortality. Unlike, say, God's Problem Child or Last Man Standing, the cloud doesn't appear to hang so heavy on Ride Me Back Home, but maybe that's because the album is amiably unkempt in a way its immediate predecessors were not. Some of that is due to how Nelson and his longtime producer Buddy Cannon don't rely heavily on original material this time around. The pair write four originals, while Nelson collaborates with Sonny Throckmorton on the elegiac title track. Generally, Nelson's originals provide Ride Me Back Home with its liveliest moments: "Come on Time" is a wry shuffle, "One More Song to Write" floats through on a coastal breeze, the jazzy swing of "Seven Year Itch" is delivered with a sly grin, and "Stay Away from Lonely Places" seems inspired by the Sinatra tribute he delivered just prior to this album. Elsewhere, Nelson gets considerable mileage from a couple of Guy Clark songs, wringing out the heartbreak on "My Favorite Picture of You" and providing some understated social commentary with a delicate reading of "Immigrant Eyes." Despite "Immigrant Eyes" and the occasional air of melancholy, Ride Me Back Home isn't a particularly serious album, nor is it necessarily a cohesive one. Just as it enters a hazy after-hours vibe, it takes a sudden left-turn into soft rock with a mellow rendition of Billy Joel's "Just the Way You Are." This isn't the only descent into '70s cheese, either: Nelson brings in his sons Lukas and Micah to sing Mac Davis' "It's Hard to Be Humble." The presence of these Me Decade chestnuts on an otherwise handsome, burnished collection is slightly disarming yet they're also ingratiating, since they help give the record the feel of a dusty old LP, a record that's comprised of low-key gems and amiable throwaways. This retro vibe is appealing and it also helps undercut whatever lingering sense of fatality hangs over the album, since it suggests that Ride Me Back Home isn't a statement, but rather just another enjoyable record in a long line of enjoyable records.

~ Stephen Thomas Erlewine, All Music

***************

Willie Nelson - Ride Me Back Home (2019)

Track List:

01. Ride Me Back Home [0:03:36.17]
02. Come On Time [0:02:55.12]
03. My Favorite Picture Of You [0:03:55.03]
04. Seven Year Itch [0:03:23.08]
05. Immigrant Eyes [0:04:34.47]
06. Stay Away From Lonely Places [0:03:59.21]
07. Just The Way You Are [0:04:35.68]
08. One More Song To Write [0:03:56.01]
09. Nobody's Listening [0:04:51.25]
10. It's Hard To Be Humble (With Lukas Nelson & Micah Nelson) [0:03:47.62]
11. Maybe I Should've Been Listening [0:03:52.00]

Exact Audio Copy V1.3 from 2. September 2016

Отчёт EAC об извлечении, выполненном 14. августа 2019, 12:32

Willie Nelson / Ride Me Back Home

Дисковод: Optiarc DVD RW AD-7240S Adapter: 1 ID: 3

Режим чтения : Достоверность
Использование точного потока : Да
Отключение кэша аудио : Да
Использование указателей C2 : Нет

Коррекция смещения при чтении : 48
Способность читать области Lead-in и Lead-out : Нет
Заполнение пропущенных сэмплов тишиной : Да
Удаление блоков с тишиной в начале и конце : Нет
При вычислениях CRC использовались нулевые сэмплы : Да
Интерфейс : Встроенный Win32-интерфейс для Win NT/2000

Выходной формат : Пользовательский кодировщик
Выбранный битрейт : 768 kBit/s
Качество : Высокий
Добавление ID3-тега : Нет
Утилита сжатия : C:\Program Files (x86)\Exact Audio Copy\FLAC\FLAC.EXE
Дополнительные параметры : -6 -V -T "ARTIST=%artist%" -T "TITLE=%title%" -T "ALBUM=%albumtitle%" -T "DATE=%year%" -T "TRACKNUMBER=%tracknr%" -T "GENRE=%genre%" -T "COMMENT=%comment%" -T "BAND=%albuminterpret%" -T "ALBUMARTIST=%albuminterpret%" -T "COMPOSER=%composer%" %haslyrics%–tag-from-file=LYRICS="%lyricsfile%"%haslyrics% -T "DISCNUMBER=%cdnumber%" -T "TOTALDISCS=%totalcds%" -T "TOTALTRACKS=%numtracks%" %hascover%–picture="%coverfile%"%hascover% %source% -o %dest%


TOC извлечённого CD

Трек | Старт | Длительность | Начальный сектор | Конечный сектор
––––––––––––––––––––––––––––––––––-
1 | 0:00.00 | 3:36.17 | 0 | 16216
2 | 3:36.17 | 2:55.12 | 16217 | 29353
3 | 6:31.29 | 3:55.03 | 29354 | 46981
4 | 10:26.32 | 3:23.08 | 46982 | 62214
5 | 13:49.40 | 4:34.47 | 62215 | 82811
6 | 18:24.12 | 3:59.21 | 82812 | 100757
7 | 22:23.33 | 4:35.68 | 100758 | 121450
8 | 26:59.26 | 3:56.01 | 121451 | 139151
9 | 30:55.27 | 4:51.25 | 139152 | 161001
10 | 35:46.52 | 3:47.62 | 161002 | 178088
11 | 39:34.39 | 3:52.00 | 178089 | 195488


Характеристики диапазона извлечения и сообщения об ошибках

Выбранный диапазон

Имя файла K:\My Uploads-14\Willie Nelson - Ride Me Back Home 2019 43'28''\Willie Nelson - Ride Me Back Home.wav

Пиковый уровень 99.4 %
Скорость извлечения 4.0 X
Качество диапазона 99.9 %
CRC теста 0028450C
CRC копии 0028450C
Копирование… OK

Ошибок не произошло

Конец отчёта

–– CUETools DB Plugin V2.1.6

[CTDB TOCID: oLjyWorlpDSqNtdTcG7VuhH.Gdc-] found
Submit result: oLjyWorlpDSqNtdTcG7VuhH.Gdc- has been confirmed
Track | CTDB Status
1 | (62/62) Accurately ripped
2 | (62/62) Accurately ripped
3 | (62/62) Accurately ripped
4 | (62/62) Accurately ripped
5 | (62/62) Accurately ripped
6 | (62/62) Accurately ripped
7 | (62/62) Accurately ripped
8 | (62/62) Accurately ripped
9 | (62/62) Accurately ripped
10 | (62/62) Accurately ripped
11 | (62/62) Accurately ripped


==== Контрольная сумма отчёта 26D436F287CE2CAAF7552D73E18B2AC7B16CA3CC038A5B440537BAF9132374D8 ====

Willie Nelson - Ride Me Back Home (2019)


All thanks go to BluesHouse

>>> Willie Nelson in my Blog <<<

DOWNLOAD: