Subcategories

VA - A Woman's Heart: Trilogy (2004) 3CD Box Set [Re-Up]

Posted By: Designol
VA - A Woman's Heart: Trilogy (2004) 3CD Box Set [Re-Up]

VA - A Woman's Heart: Trilogy (2004) 3CD Box Set
EAC | FLAC | Image (Cue&Log) ~ 1 Gb | Mp3 (CBR320) ~ 434 Mb | Scans ~ 109 Mb
Label: Dara Records | # TORTV 3CD 1161 | Time: 03:09:44
Genre: Irish Folk, Celtic, Folk Pop, Folk-Rock, Country-Folk

Limited three CD box set that contains all three Woman's Heart albums: A Woman's Heart, A Woman's Heart 2, A Woman's Heart - A Decade On. Listening to Ireland speak from the heart is to hear a woman's voice. A Woman's Heart is a rare collection of Ireland's top female vocalists, including Maura O'Connell, Frances Black, Dolores Keane, Sharon Shannon, Eleanor McEvoy, Sinead O'Connor, Mary Coughlan, and Mary Black… Each artist is famous in her own right and sings one of her signature pieces.

Music has always been key to much of our identity. Although we like to think of ourselves as natural born literary geniuses, the tug of the reel, the jig and the hornpipe has always been hard to resist. And we’ve often chosen songs to tell our stories, share our sorrows, celebrate our victories. In fact, song tales have long navigated a path back and forth across the North Sea, the Atlantic and the Pacific, often returning metamorphosed into shapes virtually unrecognisable, courtesy of their cross-fertilisation by other cultures, other voices.

Curiously though - or perhaps not, given the male dominance of the twin pursuits of (his)tory and politics in this country – women’s role in singing and storytelling has been undervalued and under estimated. Nuala O’Connor’s re-tracing of Irish songlines in the encyclopaedic Bringing It All Back Home refocused the spotlight on the role of singers such as Sara Makem, Rita and Sarah Keane in passing the stories on, investing in them emotionally in a way that the words held their own alongside and within the tune.

The early 90’s was a fertile breeding ground in which to foster and cosset songs and stories. It was a happy collision of serendipity and common sense that led to the recording of A Woman’s Heart. What started out as a simple Dara Records folk compilation evolved into an all-female collection of songs and singers. Mary Black’s desire to include a track from a young, and then largely unknown singer by the name of Eleanor McEvoy not only provided the project with a title track, but helped define the essence of the collection: a gathering of women musicians, representative of the cross currents of the Irish folk and traditional music scene at the time: a virtual snapshot in time, a freeze-frame that distilled the music to its essence.

It was a select congregation: Dolores Keane, Mary Black, Frances Black, Eleanor McEvoy and Maura O’Connell were kept company by the sole instrumentalist in the pack, one Sharon Shannon, accordion-meister beyond compare. It was a heady mix of the political (‘Living In These Troubled Times’, ‘The Island’), the romantic/historical (‘Caledonia’, ‘Sonny’) and the unapologetically love-scarred (‘Wall Of Tears’ and ‘Vanities’), all wrapped up in the delicious exoticism of Shannon’s Portuguese ‘Coridinio’.

A Woman’s Heart 2 burst on to the stage some two years later, in 1994, fired by new arrivals including the two Sinéads, Lohan and O’Connor, Mary Coughlan and Maighread Ní Dhomhnaill. This time round their repertoire had expanded to embrace Lohan’s refreshingly evocative songwriting (‘Sailing By’), Coughlan’s characteristically laid back vocals (complemented by Kirsty McColl) on ‘Invisible’, Maighread Ní Dhomhnaill’s glass-shattering reading of the traditional cautionary tale, ‘A Mháithrín Dhíleas’ and the politically and emotionally-charged ‘Three Babies’ from Sinéad O’Connor. Looking back on the gloriously eclectic gathering of songs and tunes, one can see that WH2 was in fact a timely barometer of a changing Ireland – a place in which a climate of openness and conciliation was promoted both by this country’s women recording artists, and by an increasingly demanding (and informed) listenership.

A decade on heralded another time, another place, and another century. And the release of A Woman’s Heart – A Decade On reflected those changing times in its landscape and its line-up. At a time when Ireland was chafing to come to terms with multiculturalism, having to square off its willingness to export not only its labour but its so-called ‘problems’ to foreign lands, with an unprecedented turning of the emigration tide, so too the music began to reflect a more complex palette: a richer territory was there to be mined, and A Woman’s Heart - A Decade On embraced the diversity with relish.

And so the stage expanded even further. Juliet Turner and Cara Dillon contributed two vastly divergent Northern strands; Turner lending the blackly humourous ‘Sorry To Say’, while Dillon brought her bare naked vocals to the traditional ‘The Lark In The Clear Air’. Mary Coughlan’s free-spiritedness was matched by The Café Orchestra on the aptly titled ‘Wild And Free’, Dolores Keane and Tommy Sands bravely tackled the Pete Seeger standard, ‘Where Have All The Flowers Gone’, and made it their own, and Altan’s Mairéad Ní Mhaonaigh teamed up with Dolly Parton on the American traditional ‘In The Sweet By And By’. And to top it all, Alison Krauss, fresh from the underground success of the O Brother Where Art Thou? soundtrack, wisely leant ‘Down In The River To Pray’, a gospel song sitting effortlessly within an Irish, Appalachian and British song cycle that stretched its lithe frame across boundaries with the confidence of one well-versed in the fine art of multi-lingualism.

And somewhere, yes, somewhere lurking within was a re-interpretation of the song that christened the entire adventure a decade earlier. This time round, Emmylou Harris sidled up alongside Mary Black to embellish the gene pool and renew its energies.

Three albums, 47 songs and tunes, and a plethora of X chromosomes the driving force. Not a bad way to strike a balance…

Review by Siobhan Long, The Irish Times




VA - A Woman's Heart: Trilogy (2004) 3CD Box Set [Re-Up]

VA - A Woman's Heart (1992)
EAC | FLAC | Image (Cue&Log) ~ 270 Mb | Mp3 (CBR320) ~ 116 Mb | Time: 00:50:46

Listening to Ireland speak from the heart is to hear a woman's voice. A Woman's Heart is a rare collection of Ireland's top female vocalists, including Maura O'Connell, Frances Black, Dolores Keane, Sharon Shannon, Eleanor McEvoy, and Mary Black…Each artist is famous in her own right and sings one of her signature pieces, such as Frances Black's "Wall of Tears" and "After the Ball," "Caledonia" by Keane and "Only a Woman's Heart," and "I Hear You Breathing In" by McEvoy. All the pieces have a contemporary sound to them, but all are unmistakably Irish to the core.

Allmusic.com

Tracklist:

01. Eleanor McEvoy - Only A Woman's Heart (03:50)
02. Dolores Keane - Caledonia (04:38)
03. Mary Black - Vanities (04:24)
04. Sharon Shannon - Blackbird (04:01)
05. Frances Black - Wall Of Tears (04:05)
06. Maura O'Connell - Summerfly (03:06)
07. Dolores Keane - The Island (04:56)
08. Eleanor McEvoy - I Hear You Breathing In (03:36)
09. Mary Black - Sonny (03:37)
10. Sharon Shannon - Coridinio (02:47)
11. Maura O'Connell - Living In These Troubled Times (03:21)
12. Frances Black - After The Ball (08:19)


Exact Audio Copy V1.0 beta 3 from 29. August 2011

Отчёт EAC об извлечении, выполненном 20. октября 2013, 2:17

A woman's heart

Дисковод: HL-DT-STDVDRAM GH60N Adapter: 2 ID: 1

Режим чтения : Достоверность
Использование точного потока : Да
Отключение кэша аудио : Да
Использование указателей C2 : Нет

Коррекция смещения при чтении : 667
Способность читать области Lead-in и Lead-out : Нет
Заполнение пропущенных сэмплов тишиной : Да
Удаление блоков с тишиной в начале и конце : Нет
При вычислениях CRC использовались нулевые сэмплы : Да
Интерфейс : Встроенный Win32-интерфейс для Win NT/2000

Выходной формат : Пользовательский кодировщик
Выбранный битрейт : 896 kBit/s
Качество : Высокий
Добавление ID3-тега : Нет
Утилита сжатия : C:\Program Files\Exact Audio Copy\FLAC\FLAC.EXE
Дополнительные параметры : -6 -V -T "ARTIST=%artist%" -T "TITLE=%title%" -T "ALBUM=%albumtitle%" -T "DATE=%year%" -T "TRACKNUMBER=%tracknr%" -T "GENRE=%genre%" -T "COMMENT=%comment%" -T "BAND=%albuminterpret%" -T "ALBUMARTIST=%albuminterpret%" -T "COMPOSER=%composer%" %haslyrics%–tag-from-file=LYRICS="%lyricsfile%"%haslyrics% -T "DISCNUMBER=%cdnumber%" -T "TOTALDISCS=%totalcds%" -T "TOTALTRACKS=%numtracks%" %hascover%–picture="%coverfile%"%hascover% %source% -o %dest%


TOC извлечённого CD

Трек | Старт | Длительность | Начальный сектор | Конечный сектор
––––––––––––––––––––––––––––––––––-
1 | 0:00.00 | 3:50.67 | 0 | 17316
2 | 3:50.67 | 4:38.23 | 17317 | 38189
3 | 8:29.15 | 4:24.57 | 38190 | 58046
4 | 12:53.72 | 4:01.60 | 58047 | 76181
5 | 16:55.57 | 4:05.05 | 76182 | 94561
6 | 21:00.62 | 3:06.73 | 94562 | 108584
7 | 24:07.60 | 4:56.32 | 108585 | 130816
8 | 29:04.17 | 3:36.48 | 130817 | 147064
9 | 32:40.65 | 3:37.32 | 147065 | 163371
10 | 36:18.22 | 2:47.05 | 163372 | 175901
11 | 39:05.27 | 3:21.15 | 175902 | 190991
12 | 42:26.42 | 8:19.53 | 190992 | 228469


Характеристики диапазона извлечения и сообщения об ошибках

Выбранный диапазон

Имя файла D:\A woman's heart\A woman's heart 1\Unknown Artist - A woman's heart 1.wav

Пиковый уровень 100.0 %
Скорость извлечения 27.6 X
Качество диапазона 100.0 %
CRC теста 474E49C1
CRC копии 474E49C1
Копирование… OK

Ошибок не произошло


Конец отчёта

[CUETools log; Date: 16.12.2015 19:53:31; Version: 2.1.4]
[CTDB TOCID: x12KdLZN9sFipKS_V4BThbIvX6U-] found.
Track | CTDB Status
1 | (16/17) Accurately ripped
2 | (16/17) Accurately ripped
3 | (16/17) Accurately ripped
4 | (16/17) Accurately ripped
5 | (16/17) Accurately ripped
6 | (16/17) Accurately ripped
7 | (16/17) Accurately ripped
8 | (16/17) Accurately ripped
9 | (16/17) Accurately ripped
10 | (16/17) Accurately ripped
11 | (16/17) Accurately ripped
12 | ( 9/17) Accurately ripped, or (7/17) differs in 4 samples @08:10:71
[AccurateRip ID: 0015cffd-00cacc33-9b0be60c] found.
Track [ CRC | V2 ] Status
01 [dfdfe7ba|474ebdf9] (00+00/25) No match
02 [5b1508ea|bd787a7b] (00+00/27) No match
03 [3400c960|9bfac90c] (00+00/27) No match
04 [73db7951|e6f98c25] (00+00/27) No match
05 [6562b11c|16ed4a23] (00+00/27) No match
06 [ae689f90|883718f3] (00+00/27) No match
07 [ed511e7d|f7fc4ae7] (00+00/27) No match
08 [cf7c4361|301beaf0] (00+00/26) No match
09 [bf889282|f86a7ca3] (00+00/28) No match
10 [075dd1a6|c4e87ae4] (00+00/30) No match
11 [31f132b0|9910164c] (00+00/28) No match
12 [1c134bef|c370d254] (00+00/24) No match
Offsetted by 48:
01 [6742163a] (03/25) Accurately ripped
02 [54f37a42] (03/27) Accurately ripped
03 [a709fe30] (03/27) Accurately ripped
04 [5adf87b1] (03/27) Accurately ripped
05 [cb5179ac] (03/27) Accurately ripped
06 [fa022fb0] (03/27) Accurately ripped
07 [0dfa0a5d] (03/27) Accurately ripped
08 [34f65eb9] (03/26) Accurately ripped
09 [aac753aa] (04/28) Accurately ripped
10 [d0b51c56] (05/30) Accurately ripped
11 [1f8ec140] (05/28) Accurately ripped
12 [f503577f] (05/24) Accurately ripped
Offsetted by 18:
01 [1196b92a] (00/25) No match (V2 was not tested)
02 [19d67479] (00/27) No match (V2 was not tested)
03 [ff243d2e] (00/27) No match (V2 was not tested)
04 [ea7cfeb5] (00/27) No match (V2 was not tested)
05 [eb9c3c52] (00/27) No match (V2 was not tested)
06 [8ac2359c] (00/27) No match (V2 was not tested)
07 [999076f1] (00/27) No match (V2 was not tested)
08 [f58a0c94] (00/26) No match (V2 was not tested)
09 [97c01bff] (00/28) No match (V2 was not tested)
10 [92de8da8] (00/30) No match (V2 was not tested)
11 [8b0c4826] (00/28) No match (V2 was not tested)
12 [4d6d5045] (00/24) No match (V2 was not tested)
Offsetted by 53:
01 [a08b7b12] (06/25) Accurately ripped
02 [5e76258c] (07/27) Accurately ripped
03 [c3059e5b] (07/27) Accurately ripped
04 [42eff3db] (07/27) Accurately ripped
05 [f09a593b] (07/27) Accurately ripped
06 [0c8cd95e] (07/27) Accurately ripped
07 [cc0ba2ef] (07/27) Accurately ripped
08 [ea33176c] (06/26) Accurately ripped
09 [2df331ef] (07/28) Accurately ripped
10 [db038973] (08/30) Accurately ripped
11 [e2f9d56f] (08/28) Accurately ripped
12 [6647035e] (00/24) No match (V2 was not tested)

Track Peak [ CRC32 ] [W/O NULL] [ LOG ]
– 100,0 [474E49C1] [B7F3B935] CRC32
01 100,0 [46BDD152] [EECD9236]
02 77,7 [59A58778] [9749F7C5]
03 89,9 [9BDE19A1] [8221AAAD]
04 95,3 [AE350D82] [1953A98E]
05 86,4 [A5BA0719] [E813002A]
06 93,2 [A40064D5] [8663FB5A]
07 83,8 [2F2BCF62] [61D27D57]
08 83,1 [18E57291] [EAA727FC]
09 95,5 [AEC8A1B2] [3A90F8BF]
10 85,3 [3645F172] [0AE64937]
11 80,8 [413DD510] [D8513F42]
12 95,5 [C6DDB3BB] [C4FBFEF2]

foobar2000 1.2 / Dynamic Range Meter 1.1.1
log date: 2015-12-16 20:36:22

––––––––––––––––––––––––––––––––––––––––
Analyzed: A woman's heart / A woman's heart
––––––––––––––––––––––––––––––––––––––––

DR Peak RMS Duration Track
––––––––––––––––––––––––––––––––––––––––
DR13 0.00 dB -15.36 dB 3:51 01-Only A Woman's Heart - Eleanor McEvoy
DR13 -2.19 dB -18.72 dB 4:38 02-Caledonia - Dolores Keane
DR13 -0.92 dB -16.41 dB 4:25 03-Vanities - Mary Black
DR12 -0.41 dB -15.61 dB 4:02 04-Blackbird - Sharon Shannon
DR12 -1.27 dB -18.23 dB 4:05 05-Wall Of Tears - Frances Black
DR14 -0.61 dB -17.05 dB 3:07 06-Summerfly - Maura O'Connell
DR13 -1.53 dB -17.24 dB 4:56 07-The Island - Dolores Keane
DR14 -1.60 dB -17.58 dB 3:37 08-I Hear You Breathing In - Eleanor McEvoy
DR14 -0.39 dB -19.12 dB 3:37 09-Sonny - Mary Black
DR14 -1.37 dB -17.19 dB 2:47 10-Coridinio - Sharon Shannon
DR12 -1.84 dB -17.34 dB 3:21 11-Living In These Troubled Times - Maura O'Connell
DR16 -0.39 dB -21.41 dB 8:20 12-After The Ball - Frances Black
––––––––––––––––––––––––––––––––––––––––

Number of tracks: 12
Official DR value: DR13

Samplerate: 44100 Hz
Channels: 2
Bits per sample: 16
Bitrate: 745 kbps
Codec: FLAC
================================================================================




VA - A Woman's Heart: Trilogy (2004) 3CD Box Set [Re-Up]

VA - A Woman's Heart 2 (1995)
EAC | FLAC | Image (Cue&Log) ~ 340 Mb | Mp3 (CBR320) ~ 144 Mb | Time: 01:03:01

One of the finest assemblages of female Celtic singers from the original A Woman's Heart has found its equal on the sequel, A Woman's Heart 2. Back again are Mary Black, Dolores Keane, Sharon Shannon, Frances Black, Sinead Lohan, Mary Coughlin, Maura O'Connell, and Maighread Ni Dhomnaill, creating as diverse a sound of Celtic music ever recorded. Mary Black, with her sonorous and misty voice, may be considered a first among equals here. Other stellar performances by singer Sinead O'Connor, accordion player Sharon Shannon, and country/Celtic singer Mary Coughlin shine bright as well.

Allmusic.com

Tracklist:

01. Siniad Lohan - Sailing By (03:38)
02. Frances Black - Talk To Me While I'm Listening (04:52)
03. Mary Coughlan - Invisible (04:29)
04. Mary Black - Saw You Running (03:02)
05. Dolores Keane - Never Be The Sun (03:42)
06. Sharon Shannon - Bungee Jumpers (04:12)
07. Maura O'Connell - Trouble In The Fields (03:29)
08. Mary Black - Don't Explain (04:16)
09. Sinead O'Connor - Three Babies (04:44)
10. Dolores Keane - Solid Ground (03:53)
11. Maighread Ni Dhomhnaill - A Mhaithrin Dhileas (02:25)
12. Frances Black - Fear Is The Enemy (04:05)
13. Mary Coughlan - I Can't Make You Love Me (04:19)
14. Sharon Shannon - Sparky (03:44)
15. Maura O'Connell - Western Highway (05:05)
16. Mary Black - If I Gave My Heart To You (03:00)


Exact Audio Copy V1.0 beta 3 from 29. August 2011

Отчёт EAC об извлечении, выполненном 21. октября 2013, 17:17

A woman's heart 2

Дисковод: HL-DT-STDVDRAM GH60N Adapter: 2 ID: 1

Режим чтения : Достоверность
Использование точного потока : Да
Отключение кэша аудио : Да
Использование указателей C2 : Нет

Коррекция смещения при чтении : 667
Способность читать области Lead-in и Lead-out : Нет
Заполнение пропущенных сэмплов тишиной : Да
Удаление блоков с тишиной в начале и конце : Нет
При вычислениях CRC использовались нулевые сэмплы : Да
Интерфейс : Встроенный Win32-интерфейс для Win NT/2000

Выходной формат : Пользовательский кодировщик
Выбранный битрейт : 896 kBit/s
Качество : Высокий
Добавление ID3-тега : Нет
Утилита сжатия : C:\Program Files\Exact Audio Copy\FLAC\FLAC.EXE
Дополнительные параметры : -6 -V -T "ARTIST=%artist%" -T "TITLE=%title%" -T "ALBUM=%albumtitle%" -T "DATE=%year%" -T "TRACKNUMBER=%tracknr%" -T "GENRE=%genre%" -T "COMMENT=%comment%" -T "BAND=%albuminterpret%" -T "ALBUMARTIST=%albuminterpret%" -T "COMPOSER=%composer%" %haslyrics%–tag-from-file=LYRICS="%lyricsfile%"%haslyrics% -T "DISCNUMBER=%cdnumber%" -T "TOTALDISCS=%totalcds%" -T "TOTALTRACKS=%numtracks%" %hascover%–picture="%coverfile%"%hascover% %source% -o %dest%


TOC извлечённого CD

Трек | Старт | Длительность | Начальный сектор | Конечный сектор
––––––––––––––––––––––––––––––––––-
1 | 0:00.00 | 3:38.67 | 0 | 16416
2 | 3:38.67 | 4:52.15 | 16417 | 38331
3 | 8:31.07 | 4:29.38 | 38332 | 58544
4 | 13:00.45 | 3:02.35 | 58545 | 72229
5 | 16:03.05 | 3:42.02 | 72230 | 88881
6 | 19:45.07 | 4:12.33 | 88882 | 107814
7 | 23:57.40 | 3:29.42 | 107815 | 123531
8 | 27:27.07 | 4:16.08 | 123532 | 142739
9 | 31:43.15 | 4:44.05 | 142740 | 164044
10 | 36:27.20 | 3:53.55 | 164045 | 181574
11 | 40:21.00 | 2:25.40 | 181575 | 192489
12 | 42:46.40 | 4:05.52 | 192490 | 210916
13 | 46:52.17 | 4:19.28 | 210917 | 230369
14 | 51:11.45 | 3:44.15 | 230370 | 247184
15 | 54:55.60 | 5:05.47 | 247185 | 270106
16 | 60:01.32 | 3:00.40 | 270107 | 283646


Характеристики диапазона извлечения и сообщения об ошибках

Выбранный диапазон

Имя файла D:\A woman's heart\A woman's heart 2\Unknown Artist - A woman's heart 2.wav

Пиковый уровень 97.8 %
Скорость извлечения 29.2 X
Качество диапазона 99.9 %
CRC теста F29DE070
CRC копии F29DE070
Копирование… OK

Ошибок не произошло


Конец отчёта

[CUETools log; Date: 16.12.2015 19:53:56; Version: 2.1.4]
[CTDB TOCID: oWCXZWRWnSYVJ.3kzEy__nLtatE-] found.
Track | CTDB Status
1 | (11/12) Accurately ripped
2 | (11/12) Accurately ripped
3 | (11/12) Accurately ripped
4 | (11/12) Accurately ripped
5 | (11/12) Accurately ripped
6 | (11/12) Accurately ripped
7 | (10/12) Accurately ripped
8 | (11/12) Accurately ripped
9 | (11/12) Accurately ripped
10 | (11/12) Accurately ripped
11 | (11/12) Accurately ripped
12 | (11/12) Accurately ripped
13 | (11/12) Accurately ripped
14 | ( 3/12) Accurately ripped, or (1/12) differs in 19 samples @01:27:21,01:27:57-01:27:58,01:28:55, or (5/12) differs in 6 samples @01:28:54-01:28:55
15 | ( 3/12) Accurately ripped, or (1/12) differs in 28 samples @02:42:72-02:42:73,02:52:70-02:52:71, or (5/12) differs in 28 samples @02:42:72-02:42:73,02:52:70-02:52:71
16 | (11/12) Accurately ripped
[AccurateRip ID: 00250f9d-01bb93ec-ea0ec510] found.
Track [ CRC | V2 ] Status
01 [1c7d2648|452bbac8] (00+00/17) No match
02 [9125ebb7|81304650] (00+00/17) No match
03 [2e39ce54|7f2a95e1] (00+00/17) No match
04 [7d7e29ad|eb853e9e] (00+00/17) No match
05 [2cde6c8d|7f6b420d] (00+00/17) No match
06 [94abb8d3|743986bc] (00+00/17) No match
07 [3b90242f|3128d01f] (00+00/17) No match
08 [106e7543|2e4e9b6d] (00+00/16) No match
09 [7ee7bb55|21399b65] (00+00/14) No match
10 [57ddb107|c71b97b7] (00+00/17) No match
11 [dab1ecec|60ca07b6] (00+00/17) No match
12 [f1f4e1d0|ef9a62b0] (00+00/16) No match
13 [8d659592|20a6bd6c] (00+00/13) No match
14 [b425d8fe|bc29547b] (00+00/09) No match
15 [f3cc3f03|481d979d] (00+00/12) No match
16 [e89ed1e5|23913db4] (00+00/16) No match
Offsetted by 18:
01 [26d15378] (00/17) No match (V2 was not tested)
02 [4f69a7d9] (00/17) No match (V2 was not tested)
03 [3de10b38] (00/17) No match (V2 was not tested)
04 [38202a75] (00/17) No match (V2 was not tested)
05 [e6c8c397] (00/17) No match (V2 was not tested)
06 [802befe9] (00/17) No match (V2 was not tested)
07 [06a26033] (00/17) No match (V2 was not tested)
08 [7f92c41d] (00/16) No match (V2 was not tested)
09 [512a16b7] (00/14) No match (V2 was not tested)
10 [ec2786f5] (00/17) No match (V2 was not tested)
11 [87480f00] (00/17) No match (V2 was not tested)
12 [8420e470] (00/16) No match (V2 was not tested)
13 [c0eea818] (00/13) No match (V2 was not tested)
14 [a4c26e16] (00/09) No match (V2 was not tested)
15 [b88463f9] (00/12) No match (V2 was not tested)
16 [ddd52b2d] (00/16) No match (V2 was not tested)
Offsetted by 48:
01 [8d5d9ec8] (08/17) Accurately ripped
02 [372fe167] (08/17) Accurately ripped
03 [02a270b4] (08/17) Accurately ripped
04 [19d8d66d] (08/17) Accurately ripped
05 [1ca4a9fd] (08/17) Accurately ripped
06 [b356f663] (08/17) Accurately ripped
07 [5916198f] (08/17) Accurately ripped
08 [e379f233] (08/16) Accurately ripped
09 [af98af05] (08/14) Accurately ripped
10 [e34d40d7] (08/17) Accurately ripped
11 [fc4247cc] (08/17) Accurately ripped
12 [cd14e8d0] (08/16) Accurately ripped
13 [6c2871a2] (05/13) Accurately ripped
14 [e072113e] (00/09) No match (V2 was not tested)
15 [ab0ca193] (00/12) No match (V2 was not tested)
16 [cbda6aa5] (07/16) Accurately ripped

Track Peak [ CRC32 ] [W/O NULL] [ LOG ]
– 97,8 [F29DE070] [81AAFC33] CRC32
01 70,7 [43133364] [D46B3A09]
02 94,4 [B86F0496] [B2936DE0]
03 82,2 [F37BAF78] [CB11719E]
04 80,9 [0FCCDEFE] [D6297DA6]
05 64,3 [E5B3FDC0] [76B251BD]
06 71,0 [EE2E7C6E] [A567C601]
07 74,5 [042C9082] [AB02575F]
08 65,3 [54764015] [A75D9A1F]
09 61,6 [FB340E05] [D28A07C6]
10 61,4 [9F9B9EBC] [33AC7F57]
11 62,8 [5ED8E2F7] [03CFB8ED]
12 84,1 [E13F1184] [2F91E11E]
13 97,8 [4FB5B0E1] [DBA129E2]
14 67,9 [F6586B93] [46CB3F7C]
15 73,5 [77525334] [701B7BD0]
16 84,1 [35DC369A] [8228131A]

foobar2000 1.2 / Dynamic Range Meter 1.1.1
log date: 2015-12-16 20:36:39

––––––––––––––––––––––––––––––––––––––––
Analyzed: A woman's heart 2 / A woman's heart 2
––––––––––––––––––––––––––––––––––––––––

DR Peak RMS Duration Track
––––––––––––––––––––––––––––––––––––––––
DR13 -3.00 dB -18.51 dB 3:39 01-Sailing By - Siniad Lohan
DR13 -0.49 dB -17.64 dB 4:52 02-Talk To Me While I'm Listening - Frances Black
DR14 -1.70 dB -19.31 dB 4:30 03-Invisible - Mary Coughlan
DR14 -1.83 dB -18.05 dB 3:02 04-Saw You Running - Mary Black
DR11 -3.82 dB -18.34 dB 3:42 05-Never Be The Sun - Dolores Keane
DR13 -2.97 dB -18.83 dB 4:12 06-Bungee Jumpers - Sharon Shannon
DR12 -2.55 dB -18.48 dB 3:30 07-Trouble In The Fields - Maura O'Connell
DR11 -3.70 dB -19.22 dB 4:16 08-Don't Explain - Mary Black
DR12 -4.20 dB -19.90 dB 4:44 09-Three Babies - Sinead O'Connor
DR11 -4.24 dB -17.96 dB 3:54 10-Solid Ground - Dolores Keane
DR12 -4.03 dB -19.49 dB 2:26 11-A Mhaithrin Dhileas - Maighread Ni Dhomhnaill
DR13 -1.50 dB -16.74 dB 4:06 12-Fear Is The Enemy - Frances Black
DR15 -0.19 dB -18.07 dB 4:19 13-I Can't Make You Love Me - Mary Coughlan
DR11 -3.35 dB -15.85 dB 3:44 14-Sparky - Sharon Shannon
DR12 -2.67 dB -17.78 dB 5:06 15-Western Highway - Maura O'Connell
DR12 -1.50 dB -16.80 dB 3:01 16-If I Gave My Heart To You - Mary Black
––––––––––––––––––––––––––––––––––––––––

Number of tracks: 16
Official DR value: DR12

Samplerate: 44100 Hz
Channels: 2
Bits per sample: 16
Bitrate: 755 kbps
Codec: FLAC
================================================================================




VA - A Woman's Heart: Trilogy (2004) 3CD Box Set [Re-Up]

VA - A Woman's Heart. A Decade On (2003)
EAC | FLAC | Image (Cue&Log) ~ 453 Mb | Mp3 (CBR320) ~ 174 Mb | Time: 01:15:56

Since it was released a decade ago, A Woman’s Heart, a survey of Irish female singers and instrumentalists, has become one of the best-selling Celtic music albums ever, and volume 2 sold almost as well. The present incarnation reunites the original participants but also includes Irish-American voices. Dolly Parton’s "In The Sweet By And By" and Alison Krauss’s "Down To The River To Pray" recall an old-time Appalachian tent revival. Accordionist Sharon Shannon and The Wild Bullocks resemble a hip ceili big-band on "The White Strand Sling." The Corrs obsess over an attractive deceiver on "I Know My Love," while Sinead O’Connor is tenderness incarnate on "This Is To Mother You." But Dolores Keane’s rendition of "Where Have All The Flowers Gone" is beyond poignant. Her silky alto, flanked by a mournful cello, two male singers, and a distant children’s choir, imbues a classic anti-war ballad with renewed urgency and pathos.

Christina Roden

Tracklist:

01. Sinead O'Connor - This is to Mother You (03:14)
02. The Corrs and The Chieftains - I Know My Love (03:53)
03. Marcia Howard and Mary Black - Poison Tree (04:03)
04. Frances Black - 24 Hours (03:39)
05. Sinead Lohan - To Ramona (03:43)
06. Eva Cassidy - Fields of Gold (04:42)
07. Maighread and Triona Ni Dhomhnaill - Spanish Lady (04:02)
08. Cara Dillon - Lark In The Clear Air (02:23)
09. Mary Black - Bless the Road (03:42)
10. Juliet Turner - Sorry To Say (03:52)
11. Sharon Shannon - The White Strand Sling (04:27)
12. Cathie Ryan - Carrick-a-rede (04:05)
13. Dolores Keane and Tommy Sands - Where Have All The Flowers Gone (05:39)
14. Eleanor McEvoy - Please Heart, You're Killing Me (04:42)
15. Dolly Parton and Altan - Sweet By and By (03:51)
16. Mary Coughlan and Cafi Orchestra - Wild and Free (03:35)
17. Maura O'Connell - Mystic Lipstick (04:58)
18. Alison Kraus - Down To The River To Pray (03:16)
19. A Woman's Heart. A Decade On - Live Bonus Track (04:01)


Exact Audio Copy V1.0 beta 3 from 29. August 2011

Отчёт EAC об извлечении, выполненном 21. октября 2013, 22:01

A Woman's Heart. A Decade On

Дисковод: HL-DT-STDVDRAM GH60N Adapter: 2 ID: 1

Режим чтения : Достоверность
Использование точного потока : Да
Отключение кэша аудио : Да
Использование указателей C2 : Нет

Коррекция смещения при чтении : 667
Способность читать области Lead-in и Lead-out : Нет
Заполнение пропущенных сэмплов тишиной : Да
Удаление блоков с тишиной в начале и конце : Нет
При вычислениях CRC использовались нулевые сэмплы : Да
Интерфейс : Встроенный Win32-интерфейс для Win NT/2000

Выходной формат : Пользовательский кодировщик
Выбранный битрейт : 896 kBit/s
Качество : Высокий
Добавление ID3-тега : Нет
Утилита сжатия : C:\Program Files\Exact Audio Copy\FLAC\FLAC.EXE
Дополнительные параметры : -6 -V -T "ARTIST=%artist%" -T "TITLE=%title%" -T "ALBUM=%albumtitle%" -T "DATE=%year%" -T "TRACKNUMBER=%tracknr%" -T "GENRE=%genre%" -T "COMMENT=%comment%" -T "BAND=%albuminterpret%" -T "ALBUMARTIST=%albuminterpret%" -T "COMPOSER=%composer%" %haslyrics%–tag-from-file=LYRICS="%lyricsfile%"%haslyrics% -T "DISCNUMBER=%cdnumber%" -T "TOTALDISCS=%totalcds%" -T "TOTALTRACKS=%numtracks%" %hascover%–picture="%coverfile%"%hascover% %source% -o %dest%


TOC извлечённого CD

Трек | Старт | Длительность | Начальный сектор | Конечный сектор
––––––––––––––––––––––––––––––––––-
1 | 0:00.00 | 3:14.15 | 0 | 14564
2 | 3:14.15 | 3:53.62 | 14565 | 32101
3 | 7:08.02 | 4:03.04 | 32102 | 50330
4 | 11:11.06 | 3:39.68 | 50331 | 66823
5 | 14:50.74 | 3:43.67 | 66824 | 83615
6 | 18:34.66 | 4:42.73 | 83616 | 104838
7 | 23:17.64 | 4:02.08 | 104839 | 122996
8 | 27:19.72 | 2:23.26 | 122997 | 133747
9 | 29:43.23 | 3:42.60 | 133748 | 150457
10 | 33:26.08 | 3:52.32 | 150458 | 167889
11 | 37:18.40 | 4:27.60 | 167890 | 187974
12 | 41:46.25 | 4:05.12 | 187975 | 206361
13 | 45:51.37 | 5:39.58 | 206362 | 231844
14 | 51:31.20 | 4:42.04 | 231845 | 252998
15 | 56:13.24 | 3:51.24 | 252999 | 270347
16 | 60:04.48 | 3:35.63 | 270348 | 286535
17 | 63:40.36 | 4:58.69 | 286536 | 308954
18 | 68:39.30 | 3:16.11 | 308955 | 323665
19 | 71:55.41 | 4:01.15 | 323666 | 341755


Характеристики диапазона извлечения и сообщения об ошибках

Выбранный диапазон

Имя файла D:\A woman's heart\A woman's heart 3\Unknown Artist - A woman's heart 3.wav

Пиковый уровень 99.8 %
Скорость извлечения 29.5 X
Качество диапазона 100.0 %
CRC теста 20B49805
CRC копии 20B49805
Копирование… OK

Ошибок не произошло


Конец отчёта

[CUETools log; Date: 16.12.2015 19:54:21; Version: 2.1.4]
[CTDB TOCID: tgCTMtNAU.rgq6b2.k3vrFniXiw-] found.
Track | CTDB Status
1 | (16/17) Accurately ripped
2 | (16/17) Accurately ripped
3 | (16/17) Accurately ripped
4 | (16/17) Accurately ripped
5 | (16/17) Accurately ripped
6 | (16/17) Accurately ripped
7 | (16/17) Accurately ripped
8 | (16/17) Accurately ripped
9 | (16/17) Accurately ripped
10 | (16/17) Accurately ripped
11 | (16/17) Accurately ripped
12 | (16/17) Accurately ripped
13 | ( 7/17) Accurately ripped, or (9/17) differs in 203 samples @00:48:48,00:51:08,00:58:74-00:59:00,01:05:67-01:05:68,01:14:22,01:15:40,01:16:38-01:16:39,01:17:18-01:17:19
14 | (16/17) Accurately ripped
15 | (16/17) Accurately ripped
16 | (16/17) Accurately ripped
17 | (16/17) Accurately ripped
18 | (16/17) Accurately ripped
19 | (16/17) Accurately ripped
[AccurateRip ID: 0032ee54-02cf9091-0511cc13] found.
Track [ CRC | V2 ] Status
01 [6db21e90|54555dda] (00+00/42) No match
02 [60a12b1e|91fe6ad6] (00+00/42) No match
03 [dbab1415|3824b847] (00+00/43) No match
04 [a6329b92|ded0d570] (00+00/44) No match
05 [b8ce68ad|09e45647] (00+00/43) No match
06 [995e0f9e|1dd46253] (00+00/43) No match
07 [f0985fa4|5021705c] (00+00/43) No match
08 [7f0bf535|2f71d05c] (00+00/44) No match
09 [5dc7d8a5|ebc4cb71] (00+00/45) No match
10 [04083caa|29c3b78e] (00+00/43) No match
11 [48eb4fa6|ca161949] (00+00/42) No match
12 [018efc2e|706bc80b] (00+00/44) No match
13 [3c051176|19989d6d] (00+00/43) No match
14 [d1e38631|a76540f6] (00+00/42) No match
15 [7cf3cc3d|8a0e1819] (00+00/40) No match
16 [3ddda401|9a9ce1cd] (00+00/39) No match
17 [2739c65b|c2fc51d5] (00+00/40) No match
18 [b9e80bb8|7778502a] (00+00/41) No match
19 [290771d0|6e59ae6f] (00+00/40) No match
Offsetted by 18:
01 [41fd32ee] (07/42) Accurately ripped
02 [b6cc2f36] (07/42) Accurately ripped
03 [91e4058d] (08/43) Accurately ripped
04 [c5e1e2ec] (08/44) Accurately ripped
05 [76b3225b] (08/43) Accurately ripped
06 [8558113a] (08/43) Accurately ripped
07 [36516f63] (08/43) Accurately ripped
08 [069a0852] (08/44) Accurately ripped
09 [720f679b] (08/45) Accurately ripped
10 [3431ea56] (07/43) Accurately ripped
11 [90bb63b0] (08/42) Accurately ripped
12 [98e87164] (08/44) Accurately ripped
13 [08f0b132] (07/43) Accurately ripped
14 [2b7f1a37] (07/42) Accurately ripped
15 [252d406b] (06/40) Accurately ripped
16 [754a97a5] (04/39) Accurately ripped
17 [13d56bd1] (06/40) Accurately ripped
18 [d05a37ec] (06/41) Accurately ripped
19 [12fc0644] (06/40) Accurately ripped
Offsetted by 13:
01 [ea93029b] (13/42) Accurately ripped
02 [e5f91fda] (13/42) Accurately ripped
03 [c2d43441] (13/43) Accurately ripped
04 [2edbdd53] (13/44) Accurately ripped
05 [502c7d00] (13/43) Accurately ripped
06 [1920d7e4] (13/43) Accurately ripped
07 [6a0fce71] (13/43) Accurately ripped
08 [52b9adce] (13/44) Accurately ripped
09 [faa631ac] (13/45) Accurately ripped
10 [8a5f3a18] (13/43) Accurately ripped
11 [27735e1f] (12/42) Accurately ripped
12 [6eddd0d5] (13/44) Accurately ripped
13 [d004930c] (00/43) No match (V2 was not tested)
14 [20d3e2e0] (12/42) Accurately ripped
15 [211d4ad0] (13/40) Accurately ripped
16 [3b3a8cdb] (12/39) Accurately ripped
17 [35aa2fa2] (12/40) Accurately ripped
18 [113a80fa] (12/41) Accurately ripped
19 [a75487b2] (13/40) Accurately ripped

Track Peak [ CRC32 ] [W/O NULL] [ LOG ]
– 99,8 [20B49805] [3AD48A67] CRC32
01 99,8 [3D75EF62] [A2148982]
02 85,1 [CB80F006] [30096C6F]
03 99,8 [F57B1F0D] [8482A05C]
04 98,3 [A0642EAE] [DDF249F2]
05 99,8 [78FFC865] [6CFED57D]
06 99,8 [DEC22D13] [CE1C3887]
07 99,8 [E145DDF9] [32CA2420]
08 98,8 [7165FC06] [B5E3F3E2]
09 99,8 [F003059D] [F8D9E8CB]
10 96,9 [F5C42747] [060CE784]
11 99,8 [135A3637] [AC2914FA]
12 98,8 [2DD8FD57] [7D19E77D]
13 99,8 [C3154656] [0C5C5141]
14 99,8 [F79B2FDD] [C71FD59C]
15 99,8 [F3BB386A] [38006B8B]
16 99,8 [433AF1FF] [D06ED64E]
17 99,8 [CC212A57] [FFDDA534]
18 99,8 [934690CC] [6047E686]
19 99,8 [57A39157] [9E8E125E]

foobar2000 1.2 / Dynamic Range Meter 1.1.1
log date: 2015-12-16 20:37:01

––––––––––––––––––––––––––––––––––––––––
Analyzed: A Woman's Heart. A Decade On / A Woman's Heart. A Decade On
––––––––––––––––––––––––––––––––––––––––

DR Peak RMS Duration Track
––––––––––––––––––––––––––––––––––––––––
DR8 -0.01 dB -9.75 dB 3:14 01-This is to Mother You - Sinead O'Connor
DR7 -1.40 dB -10.68 dB 3:54 02-I Know My Love - The Corrs and The Chieftains
DR11 -0.01 dB -13.87 dB 4:03 03-Poison Tree - Marcia Howard and Mary Black
DR8 -0.14 dB -10.74 dB 3:40 04-24 Hours - Frances Black
DR12 -0.01 dB -14.48 dB 3:44 05-To Ramona - Sinead Lohan
DR12 -0.01 dB -15.19 dB 4:43 06-Fields of Gold - Eva Cassidy
DR12 -0.01 dB -15.63 dB 4:02 07-Spanish Lady - Maighread and Triona Ni Dhomhnaill
DR12 -0.10 dB -15.68 dB 2:23 08-Lark In The Clear Air - Cara Dillon
DR10 -0.01 dB -12.81 dB 3:43 09-Bless the Road - Mary Black
DR6 -0.27 dB -8.14 dB 3:52 10-Sorry To Say - Juliet Turner
DR11 -0.01 dB -13.36 dB 4:28 11-The White Strand Sling - Sharon Shannon
DR8 -0.10 dB -10.32 dB 4:05 12-Carrick-a-rede - Cathie Ryan
DR10 -0.01 dB -12.01 dB 5:40 13-Where Have All The Flowers Gone - Dolores Keane and Tommy Sands
DR9 -0.01 dB -9.97 dB 4:42 14-Please Heart, You're Killing Me - Eleanor McEvoy
DR11 -0.01 dB -14.62 dB 3:51 15-Sweet By and By - Dolly Parton and Altan
DR12 -0.01 dB -14.15 dB 3:36 16-Wild and Free - Mary Coughlan and Cafi Orchestra
DR11 -0.01 dB -14.38 dB 4:59 17-Mystic Lipstick - Maura O'Connell
DR11 -0.01 dB -14.37 dB 3:16 18-Down To The River To Pray - Alison Kraus
DR12 -0.01 dB -14.51 dB 4:01 19-Live Bonus Track
––––––––––––––––––––––––––––––––––––––––

Number of tracks: 19
Official DR value: DR10

Samplerate: 44100 Hz
Channels: 2
Bits per sample: 16
Bitrate: 835 kbps
Codec: FLAC
================================================================================




VA - A Woman's Heart: Trilogy (2004) 3CD Box Set [Re-Up]

All thanks to original releaser - Atexizonrdv

More interesting music in My Blog