Subcategories

YU Grupa - Kako To Da Svaki Dan? (1974)

Posted By: v3122
YU Grupa - Kako To Da Svaki Dan? (1974)

YU Grupa - Kako To Da Svaki Dan? (1974)
EAC | Flac(Image) + Cue + Log & MP3 CBR 320Kbps
2013 | Eastern Time, ET 04 | ~ 373 or 130 Mb | Scans(jpg) -> 5.57 Mb
Hard Rock, Progressive Rock, Blues-Rock

YU Grupa (trans. YU Group) is a Serbian (former Yugoslav) rock band. A pioneer in combining rock music with the elements of the traditional music of the Balkans, YU Grupa is credited with being the longest-lasting Serbian rock band…

~ wiki
YU Grupa - Kako To Da Svaki Dan? (1974):

YU Grupa - Kako To Da Svaki Dan? (1974)

Tracklist:

01. Kako To 04:05
02. Zivot Njen 03:10
03. Nista Nema Novo 06:48
04. Balada O YU Grupi 03:32
05. Mala Dzojb 03:28
06. Zar Je Ljubav To 03:08
07. More 2 08:07
08. Laz 03:45

Bonus Tracks:
09. Dveni Most (A-side, 1974) 04:32
10. Zivi Pesak (B-side, 1974) 04:50
11. Osveta (A-side, 1975) 04:43
12. Sama (A-side, 1975) 04:05

Musicians:

Miodrag Bata Kostic - Guitar, Organ [Hammond], Vocals
Dragi Jelic - Guitar, Synthesizer, Vocals
Zivorad-Zika Jelic - Bass, Vocals
Ratislav Rasa Delmas - Drums, Percussion


Converted to Image (CUETools 2.1.4)

Exact Audio Copy V1.1 from 23. June 2015

EAC extraction logfile from 31. December 2017, 14:15

YU Grupa / Kako To Da Svaki Dan?

Used drive : TSSTcorpCDDVDW SH-224DB Adapter: 1 ID: 0

Read mode : Secure
Utilize accurate stream : Yes
Defeat audio cache : Yes
Make use of C2 pointers : No

Read offset correction : 6
Overread into Lead-In and Lead-Out : No
Fill up missing offset samples with silence : Yes
Delete leading and trailing silent blocks : No
Null samples used in CRC calculations : Yes
Used interface : Native Win32 interface for Win NT & 2000
Gap handling : Appended to previous track

Used output format : User Defined Encoder
Selected bitrate : 1024 kBit/s
Quality : High
Add ID3 tag : No
Command line compressor : C:\Program Files (x86)\Exact Audio Copy\win64\flac.exe
Additional command line options : -8 -V -T "ARTIST=%artist%" -T "TITLE=%title%" -T "ALBUM=%albumtitle%" -T "DATE=%year%" -T "TRACKNUMBER=%tracknr%" -T "GENRE=%genre%" -T "COMMENT=%comment%" %source% -o %dest%


TOC of the extracted CD

Track | Start | Length | Start sector | End sector
––––––––––––––––––––––––––––-
1 | 0:00.00 | 4:04.74 | 0 | 18373
2 | 4:04.74 | 3:10.06 | 18374 | 32629
3 | 7:15.05 | 6:48.09 | 32630 | 63238
4 | 14:03.14 | 3:31.62 | 63239 | 79125
5 | 17:35.01 | 3:28.12 | 79126 | 94737
6 | 21:03.13 | 3:07.67 | 94738 | 108829
7 | 24:11.05 | 8:07.13 | 108830 | 145367
8 | 32:18.18 | 3:45.16 | 145368 | 162258
9 | 36:03.34 | 4:31.69 | 162259 | 182652
10 | 40:35.28 | 4:49.49 | 182653 | 204376
11 | 45:25.02 | 4:42.38 | 204377 | 225564
12 | 50:07.40 | 4:04.51 | 225565 | 243915


Track 1

Filename F:\Sket4er\YU Grupa – Kako To Da Svaki Dan (1974) 2013\01 Kako To.wav

Pre-gap length 0:00:02.00

Peak level 98.8 %
Extraction speed 1.7 X
Track quality 99.9 %
Test CRC F60900A5
Copy CRC F60900A5
Track not present in AccurateRip database
Copy OK

Track 2

Filename F:\Sket4er\YU Grupa – Kako To Da Svaki Dan (1974) 2013\02 Život Njen.wav

Peak level 98.8 %
Extraction speed 2.0 X
Track quality 100.0 %
Test CRC 80B66F57
Copy CRC 80B66F57
Track not present in AccurateRip database
Copy OK

Track 3

Filename F:\Sket4er\YU Grupa – Kako To Da Svaki Dan (1974) 2013\03 Ništa Nema Novo.wav

Peak level 98.5 %
Extraction speed 2.4 X
Track quality 100.0 %
Test CRC 8BD36415
Copy CRC 8BD36415
Track not present in AccurateRip database
Copy OK

Track 4

Filename F:\Sket4er\YU Grupa – Kako To Da Svaki Dan (1974) 2013\04 Balada O YU Grupi.wav

Peak level 98.8 %
Extraction speed 2.0 X
Track quality 99.9 %
Test CRC 00E44649
Copy CRC 00E44649
Track not present in AccurateRip database
Copy OK

Track 5

Filename F:\Sket4er\YU Grupa – Kako To Da Svaki Dan (1974) 2013\05 Mala Džoj.wav

Peak level 99.0 %
Extraction speed 2.0 X
Track quality 99.9 %
Test CRC 6060631D
Copy CRC 6060631D
Track not present in AccurateRip database
Copy OK

Track 6

Filename F:\Sket4er\YU Grupa – Kako To Da Svaki Dan (1974) 2013\06 Zar Je Ljubav To.wav

Peak level 99.5 %
Extraction speed 2.1 X
Track quality 99.9 %
Test CRC 1267EE0B
Copy CRC 1267EE0B
Track not present in AccurateRip database
Copy OK

Track 7

Filename F:\Sket4er\YU Grupa – Kako To Da Svaki Dan (1974) 2013\07 More 2.wav

Peak level 98.8 %
Extraction speed 3.1 X
Track quality 100.0 %
Test CRC 3BC0DBF2
Copy CRC 3BC0DBF2
Track not present in AccurateRip database
Copy OK

Track 8

Filename F:\Sket4er\YU Grupa – Kako To Da Svaki Dan (1974) 2013\08 Laž.wav

Peak level 100.0 %
Extraction speed 3.1 X
Track quality 100.0 %
Test CRC 852CB1C0
Copy CRC 852CB1C0
Track not present in AccurateRip database
Copy OK

Track 9

Filename F:\Sket4er\YU Grupa – Kako To Da Svaki Dan (1974) 2013\09 Dveni Most (A-side, 1974).wav

Peak level 93.7 %
Extraction speed 2.6 X
Track quality 99.9 %
Test CRC C7E142F2
Copy CRC C7E142F2
Track not present in AccurateRip database
Copy OK

Track 10

Filename F:\Sket4er\YU Grupa – Kako To Da Svaki Dan (1974) 2013\10 Živi Pesak (B-side, 1974).wav

Peak level 94.1 %
Extraction speed 3.4 X
Track quality 100.0 %
Test CRC 3F25B548
Copy CRC 3F25B548
Track not present in AccurateRip database
Copy OK

Track 11

Filename F:\Sket4er\YU Grupa – Kako To Da Svaki Dan (1974) 2013\11 Osveta (A-side, 1975).wav

Peak level 84.1 %
Extraction speed 2.8 X
Track quality 99.9 %
Test CRC A3374107
Copy CRC A3374107
Track not present in AccurateRip database
Copy OK

Track 12

Filename F:\Sket4er\YU Grupa – Kako To Da Svaki Dan (1974) 2013\12 Sama (A-side, 1975).wav

Peak level 94.0 %
Extraction speed 2.8 X
Track quality 99.9 %
Test CRC CFFF131C
Copy CRC CFFF131C
Track not present in AccurateRip database
Copy OK


None of the tracks are present in the AccurateRip database

No errors occurred

End of status report

–– CUETools DB Plugin V2.1.6

[CTDB TOCID: hxjfg88IgwSRyMnXdw9MhyAAmNw-] disk not present in database
Submit result: hxjfg88IgwSRyMnXdw9MhyAAmNw- has been uploaded


==== Log checksum 2C2058D67D8C33B3AAB7A29350F8E8F03C0E2972DB6233FC3A51D7D22A4F4E43 ====


[CUETools log; Date: 04.01.2018 8:45:05; Version: 2.1.5]
[AccurateRip ID: 0017d1f3-00e0234f-9f0cb40c] disk not present in database.

Track Peak [ CRC32 ] [W/O NULL] [ LOG ]
– 100,0 [D7F64754] [BA15A982]
01 98,8 [F60900A5] [41F322DA] CRC32
02 98,8 [80B66F57] [C556948A] CRC32
03 98,5 [8BD36415] [FB03E72D] CRC32
04 98,8 [00E44649] [819219A1] CRC32
05 99,0 [6060631D] [00F04BB2] CRC32
06 99,5 [1267EE0B] [C12A9A24] CRC32
07 98,8 [3BC0DBF2] [57EE9381] CRC32
08 100,0 [852CB1C0] [13F32D9A] CRC32
09 93,7 [C7E142F2] [255041F7] CRC32
10 94,1 [3F25B548] [EBEA9D0A] CRC32
11 84,1 [A3374107] [56035790] CRC32
12 94,0 [CFFF131C] [D9F03B70] CRC32


YU Grupa - Kako To Da Svaki Dan? (1974)

All thanks go to Sket4er

Download YU Grupa - Kako To Da Svaki Dan? (1974):