Subcategories

Yehudi Menuhin, Wilhelm Kempff - Beethoven: Complete Violin Sonatas (1990)

Posted By: tirexiss
Yehudi Menuhin, Wilhelm Kempff - Beethoven: Complete Violin Sonatas (1990)

Yehudi Menuhin, Wilhelm Kempff - Beethoven: Complete Violin Sonatas (1990)
EAC | FLAC (tracks+.cue, log) | Covers Included | 04:31:15 | 1,18 gb
Genre: Classical | Label: Deutsche Grammophon | Catalog: 415 874-2

Actually, there is a considerable amount of available versions in the market. But just a few possess the radiant sense of expression of Beethovenian pathos. Many connoted interpreters mistakenly play Beethoven just remarking the Romantic mood, without going deep inside the score, and overlooking the fact the genius simply cannot be labeled.
The combined talent of these notable musicians produced one of the two best sets of Violin Sonatas ever recorded. In one hand we have the undeniable musicality, flair, interpretative freshness and aristocratic phrasing of Wilhelm Kempff, plus the distinguished refinement, vibrant fingering, overwhelming tune and sublime vibrato of Yehudi Menuhin.
There is not any failed performance. They are absorbing, enraptured and visionary readings that bring us back the minimum facets of Bonn's Giant.
You may acquire other versions but it will be hard to get such level of vigorous cohesion, musical honest and wisdom approach so well defined throughout this set. A fundamental treasure in your collection.
amazon

Yehudi Menuhin, Wilhelm Kempff - Beethoven: Complete Violin Sonatas (1990)

Track List:

CD 1:
Sonate D-dur op.12 Nr.1
Sonate A-dur op.12 N.2
Sonate Es-dur op.12 Nr. 3
Rondo fur Klavier und Violin G-dur WoO 41

Exact Audio Copy V0.99 prebeta 4 from 23. January 2008

EAC extraction logfile from 29. January 2009, 19:41

Wilhelm Kempff - Klavier, Yehudi Menuhin - Violin / Ludwig van Beethoven - Sonaten fuer Klavier & Violine Nrr.1, 2, 3, Rondo G-Dur

Used drive : TOSHIBA DVD-ROM SD-M1712 Adapter: 3 ID: 1

Read mode : Secure
Utilize accurate stream : Yes
Defeat audio cache : Yes
Make use of C2 pointers : No

Read offset correction : -472
Overread into Lead-In and Lead-Out : No
Fill up missing offset samples with silence : Yes
Delete leading and trailing silent blocks : No
Null samples used in CRC calculations : Yes
Used interface : Installed external ASPI interface
Gap handling : Appended to previous track

Used output format : User Defined Encoder
Selected bitrate : 128 kBit/s
Quality : High
Add ID3 tag : No
Command line compressor : C:\Program Files\FLAC\flac.exe
Additional command line options : -V -8 -T "artist=%a" -T "title=%t" -T "album=%g" -T "date=%y" -T "tracknumber=%n" -T "genre=%m" %s


TOC of the extracted CD

Track | Start | Length | Start sector | End sector
––––––––––––––––––––––––––––-
1 | 0:00.33 | 9:27.65 | 33 | 42622
2 | 9:28.23 | 7:16.60 | 42623 | 75382
3 | 16:45.08 | 4:59.00 | 75383 | 97807
4 | 21:44.08 | 7:05.25 | 97808 | 129707
5 | 28:49.33 | 5:21.02 | 129708 | 153784
6 | 34:10.35 | 5:19.68 | 153785 | 177777
7 | 39:30.28 | 9:18.30 | 177778 | 219657
8 | 48:48.58 | 7:48.45 | 219658 | 254802
9 | 56:37.28 | 4:31.05 | 254803 | 275132
10 | 61:08.33 | 6:25.37 | 275133 | 304044


Track 1

Filename D:\Раздачи\Текущие\Beethoven, Violin Sonatas. Menuhin, Kempff\Beethoven, Violin Sonatas. Menuhin, Kempff\CD1\01 - Sonate in D-Dur op. 12 Nr. 1 - Allegro con brio.wav

Pre-gap length 0:00:02.44

Peak level 86.4 %
Track quality 100.0 %
Test CRC 9659BA20
Copy CRC 9659BA20
Accurately ripped (confidence 2) [B80DBA8C]
Copy OK

Track 2

Filename D:\Раздачи\Текущие\Beethoven, Violin Sonatas. Menuhin, Kempff\Beethoven, Violin Sonatas. Menuhin, Kempff\CD1\02 - Tema con Variazioni I - IV - andante con moto.wav

Pre-gap length 0:00:01.65

Peak level 80.2 %
Track quality 99.9 %
Test CRC C2C7158E
Copy CRC C2C7158E
Accurately ripped (confidence 2) [99BE11FF]
Copy OK

Track 3

Filename D:\Раздачи\Текущие\Beethoven, Violin Sonatas. Menuhin, Kempff\Beethoven, Violin Sonatas. Menuhin, Kempff\CD1\03 - Rondo, Allegro.wav

Pre-gap length 0:00:00.01

Peak level 79.8 %
Track quality 100.0 %
Test CRC E0C82754
Copy CRC E0C82754
Accurately ripped (confidence 2) [00ACA817]
Copy OK

Track 4

Filename D:\Раздачи\Текущие\Beethoven, Violin Sonatas. Menuhin, Kempff\Beethoven, Violin Sonatas. Menuhin, Kempff\CD1\04 - Sonate in A-Dur op. 12 Nr. 2 - Allegro vivace.wav

Pre-gap length 0:00:08.56

Peak level 61.6 %
Track quality 100.0 %
Test CRC 1CA4BE02
Copy CRC 1CA4BE02
Accurately ripped (confidence 2) [542D4130]
Copy OK

Track 5

Filename D:\Раздачи\Текущие\Beethoven, Violin Sonatas. Menuhin, Kempff\Beethoven, Violin Sonatas. Menuhin, Kempff\CD1\05 - Andante piu tosto Allegretto.wav

Pre-gap length 0:00:00.76

Peak level 45.0 %
Track quality 99.9 %
Test CRC 538F174E
Copy CRC 538F174E
Accurately ripped (confidence 2) [0C4E072B]
Copy OK

Track 6

Filename D:\Раздачи\Текущие\Beethoven, Violin Sonatas. Menuhin, Kempff\Beethoven, Violin Sonatas. Menuhin, Kempff\CD1\06 - Allegro piacevole.wav

Peak level 69.3 %
Track quality 99.9 %
Test CRC 87058C52
Copy CRC 87058C52
Accurately ripped (confidence 2) [834FD844]
Copy OK

Track 7

Filename D:\Раздачи\Текущие\Beethoven, Violin Sonatas. Menuhin, Kempff\Beethoven, Violin Sonatas. Menuhin, Kempff\CD1\07 - Sonate in Es-Dur op. 12 Nr. 3 - Allegro con spirito.wav

Pre-gap length 0:00:05.93

Peak level 74.0 %
Track quality 99.9 %
Test CRC E5AF7445
Copy CRC E5AF7445
Accurately ripped (confidence 2) [45489125]
Copy OK

Track 8

Filename D:\Раздачи\Текущие\Beethoven, Violin Sonatas. Menuhin, Kempff\Beethoven, Violin Sonatas. Menuhin, Kempff\CD1\08 - Adagio con molto espressione.wav

Peak level 82.9 %
Track quality 99.9 %
Test CRC 11832BD1
Copy CRC 11832BD1
Accurately ripped (confidence 2) [059319C3]
Copy OK

Track 9

Filename D:\Раздачи\Текущие\Beethoven, Violin Sonatas. Menuhin, Kempff\Beethoven, Violin Sonatas. Menuhin, Kempff\CD1\09 - Rondo. Allegro Molto.wav

Peak level 79.3 %
Track quality 100.0 %
Test CRC 81818F13
Copy CRC 81818F13
Cannot be verified as accurate (confidence 2) [DED261B4], AccurateRip returned [E6020E52]
Copy OK

Track 10

Filename D:\Раздачи\Текущие\Beethoven, Violin Sonatas. Menuhin, Kempff\Beethoven, Violin Sonatas. Menuhin, Kempff\CD1\10 - Rondo fur Klavier und Violine G-Dur WoO 41.wav

Pre-gap length 0:00:05.33

Peak level 71.0 %
Track quality 99.9 %
Test CRC CF6F1842
Copy CRC CF6F1842
Accurately ripped (confidence 2) [07F75144]
Copy OK


9 track(s) accurately ripped
1 track(s) could not be verified as accurate

Some tracks could not be verified as accurate

No errors occurred

End of status report

CD 2:
Sonate a-moll op.23
Sonate F-dur op.24 "Spring"
Sonate G-dur op.30 Nr.3

Exact Audio Copy V0.99 prebeta 5 from 4. May 2009

EAC extraction logfile from 18. January 2010, 20:06

Wilhelm Kempff - Klavier, Yehudi Menuhin - Violin / Ludwig van Beethoven - Sonaten fuer Klavier & Violine Nrr.4, 5, 8 (CD 2)

Used drive : PLEXTOR CD-R PX-240A Adapter: 2 ID: 1

Read mode : Secure
Utilize accurate stream : Yes
Defeat audio cache : Yes
Make use of C2 pointers : No

Read offset correction : 6
Overread into Lead-In and Lead-Out : No
Fill up missing offset samples with silence : Yes
Delete leading and trailing silent blocks : No
Null samples used in CRC calculations : Yes
Used interface : Native Win32 interface for Win NT & 2000
Gap handling : Appended to previous track

Used output format : User Defined Encoder
Selected bitrate : 128 kBit/s
Quality : High
Add ID3 tag : No
Command line compressor : C:\Program Files\Exact Audio Copy\Flac\flac.exe
Additional command line options : -8 -V -T "ARTIST=%a" -T "TITLE=%t" -T "ALBUM=%g" -T "DATE=%y" -T "TRACKNUMBER=%n" -T "GENRE=%m" -T "COMMENT=EAC FLAC -8" %s


TOC of the extracted CD

Track | Start | Length | Start sector | End sector
––––––––––––––––––––––––––––-
1 | 0:00.33 | 8:41.00 | 33 | 39107
2 | 8:41.33 | 8:46.00 | 39108 | 78557
3 | 17:27.33 | 5:56.00 | 78558 | 105257
4 | 23:23.33 | 10:31.50 | 105258 | 152632
5 | 33:55.08 | 6:25.00 | 152633 | 181507
6 | 40:20.08 | 1:29.50 | 181508 | 188232
7 | 41:49.58 | 7:23.50 | 188233 | 221507
8 | 49:13.33 | 6:44.50 | 221508 | 251857
9 | 55:58.08 | 8:04.25 | 251858 | 288182
10 | 64:02.33 | 3:53.25 | 288183 | 305682


Track 1

Filename D:\Раздачи\Текущие\Beethoven, Violin Sonatas. Menuhin, Kempff\Beethoven, Violin Sonatas. Menuhin, Kempff\CD2\01. Wilhelm Kempff - Klavier, Yehudi Menuhin - Violin - Sonata No 4 in A minor op. 23 - Presto.wav

Pre-gap length 0:00:02.44

Peak level 85.6 %
Track quality 99.9 %
Test CRC B8BD8097
Copy CRC B8BD8097
Cannot be verified as accurate (confidence 7) [4A6A39F1], AccurateRip returned [2CCB75D4]
Copy OK

Track 2

Filename D:\Раздачи\Текущие\Beethoven, Violin Sonatas. Menuhin, Kempff\Beethoven, Violin Sonatas. Menuhin, Kempff\CD2\02. Wilhelm Kempff - Klavier, Yehudi Menuhin - Violin - Andante scherzo, piu Allegretto.wav

Pre-gap length 0:00:02.85

Peak level 58.6 %
Track quality 99.9 %
Test CRC D65090A1
Copy CRC D65090A1
Cannot be verified as accurate (confidence 7) [5B1024E1], AccurateRip returned [0601F46F]
Copy OK

Track 3

Filename D:\Раздачи\Текущие\Beethoven, Violin Sonatas. Menuhin, Kempff\Beethoven, Violin Sonatas. Menuhin, Kempff\CD2\03. Wilhelm Kempff - Klavier, Yehudi Menuhin - Violin - Allegro molto.wav

Pre-gap length 0:00:05.76

Peak level 63.9 %
Track quality 99.9 %
Test CRC 025153A5
Copy CRC 025153A5
Cannot be verified as accurate (confidence 7) [36C0BCE3], AccurateRip returned [C2C3B9CE]
Copy OK

Track 4

Filename D:\Раздачи\Текущие\Beethoven, Violin Sonatas. Menuhin, Kempff\Beethoven, Violin Sonatas. Menuhin, Kempff\CD2\04. Wilhelm Kempff - Klavier, Yehudi Menuhin - Violin - Sonato No 5 in F major op. 24 'Spring'.wav

Pre-gap length 0:00:03.94

Peak level 72.5 %
Track quality 100.0 %
Test CRC 23A7C6D4
Copy CRC 23A7C6D4
Cannot be verified as accurate (confidence 7) [269480D3], AccurateRip returned [886AD818]
Copy OK

Track 5

Filename D:\Раздачи\Текущие\Beethoven, Violin Sonatas. Menuhin, Kempff\Beethoven, Violin Sonatas. Menuhin, Kempff\CD2\05. Wilhelm Kempff - Klavier, Yehudi Menuhin - Violin - Adagio molto espressivo.wav

Pre-gap length 0:00:01.13

Peak level 46.8 %
Track quality 100.0 %
Test CRC 3C0C17AC
Copy CRC 3C0C17AC
Cannot be verified as accurate (confidence 6) [2E1B0207], AccurateRip returned [1060DBEB]
Copy OK

Track 6

Filename D:\Раздачи\Текущие\Beethoven, Violin Sonatas. Menuhin, Kempff\Beethoven, Violin Sonatas. Menuhin, Kempff\CD2\06. Wilhelm Kempff - Klavier, Yehudi Menuhin - Violin - Scherzo. Allegro molto.wav

Pre-gap length 0:00:03.10

Peak level 55.3 %
Track quality 99.8 %
Test CRC 00E1C1DD
Copy CRC 00E1C1DD
Cannot be verified as accurate (confidence 7) [733BCDD6], AccurateRip returned [B822C61C]
Copy OK

Track 7

Filename D:\Раздачи\Текущие\Beethoven, Violin Sonatas. Menuhin, Kempff\Beethoven, Violin Sonatas. Menuhin, Kempff\CD2\07. Wilhelm Kempff - Klavier, Yehudi Menuhin - Violin - Rondo. Allegro ma non troppo.wav

Peak level 63.8 %
Track quality 100.0 %
Test CRC 3DBB001A
Copy CRC 3DBB001A
Cannot be verified as accurate (confidence 7) [EE43A675], AccurateRip returned [DAFEA3FB]
Copy OK

Track 8

Filename D:\Раздачи\Текущие\Beethoven, Violin Sonatas. Menuhin, Kempff\Beethoven, Violin Sonatas. Menuhin, Kempff\CD2\08. Wilhelm Kempff - Klavier, Yehudi Menuhin - Violin - Sonata No 8 iin G Major op. 30 No 3 - Allegro assai.wav

Pre-gap length 0:00:05.44

Peak level 62.8 %
Track quality 100.0 %
Test CRC 7CA68C5E
Copy CRC 7CA68C5E
Cannot be verified as accurate (confidence 7) [C62672CB], AccurateRip returned [0618EAFB]
Copy OK

Track 9

Filename D:\Раздачи\Текущие\Beethoven, Violin Sonatas. Menuhin, Kempff\Beethoven, Violin Sonatas. Menuhin, Kempff\CD2\09. Wilhelm Kempff - Klavier, Yehudi Menuhin - Violin - Temp do Minuetto, ma molto moderato e grazioso.wav

Pre-gap length 0:00:02.12

Peak level 45.8 %
Track quality 100.0 %
Test CRC 514E0887
Copy CRC 514E0887
Cannot be verified as accurate (confidence 7) [ECDFE534], AccurateRip returned [DF50F287]
Copy OK

Track 10

Filename D:\Раздачи\Текущие\Beethoven, Violin Sonatas. Menuhin, Kempff\Beethoven, Violin Sonatas. Menuhin, Kempff\CD2\10. Wilhelm Kempff - Klavier, Yehudi Menuhin - Violin - Allegro vivace.wav

Pre-gap length 0:00:02.01

Peak level 71.4 %
Track quality 100.0 %
Test CRC DA5A1BC4
Copy CRC DA5A1BC4
Cannot be verified as accurate (confidence 6) [604E1839], AccurateRip returned [B4B379A8]
Copy OK


No tracks could be verified as accurate
You may have a different pressing from the one(s) in the database

No errors occurred

End of status report

CD 3:
Sonate A-dur op.30 Nr.1
Sonate c-moll op.30 Nr.2
Zwolf Variationen F-dur WoO 40

Exact Audio Copy V0.99 prebeta 5 from 4. May 2009

EAC extraction logfile from 18. January 2010, 22:24

Menuhin, Kempff / Beethoven, Violin sonatas

Used drive : PLEXTOR CD-R PX-240A Adapter: 2 ID: 1

Read mode : Secure
Utilize accurate stream : Yes
Defeat audio cache : Yes
Make use of C2 pointers : No

Read offset correction : 6
Overread into Lead-In and Lead-Out : No
Fill up missing offset samples with silence : Yes
Delete leading and trailing silent blocks : No
Null samples used in CRC calculations : Yes
Used interface : Native Win32 interface for Win NT & 2000
Gap handling : Appended to previous track

Used output format : User Defined Encoder
Selected bitrate : 128 kBit/s
Quality : High
Add ID3 tag : No
Command line compressor : C:\Program Files\Exact Audio Copy\Flac\flac.exe
Additional command line options : -8 -V -T "ARTIST=%a" -T "TITLE=%t" -T "ALBUM=%g" -T "DATE=%y" -T "TRACKNUMBER=%n" -T "GENRE=%m" -T "COMMENT=EAC FLAC -8" %s


TOC of the extracted CD

Track | Start | Length | Start sector | End sector
––––––––––––––––––––––––––––-
1 | 0:00.33 | 7:47.50 | 33 | 35107
2 | 7:48.08 | 8:54.12 | 35108 | 75169
3 | 16:42.20 | 8:54.63 | 75170 | 115282
4 | 25:37.08 | 8:30.25 | 115283 | 153557
5 | 34:07.33 | 10:34.50 | 153558 | 201157
6 | 44:42.08 | 3:41.00 | 201158 | 217732
7 | 48:23.08 | 5:53.25 | 217733 | 244232
8 | 54:16.33 | 12:37.55 | 244233 | 301062


Track 1

Filename D:\Раздачи\Текущие\Beethoven, Violin Sonatas. Menuhin, Kempff\Beethoven, Violin Sonatas. Menuhin, Kempff\CD3\01. Menuhin, Kempff - Sonate Nr. 6 in A-Dur op. 30 Nr. 1 - Allegro.wav

Pre-gap length 0:00:02.44

Peak level 61.9 %
Track quality 100.0 %
Test CRC 8A8CBA8E
Copy CRC 8A8CBA8E
Cannot be verified as accurate (confidence 6) [8114ABEE], AccurateRip returned [EC4EBC31]
Copy OK

Track 2

Filename D:\Раздачи\Текущие\Beethoven, Violin Sonatas. Menuhin, Kempff\Beethoven, Violin Sonatas. Menuhin, Kempff\CD3\02. Menuhin, Kempff - Adagio molto espressive.wav

Pre-gap length 0:00:03.06

Peak level 65.4 %
Track quality 100.0 %
Test CRC 8DA849A8
Copy CRC 8DA849A8
Cannot be verified as accurate (confidence 7) [9D84D14F], AccurateRip returned [522AEA28]
Copy OK

Track 3

Filename D:\Раздачи\Текущие\Beethoven, Violin Sonatas. Menuhin, Kempff\Beethoven, Violin Sonatas. Menuhin, Kempff\CD3\03. Menuhin, Kempff - Allegretto con Variazioni I - VI.wav

Pre-gap length 0:00:03.94

Peak level 64.4 %
Track quality 100.0 %
Test CRC 9ECD44CE
Copy CRC 9ECD44CE
Cannot be verified as accurate (confidence 7) [31C45A96], AccurateRip returned [FF835079]
Copy OK

Track 4

Filename D:\Раздачи\Текущие\Beethoven, Violin Sonatas. Menuhin, Kempff\Beethoven, Violin Sonatas. Menuhin, Kempff\CD3\04. Menuhin, Kempff - Sonate Nr. 7 in c-moll op. 30 Nr. 2 - Allegro con brio.wav

Pre-gap length 0:00:06.00

Peak level 86.9 %
Track quality 100.0 %
Test CRC D891D656
Copy CRC D891D656
Cannot be verified as accurate (confidence 6) [016A328E], AccurateRip returned [9BEE92BE]
Copy OK

Track 5

Filename D:\Раздачи\Текущие\Beethoven, Violin Sonatas. Menuhin, Kempff\Beethoven, Violin Sonatas. Menuhin, Kempff\CD3\05. Menuhin, Kempff - Adagio cantabile.wav

Pre-gap length 0:00:05.00

Peak level 69.6 %
Track quality 100.0 %
Test CRC B89FCA9B
Copy CRC B89FCA9B
Cannot be verified as accurate (confidence 6) [A3743F05], AccurateRip returned [55C7B636]
Copy OK

Track 6

Filename D:\Раздачи\Текущие\Beethoven, Violin Sonatas. Menuhin, Kempff\Beethoven, Violin Sonatas. Menuhin, Kempff\CD3\06. Menuhin, Kempff - Scherze. Allegro.wav

Pre-gap length 0:00:04.49

Peak level 55.0 %
Track quality 100.0 %
Test CRC 8BAA05E3
Copy CRC 8BAA05E3
Cannot be verified as accurate (confidence 7) [DC3B8337], AccurateRip returned [85C3CE3A]
Copy OK

Track 7

Filename D:\Раздачи\Текущие\Beethoven, Violin Sonatas. Menuhin, Kempff\Beethoven, Violin Sonatas. Menuhin, Kempff\CD3\07. Menuhin, Kempff - Finale. Allegro - Presto.wav

Pre-gap length 0:00:03.08

Peak level 61.8 %
Track quality 99.9 %
Test CRC DDF8DF11
Copy CRC DDF8DF11
Cannot be verified as accurate (confidence 6) [19ED8747], AccurateRip returned [55524DED]
Copy OK

Track 8

Filename D:\Раздачи\Текущие\Beethoven, Violin Sonatas. Menuhin, Kempff\Beethoven, Violin Sonatas. Menuhin, Kempff\CD3\08. Menuhin, Kempff - Zwolf Variationen uber das Thema 'Se vuol ballare' aus Mozarts Oper 'Le Nozze di Figaro' in f-Dur WoO 40.wav

Pre-gap length 0:00:05.10

Peak level 68.7 %
Track quality 100.0 %
Test CRC 9A8190E2
Copy CRC 9A8190E2
Cannot be verified as accurate (confidence 5) [48043750], AccurateRip returned [C49C1412]
Copy OK


No tracks could be verified as accurate
You may have a different pressing from the one(s) in the database

No errors occurred

End of status report

CD 4:
Sonate A-dur op.47 "Kreutzer-Sonate"
Sonate G-dur op.96

Exact Audio Copy V0.99 prebeta 5 from 4. May 2009

EAC extraction logfile from 18. January 2010, 23:04

Wilhelm Kempff - Klavier, Yehudi Menuhin - Violin / Ludwig van Beethoven - Sonaten fuer Klavier & Violine Nrr.9, 10

Used drive : PLEXTOR CD-R PX-240A Adapter: 2 ID: 1

Read mode : Secure
Utilize accurate stream : Yes
Defeat audio cache : Yes
Make use of C2 pointers : No

Read offset correction : 6
Overread into Lead-In and Lead-Out : No
Fill up missing offset samples with silence : Yes
Delete leading and trailing silent blocks : No
Null samples used in CRC calculations : Yes
Used interface : Native Win32 interface for Win NT & 2000
Gap handling : Appended to previous track

Used output format : User Defined Encoder
Selected bitrate : 128 kBit/s
Quality : High
Add ID3 tag : No
Command line compressor : C:\Program Files\Exact Audio Copy\Flac\flac.exe
Additional command line options : -8 -V -T "ARTIST=%a" -T "TITLE=%t" -T "ALBUM=%g" -T "DATE=%y" -T "TRACKNUMBER=%n" -T "GENRE=%m" -T "COMMENT=EAC FLAC -8" %s


TOC of the extracted CD

Track | Start | Length | Start sector | End sector
––––––––––––––––––––––––––––-
1 | 0:00.33 | 14:53.00 | 33 | 67007
2 | 14:53.33 | 16:09.50 | 67008 | 139732
3 | 31:03.08 | 9:45.25 | 139733 | 183632
4 | 40:48.33 | 11:04.00 | 183633 | 233432
5 | 51:52.33 | 6:19.70 | 233433 | 261927
6 | 58:12.28 | 1:53.30 | 261928 | 270432
7 | 60:05.58 | 9:23.37 | 270433 | 312694


Track 1

Filename D:\Раздачи\Текущие\Beethoven, Violin Sonatas. Menuhin, Kempff\Beethoven, Violin Sonatas. Menuhin, Kempff\CD4\01. Wilhelm Kempff - Klavier, Yehudi Menuhin - Violin - Sonata No 9 in A major op. 47 'Kreutzer' - Adagio sostenuto - Presto - Adagio

Pre-gap length 0:00:02.44

Peak level 81.1 %
Track quality 100.0 %
Test CRC DEB88107
Copy CRC DEB88107
Cannot be verified as accurate (confidence 7) [CB7EE11D], AccurateRip returned [184ACBAB]
Copy OK

Track 2

Filename D:\Раздачи\Текущие\Beethoven, Violin Sonatas. Menuhin, Kempff\Beethoven, Violin Sonatas. Menuhin, Kempff\CD4\02. Wilhelm Kempff - Klavier, Yehudi Menuhin - Violin - Andante con Variazioni I - IV.wav

Pre-gap length 0:00:05.01

Peak level 65.0 %
Track quality 100.0 %
Test CRC 977044A6
Copy CRC 977044A6
Cannot be verified as accurate (confidence 7) [BDEFEC70], AccurateRip returned [20608741]
Copy OK

Track 3

Filename D:\Раздачи\Текущие\Beethoven, Violin Sonatas. Menuhin, Kempff\Beethoven, Violin Sonatas. Menuhin, Kempff\CD4\03. Wilhelm Kempff - Klavier, Yehudi Menuhin - Violin - Finale. Presto.wav

Pre-gap length 0:00:04.73

Peak level 61.8 %
Track quality 100.0 %
Test CRC F1A9DBCB
Copy CRC F1A9DBCB
Cannot be verified as accurate (confidence 7) [5BB2D2D1], AccurateRip returned [CB7056AA]
Copy OK

Track 4

Filename D:\Раздачи\Текущие\Beethoven, Violin Sonatas. Menuhin, Kempff\Beethoven, Violin Sonatas. Menuhin, Kempff\CD4\04. Wilhelm Kempff - Klavier, Yehudi Menuhin - Violin - Sonata No 10 in G major op. 96 - Allegro moderato.wav

Pre-gap length 0:00:04.42

Peak level 92.7 %
Track quality 100.0 %
Test CRC 7C1B9522
Copy CRC 7C1B9522
Cannot be verified as accurate (confidence 7) [80AADC33], AccurateRip returned [6613E63C]
Copy OK

Track 5

Filename D:\Раздачи\Текущие\Beethoven, Violin Sonatas. Menuhin, Kempff\Beethoven, Violin Sonatas. Menuhin, Kempff\CD4\05. Wilhelm Kempff - Klavier, Yehudi Menuhin - Violin - Adagio espressivo.wav

Pre-gap length 0:00:03.94

Peak level 35.0 %
Track quality 100.0 %
Test CRC DCB1BC8A
Copy CRC DCB1BC8A
Cannot be verified as accurate (confidence 7) [2C82AA98], AccurateRip returned [D14FB28B]
Copy OK

Track 6

Filename D:\Раздачи\Текущие\Beethoven, Violin Sonatas. Menuhin, Kempff\Beethoven, Violin Sonatas. Menuhin, Kempff\CD4\06. Wilhelm Kempff - Klavier, Yehudi Menuhin - Violin - Scherzo. Allegro.wav

Peak level 69.2 %
Track quality 100.0 %
Test CRC 9309E6C2
Copy CRC 9309E6C2
Cannot be verified as accurate (confidence 7) [46ECAA7D], AccurateRip returned [EC441D4A]
Copy OK

Track 7

Filename D:\Раздачи\Текущие\Beethoven, Violin Sonatas. Menuhin, Kempff\Beethoven, Violin Sonatas. Menuhin, Kempff\CD4\07. Wilhelm Kempff - Klavier, Yehudi Menuhin - Violin - Poco Allegretto - Adagio - Temp I - Allegro - Poco Adagio - Presto.wav

Pre-gap length 0:00:02.12

Peak level 83.5 %
Track quality 100.0 %
Test CRC A62836A8
Copy CRC A62836A8
Cannot be verified as accurate (confidence 7) [DC6E3EB1], AccurateRip returned [1D5047DA]
Copy OK


No tracks could be verified as accurate
You may have a different pressing from the one(s) in the database

No errors occurred

End of status report

Performers:
Yehudi Menuhin, violin
Wilhelm Kempff, piano

Thanks to the Original ripper Amarillo!

Download: