Subcategories

Yehudi Menuhin - Bach: Sonatas and Partitas for Solo Violin, BWV 1001-1006 (2000)

Posted By: ArlegZ
Yehudi Menuhin - Bach: Sonatas and Partitas for Solo Violin, BWV 1001-1006 (2000)

Yehudi Menuhin - Bach: Sonatas and Partitas for Solo Violin, BWV 1001-1006 (2000)
EAC | FLAC | Image (Cue & Log) ~ 419 Mb | Total time: 67:36+72:39 | Scans included
Classical | Label: EMI | # 5 73740.41 2 | Recorded: 1957

The sonatas and partitas for solo violin (BWV 1001–1006) are a set of six works composed by Johann Sebastian Bach. They are sometimes referred to in English as the sonatas and partias for solo violin in accordance with Bach's headings in the autograph manuscript: "Partia" (plural "Partien") was commonly used in German-speaking regions during Bach's time, whereas the Italian "partita" was introduced to this set in the 1879 Bach Gesellschaft edition, having become standard by that time. The set consists of three sonatas da chiesa in four movements and three partitas (or partias) in dance-form movements.
The set was completed by 1720, but was only published in 1802 by Nikolaus Simrock in Bonn. Even after publication, it was largely ignored until the celebrated violinist Joseph Joachim started performing these works. Today, Bach's Sonatas and Partitas are an essential part of the violin repertoire, and they are frequently performed and recorded.
The Sei Solo a Violino senza Basso accompagnato (Six Solos for Violin Without Bass Accompaniment), as Bach titled them, firmly established the technical capability of the violin as a solo instrument. The pieces often served as archetypes for solo violin pieces by later generations of composers, including Eugène Ysaÿe and Béla Bartók.

Performer:
Yehudi Menuhin, violin

Track List:
CD1:
01. Sonata No.1 in G minor, BWV 1001: I. Adagio
02. II. Fugue
03. III. Siciliano
04. IV. Presto
05. Partita No.1 in B minor, BWV 1002: I. Allemande
06. II. Double
07. III. Courante
08. IV. Double
09. V. Sarabande
10. VI. Double
11. VII. Bouree
12. VIII. Double
13. Sonata No.2 in A minor, BWV 1003: I. Grave
14. II. Fugue
15. III. Andante
16. IV. Allegro
CD2:
01. Partita No.2 in D minor, BWV 1004: I. Allemande
02. II. Courante
03. III. Sarabande
04. IV. Gigue
05. V. Chaconne
06. Sonata No.3 in C, BWV 1005: I. Adagio
07. II. Fuga
08. III. Largo
09. IV. Allegro assai
10. Partita No.3 in E, BWV 1006: I. Preludio
11. II. Loure
12. III. Gavotte en rondeau
13. IV. Menuets I & II
14. V. Bouree
15. VI. Gigue


Exact Audio Copy V1.3 from 2. September 2016

EAC extraction logfile from 25. October 2017, 21:46

Yehudi Menuhin / Bach - Sonatas Nos.1 & 2, Partita No.1

Used drive : HL-DT-STDVDRAM GH24NS95 Adapter: 1 ID: 0

Read mode : Secure
Utilize accurate stream : Yes
Defeat audio cache : Yes
Make use of C2 pointers : No

Read offset correction : 6
Overread into Lead-In and Lead-Out : No
Fill up missing offset samples with silence : Yes
Delete leading and trailing silent blocks : No
Null samples used in CRC calculations : Yes
Used interface : Native Win32 interface for Win NT & 2000

Used output format : User Defined Encoder
Selected bitrate : 128 kBit/s
Quality : High
Add ID3 tag : No
Command line compressor : C:\Program Files\Exact Audio Copy\Flac\flac.exe
Additional command line options : -V -8 -T "Date=%year%" -T "Genre=%genre%" %source%


TOC of the extracted CD

Track | Start | Length | Start sector | End sector
––––––––––––––––––––––––––––-
1 | 0:00.00 | 4:39.55 | 0 | 20979
2 | 4:39.55 | 5:06.30 | 20980 | 43959
3 | 9:46.10 | 3:08.52 | 43960 | 58111
4 | 12:54.62 | 3:42.23 | 58112 | 74784
5 | 16:37.10 | 4:59.02 | 74785 | 97211
6 | 21:36.12 | 4:41.65 | 97212 | 118351
7 | 26:18.02 | 3:12.50 | 118352 | 132801
8 | 29:30.52 | 3:09.55 | 132802 | 147031
9 | 32:40.32 | 3:32.45 | 147032 | 162976
10 | 36:13.02 | 3:09.15 | 162977 | 177166
11 | 39:22.17 | 3:10.23 | 177167 | 191439
12 | 42:32.40 | 3:18.00 | 191440 | 206289
13 | 45:50.40 | 4:13.07 | 206290 | 225271
14 | 50:03.47 | 7:01.53 | 225272 | 256899
15 | 57:05.25 | 5:15.47 | 256900 | 280571
16 | 62:20.72 | 5:13.15 | 280572 | 304061


Range status and errors

Selected range

Filename C:\Program Files\Exact Audio Copy\Flac\Bach - Sonatas Nos.1 & 2, Partita No.1.wav

Peak level 98.2 %
Extraction speed 7.9 X
Range quality 100.0 %
Test CRC 0FBA832E
Copy CRC 0FBA832E
Copy OK

No errors occurred

End of status report

==== Log checksum 109700B70632DBF3C834B2C5EEED9F986BA63AD660CC878DB87B034FAD2B363F ====


Exact Audio Copy V1.3 from 2. September 2016

EAC extraction logfile from 25. October 2017, 21:21

Yehudi Menuhin / Bach - Partitas Nos.2 & 3, Sonata No.3

Used drive : HL-DT-STDVDRAM GH24NS95 Adapter: 1 ID: 0

Read mode : Secure
Utilize accurate stream : Yes
Defeat audio cache : Yes
Make use of C2 pointers : No

Read offset correction : 6
Overread into Lead-In and Lead-Out : No
Fill up missing offset samples with silence : Yes
Delete leading and trailing silent blocks : No
Null samples used in CRC calculations : Yes
Used interface : Native Win32 interface for Win NT & 2000

Used output format : User Defined Encoder
Selected bitrate : 128 kBit/s
Quality : High
Add ID3 tag : No
Command line compressor : C:\Program Files\Exact Audio Copy\Flac\flac.exe
Additional command line options : -V -8 -T "Date=%year%" -T "Genre=%genre%" %source%


TOC of the extracted CD

Track | Start | Length | Start sector | End sector
––––––––––––––––––––––––––––-
1 | 0:00.00 | 5:02.35 | 0 | 22684
2 | 5:02.35 | 2:38.47 | 22685 | 34581
3 | 7:41.07 | 4:16.38 | 34582 | 53819
4 | 11:57.45 | 3:41.12 | 53820 | 70406
5 | 15:38.57 | 14:16.38 | 70407 | 134644
6 | 29:55.20 | 5:09.25 | 134645 | 157844
7 | 35:04.45 | 10:08.25 | 157845 | 203469
8 | 45:12.70 | 3:53.42 | 203470 | 220986
9 | 49:06.37 | 5:14.45 | 220987 | 244581
10 | 54:21.07 | 3:12.48 | 244582 | 259029
11 | 57:33.55 | 5:01.07 | 259030 | 281611
12 | 62:34.62 | 2:55.03 | 281612 | 294739
13 | 65:29.65 | 4:03.10 | 294740 | 312974
14 | 69:33.00 | 1:23.07 | 312975 | 319206
15 | 70:56.07 | 1:41.40 | 319207 | 326821


Range status and errors

Selected range

Filename C:\Program Files\Exact Audio Copy\Flac\Bach - Partitas Nos.2 & 3, Sonata No.3.wav

Peak level 98.2 %
Extraction speed 7.9 X
Range quality 100.0 %
Test CRC 653A67CD
Copy CRC 653A67CD
Copy OK

No errors occurred

End of status report

==== Log checksum 7BB431B0D2851567DACE790481F2ABF3CD20C4A2EF22C756BCF6AABE81C9FEC6 ====

Yehudi Menuhin - Bach: Sonatas and Partitas for Solo Violin, BWV 1001-1006 (2000)
Yehudi Menuhin - Bach: Sonatas and Partitas for Solo Violin, BWV 1001-1006 (2000)