Subcategories

Yehudi Menuhin, George Enescu, Paris Symphony Orchestra - Bach: Violin Concertos Nos.1 & 2, Concerto for 2 Violins (2001)

Posted By: ArlegZ
Yehudi Menuhin, George Enescu, Paris Symphony Orchestra - Bach: Violin Concertos Nos.1 & 2, Concerto for 2 Violins (2001)

Yehudi Menuhin, Paris Symphony Orchestra, George Enescu, Pierre Monteux - Bach: Violin Concertos Nos.1 & 2, Concerto for 2 Violins (2001)
EAC | FLAC | Image (Cue & Log) ~ 126 Mb | Total time: 54:21 | Scans included
Classical | Label: Naxos | # 8.110965 | Recorded: 1932-1936

Naxos has done music lovers yet another good turn by releasing these recordings (1932-36), vividly remasterd from 78s. Menuhin was in his later teens when he made them. The concertos in A minor and E are conducted by his teacher Enescu, who is the other soloist in the D minor Double concerto, which Monteux conducts. The performances are compelling, and the slow movements of the solo concertos are imprinted with that beauty of tone and phrase that makes the young Menuhin a permanent wonder. But the Double Concerto is the treasure. The soloists are indistinguishably linked yet each a consummate individual. Playing more heart-easing than in the distraught largo could not be imagined.
(Paul Driver)

Performer:
Yehudi Menuhin, violin
George Enescu, violin II & conductor
Paris Symphony Orchestra
Pierre Monteux, conductor

Track List:
01. Violin Concerto No.1 in A minor: I. Allegro (non tanto)
02. II. Andante
03. III. Allegro assai
04. Violin Concerto No.2 in F major: I. Allegro
05. II. Adagio
06. III. Allegro assai
07. Concerto for Two Violins: I. Vivace
08. II. Largo ma non tanto
09. III. Allegro
10. Sonata No. 2 in A minor: Andante


Exact Audio Copy V1.3 from 2. September 2016

EAC extraction logfile from 18. January 2018, 22:29

Yehudi Menuhin, Paris Symphony Orchestra, Pierre Monteux / Bach - Violin Concertos Nos.1 and 2

Used drive : HL-DT-STDVDRAM GH24NS95 Adapter: 1 ID: 0

Read mode : Secure
Utilize accurate stream : Yes
Defeat audio cache : Yes
Make use of C2 pointers : No

Read offset correction : 6
Overread into Lead-In and Lead-Out : No
Fill up missing offset samples with silence : Yes
Delete leading and trailing silent blocks : No
Null samples used in CRC calculations : Yes
Used interface : Native Win32 interface for Win NT & 2000

Used output format : User Defined Encoder
Selected bitrate : 128 kBit/s
Quality : High
Add ID3 tag : No
Command line compressor : C:\Program Files\Exact Audio Copy\Flac\flac.exe
Additional command line options : -V -8 -T "Date=%year%" -T "Genre=%genre%" %source%


TOC of the extracted CD

Track | Start | Length | Start sector | End sector
––––––––––––––––––––––––––––-
1 | 0:00.00 | 4:11.57 | 0 | 18881
2 | 4:11.57 | 7:18.33 | 18882 | 51764
3 | 11:30.15 | 4:41.20 | 51765 | 72859
4 | 16:11.35 | 8:13.62 | 72860 | 109896
5 | 24:25.22 | 6:56.35 | 109897 | 141131
6 | 31:21.57 | 3:02.55 | 141132 | 154836
7 | 34:24.37 | 4:06.03 | 154837 | 173289
8 | 38:30.40 | 6:28.22 | 173290 | 202411
9 | 44:58.62 | 5:03.40 | 202412 | 225176
10 | 50:02.27 | 4:34.48 | 225177 | 245774


Range status and errors

Selected range

Filename C:\Program Files\Exact Audio Copy\Flac\Bach - Violin Concertos Nos.1 and 2.wav

Peak level 99.9 %
Extraction speed 7.3 X
Range quality 100.0 %
Test CRC CCD7D151
Copy CRC CCD7D151
Copy OK

No errors occurred

End of status report

==== Log checksum ABED59D5F02B5B3CF7F4C88D4B8A1B564908C1CA4FA75625F637E1ED1E6FFC7D ====

Yehudi Menuhin, George Enescu, Paris Symphony Orchestra - Bach: Violin Concertos Nos.1 & 2, Concerto for 2 Violins (2001)