Subcategories

Yellowjackets - Run For Your Life (1994) {GRP} [Re-Up]

Posted By: tiburon
Yellowjackets - Run For Your Life (1994) {GRP} [Re-Up]

Yellowjackets - Run For Your Life (1994) {GRP}
EAC 0.99pb5 | FLAC tracks level 8 | Cue+Log+M3U | Full Scans 300dpi | 349MB + 5% Recovery
MP3 CBR 320 Kbps | 144MB + 5% Recovery
Genre: Fusion, Post-Bop
Yellowjackets - Run For Your Life (1994) {GRP} [Re-Up]

"Run For Your Life" was nominated for Best Contemporary Jazz Performance in the 37th Annual Grammy Awards.This is one of The Yellowjackets' most jazz-oriented sets. Roughly half of the music uses funky rhtyhms while the remainder is straightahead.This fine release is recommended both to The Yellowjackets' longtime fans and those listeners who mistakenly think that this popular group is a mundane fusion band.
Track List
01. Jacket Town 5:25
02. Even Song 6:33
03. Runferyerlife 4:22
04. The Red Sea 5:45
05. Muhammed 6:47
06. City Of Lights 6:56
07. Sage 5:04
08. Ancestors 5:01
09. Wisdom 7:29

musicians
Bob Mintzer - tenor & soprano saxophones, bass clarinet, EWI
Russell Ferrante - keyboards
Robben Ford - guitar
Jimmy Haslip - bass
William Kennedy - drums

guest musicians
Robben Ford - guitar
Steve Croes - synclavier
Judd Miller - synthesizer programming

Produced by Yellowjackets


Exact Audio Copy V1.0 beta 3 from 29. August 2011

EAC extraction logfile from 23. December 2012, 14:54

Yellowjackets / Run for Your Life

Used drive : HL-DT-STDVD-RAM GSA-H55N Adapter: 0 ID: 2

Read mode : Secure
Utilize accurate stream : Yes
Defeat audio cache : Yes
Make use of C2 pointers : No

Read offset correction : 102
Overread into Lead-In and Lead-Out : Yes
Fill up missing offset samples with silence : Yes
Delete leading and trailing silent blocks : No
Null samples used in CRC calculations : Yes
Used interface : Native Win32 interface for Win NT & 2000
Gap handling : Appended to previous track

Used output format : User Defined Encoder
Selected bitrate : 128 kBit/s
Quality : High
Add ID3 tag : No
Command line compressor : G:\Program Files\Exact Audio Copy\Encoder\flac.exe
Additional command line options : -V -8 -T "Genre=%genre%" -T "Artist=%artist%" -T "Title=%title%" -T "Album=%albumtitle%" -T "Date=%year%" -T "Tracknumber=%tracknr%" -T "Comment=EAC1.0b3 FLAC -8" %source%


TOC of the extracted CD

Track | Start | Length | Start sector | End sector
––––––––––––––––––––––––––––-
1 | 0:00.32 | 5:28.08 | 32 | 24639
2 | 5:28.40 | 6:36.70 | 24640 | 54409
3 | 12:05.35 | 4:25.65 | 54410 | 74349
4 | 16:31.25 | 5:47.47 | 74350 | 100421
5 | 22:18.72 | 6:49.33 | 100422 | 131129
6 | 29:08.30 | 6:59.07 | 131130 | 162561
7 | 36:07.37 | 5:06.45 | 162562 | 185556
8 | 41:14.07 | 5:02.53 | 185557 | 208259
9 | 46:16.60 | 7:30.70 | 208260 | 242079


Track 1

Filename F:\WAV\01 - Jacket Town.wav

Pre-gap length 0:00:02.32

Peak level 100.0 %
Extraction speed 4.5 X
Track quality 100.0 %
Test CRC DB614154
Copy CRC DB614154
Accurately ripped (confidence 4) [8178250E] (AR v2)
Copy OK

Track 2

Filename F:\WAV\02 - Even Song.wav

Pre-gap length 0:00:02.35

Peak level 100.0 %
Extraction speed 4.1 X
Track quality 100.0 %
Test CRC 73E70044
Copy CRC 73E70044
Accurately ripped (confidence 4) [AB33DA3B] (AR v2)
Copy OK

Track 3

Filename F:\WAV\03 - Runferyerlife.wav

Pre-gap length 0:00:03.25

Peak level 100.0 %
Extraction speed 4.3 X
Track quality 100.0 %
Test CRC D95838BB
Copy CRC D95838BB
Accurately ripped (confidence 4) [7C5B127C] (AR v2)
Copy OK

Track 4

Filename F:\WAV\04 - The Red Sea.wav

Pre-gap length 0:00:03.28

Peak level 100.0 %
Extraction speed 4.8 X
Track quality 100.0 %
Test CRC E9271AC8
Copy CRC E9271AC8
Accurately ripped (confidence 4) [EA6870AE] (AR v2)
Copy OK

Track 5

Filename F:\WAV\05 - Muhammed.wav

Pre-gap length 0:00:02.20

Peak level 100.0 %
Extraction speed 5.3 X
Track quality 100.0 %
Test CRC 29845AE2
Copy CRC 29845AE2
Accurately ripped (confidence 4) [571ED826] (AR v2)
Copy OK

Track 6

Filename F:\WAV\06 - City of Lights.wav

Pre-gap length 0:00:02.03

Peak level 92.4 %
Extraction speed 7.2 X
Track quality 100.0 %
Test CRC 2A6E6F4E
Copy CRC 2A6E6F4E
Accurately ripped (confidence 4) [ED7F7AB1] (AR v2)
Copy OK

Track 7

Filename F:\WAV\07 - Sage.wav

Pre-gap length 0:00:02.60

Peak level 100.0 %
Extraction speed 7.3 X
Track quality 100.0 %
Test CRC 1E4405BB
Copy CRC 1E4405BB
Accurately ripped (confidence 4) [9A775CF1] (AR v2)
Copy OK

Track 8

Filename F:\WAV\08 - Ancestors.wav

Pre-gap length 0:00:02.70

Peak level 100.0 %
Extraction speed 7.5 X
Track quality 100.0 %
Test CRC A1642C92
Copy CRC A1642C92
Accurately ripped (confidence 4) [68A2A847] (AR v2)
Copy OK

Track 9

Filename F:\WAV\09 - Wisdom.wav

Pre-gap length 0:00:01.00

Peak level 100.0 %
Extraction speed 3.5 X
Track quality 100.0 %
Test CRC 1783E2D0
Copy CRC 1783E2D0
Accurately ripped (confidence 4) [91CA2FF9] (AR v2)
Copy OK


All tracks accurately ripped

No errors occurred

End of status report

==== Log checksum C9CCF3ABF2095868504C4E295D02862234027F96356D2B866A5D46C2AEDFE912 ====


––––––––––––––––––––––––––––––––––––––––
Analyzed: Yellowjackets / Run For Your Life
––––––––––––––––––––––––––––––––––––––––

DR Peak RMS Duration Track
––––––––––––––––––––––––––––––––––––––––
DR15 0.00 dB -17.46 dB 5:28 01-Jacket Town
DR14 0.00 dB -16.58 dB 6:37 02-Even Song
DR14 0.00 dB -16.73 dB 4:26 03-Runferyerlife
DR15 0.00 dB -16.98 dB 5:48 04-The Red Sea
DR14 0.00 dB -18.66 dB 6:49 05-Muhammed
DR16 -0.69 dB -19.64 dB 6:59 06-City Of Lights
DR14 0.00 dB -19.72 dB 5:07 07-Sage
DR14 0.00 dB -17.77 dB 5:03 08-Ancestors
DR15 0.00 dB -19.20 dB 7:31 09-Wisdom
––––––––––––––––––––––––––––––––––––––––

Number of tracks: 9
Official DR value: DR15

Samplerate: 44100 Hz
Channels: 2
Bits per sample: 16
Bitrate: 870 kbps
Codec: FLAC
================================================================================

Yellowjackets - Run For Your Life (1994) {GRP} [Re-Up]
Yellowjackets - Run For Your Life (1994) {GRP} [Re-Up]
Yellowjackets - Run For Your Life (1994) {GRP} [Re-Up]


Thanks to the original ripper