Subcategories

Yes: Collection (1969 - 2014) [Vinyl Rip 16/44 & mp3-320]

Posted By: v3122
Yes: Collection (1969 - 2014) [Vinyl Rip 16/44 & mp3-320]

Yes: Collection (1969 - 2014)
17 x Vinyl Rip 16/44 | Flac(Image + Cue) > 4886 Mb
MP3 CBR 320Kbps > 1954 Mb | Artwork > 279 Mb
Label: various | Progressive Rock

Yes are an English progressive rock band formed in London in 1968 by singer Jon Anderson, bassist Chris Squire, guitarist Peter Banks, keyboardist Tony Kaye, and drummer Bill Bruford. The band has undergone numerous formations throughout its history; nineteen musicians have been full-time members. Since June 2015, it has consisted of guitarist Steve Howe, drummer Alan White, keyboardist Geoff Downes, singer Jon Davison, and bassist Billy Sherwood, with no remaining founding members. Yes have explored several musical styles over the years, and are most notably regarded as progressive rock pioneers.

Yes began in 1968, performing original songs and rearranged covers of rock, pop, blues and jazz songs, as evident on their first two albums. A change of direction in 1970 led to a series of successful progressive rock albums until their disbanding in 1981, their most successful being The Yes Album (1971), Fragile (1971) and Close to the Edge (1972). Yes toured as a major rock act that earned the band a reputation for their elaborate stage sets, light displays, and album covers designed by Roger Dean. The success of "Roundabout", the single from Fragile, cemented their popularity across the decade and beyond.

In 1983, Yes reformed with a new line-up that included Trevor Rabin and a more commercial and pop-oriented musical direction. The result was 90125 (1983), their highest-selling album which contained the U.S. number-one single, "Owner of a Lonely Heart". From 1990 to 1992, Yes were an eight-member formation after they merged with Anderson Bruford Wakeman Howe for Union (1991) and its tour. Since 1994, Yes have released albums with varied levels of success and completed tours from 1994 to 2004. After a four-year hiatus, they resumed touring in 2009 and continue to release albums; their most recent is Heaven & Earth (2014). In 2016, a new group of former Yes members began touring and named themselves Yes Featuring Jon Anderson, Trevor Rabin, Rick Wakeman.

Yes are one of the most successful, influential, and longest-lasting progressive rock bands. They have sold 13.5 million RIAA-certified albums in the US. In 1985, they won a Grammy Award for Best Rock Instrumental Performance with "Cinema", and received five Grammy nominations between 1985 and 1992. They were ranked No. 94 on VH1's 100 Greatest Artists of Hard Rock. Yes have headlined annual progressive rock-themed cruises since 2013 named Cruise to the Edge. Their discography spans 21 studio albums. In April 2017, Yes were inducted into the Rock and Roll Hall of Fame, which chose to specifically bestow the honour upon current and former members Anderson, Squire, Bruford, Kaye, Howe, Rick Wakeman, White and Rabin…

~ wiki
Yes: Collection (1969 - 2014) [Vinyl Rip 16/44 & mp3-320]


Yes: Collection (1969 - 2014):

Yes: Collection (1969 - 2014) [Vinyl Rip 16/44 & mp3-320]

Tracklist VNL01 - 1969 - Yes:
Atlantic, SD 8243

Side one
1. "Beyond and Before" (Squire/Clive Bailey) – 4:58
2. "I See You" (Jim McGuinn/David Crosby; Essex
Music Ltd.) – 6:54
3. "Yesterday and Today" (Anderson) – 2:53
4. "Looking Around" (Anderson/Squire) – 4:05

Side two
5. "Harold Land" (Anderson/Bruford/Squire) – 5:45
6. "Every Little Thing" (Lennon/McCartney; Northern
Songs) – 5:46
7. "Sweetness" (Anderson/Clive Bailey/Squire) –
4:35
8. "Survival" (Anderson) – 6:23

foobar2000 1.2.9 / Dynamic Range Meter 1.1.1
log date: 2018-04-06 18:08:05

––––––––––––––––––––––––––––––––––––––––
Analyzed: Yes / Yes
––––––––––––––––––––––––––––––––––––––––

DR Peak RMS Duration Track
––––––––––––––––––––––––––––––––––––––––
DR11 -1.56 dB -15.13 dB 5:00 01-Beyond and Before
DR12 -4.39 dB -20.13 dB 6:53 02-I See You
DR12 -4.53 dB -19.57 dB 2:53 03-Yesterday and Today
DR11 -2.02 dB -14.92 dB 4:01 04-Looking Around
DR12 -1.63 dB -16.12 dB 5:47 05-Harold Land
DR12 -0.93 dB -16.55 dB 5:46 06-Every Little Thing
DR11 -4.52 dB -19.06 dB 4:34 07-Sweetness
DR11 -5.22 dB -19.53 dB 6:22 08-Survival
––––––––––––––––––––––––––––––––––––––––

Number of tracks: 8
Official DR value: DR11

Samplerate: 44100 Hz
Channels: 2
Bits per sample: 16
Bitrate: 762 kbps
Codec: FLAC
================================================================================




Original ripper: AlBeOne
Original format: 24/192
Direct Drive Turntable: ClearAudio
Cartridge: Aurum Alpha Wood mkII
Amplifier: Musical Fidelity V LPS
ADC: E-mu 1212

Downsampled to 16/44

Yes: Collection (1969 - 2014) [Vinyl Rip 16/44 & mp3-320]

Tracklist VNL02 - 1970 - Time And A Word:
Atlantic, SD 8273

Side one
1. "No Opportunity Necessary, No Experience Needed"
(Richie Havens) – 4:48
2. "Then" (Anderson)* – 5:46
3. "Everydays" (Stephen Stills) – 6:08
4. "Sweet Dreams" (Anderson, David Foster) – 3:50

Side two
5. "The Prophet" (Anderson, Squire) – 6:34
6. "Clear Days" (Anderson) – 2:06
7. "Astral Traveller" (Anderson) – 5:53
8. "Time and a Word" (Anderson, David Foster) –
4:32

foobar2000 1.2.9 / Dynamic Range Meter 1.1.1
log date: 2018-04-06 18:08:18

––––––––––––––––––––––––––––––––––––––––
Analyzed: Yes / Time And A Word
––––––––––––––––––––––––––––––––––––––––

DR Peak RMS Duration Track
––––––––––––––––––––––––––––––––––––––––
DR9 -4.35 dB -15.77 dB 4:57 01-Time And A Word
DR10 -2.94 dB -17.10 dB 5:43 02-Then
DR10 -4.38 dB -19.22 dB 6:10 03-Everydays
DR10 -4.47 dB -17.04 dB 3:55 04-Sweet Dreams
DR11 -1.34 dB -16.46 dB 6:39 05-The Prophet
DR9 -3.95 dB -15.73 dB 2:11 06-Clear Days
DR10 -2.63 dB -15.11 dB 5:55 07-Astral Traveller
DR10 -2.74 dB -15.62 dB 4:34 08-Time and a Word
––––––––––––––––––––––––––––––––––––––––

Number of tracks: 8
Official DR value: DR10

Samplerate: 44100 Hz
Channels: 2
Bits per sample: 16
Bitrate: 782 kbps
Codec: FLAC
================================================================================




Original ripper: AlBeOne
Original format: 24/192
Direct Drive Turntable: ClearAudio
Cartridge: Aurum Alpha Wood mkII
Amplifier: Musical Fidelity V LPS
ADC: E-mu 1212

Downsampled to 16/44

Yes: Collection (1969 - 2014) [Vinyl Rip 16/44 & mp3-320]

Tracklist VNL03 - 1971 - Fragile:
Atlantic, K 50009

01. Roundabout
02. Cans And Brahms (Extracts From Brahms' 4th Symphony In E Minor, Third Movement)
03. We Have Heaven
04. South Side Of The Sky
05. Five Percent For Nothing
06. Long Distance Runaround
07. The Fish (Shindleria Praematurus)
08. Mood For A Day
09. Heart Of The Sunrise

foobar2000 1.2.9 / Dynamic Range Meter 1.1.1
log date: 2018-04-06 18:08:30

––––––––––––––––––––––––––––––––––––––––
Analyzed: Yes / Fragile
––––––––––––––––––––––––––––––––––––––––

DR Peak RMS Duration Track
––––––––––––––––––––––––––––––––––––––––
DR12 -0.06 dB -15.40 dB 8:36 01-Roundabout
DR13 -1.73 dB -18.95 dB 1:43 02-Cans And Brahms
DR10 -1.46 dB -14.47 dB 1:29 03-We Have Heaven
DR12 -1.08 dB -16.02 dB 8:05 04-South Side Of The Sky
DR14 -1.70 dB -17.79 dB 0:37 05-Five Per Cent For Nothing
DR13 -0.89 dB -16.56 dB 3:34 06-Long Distance Runaround
DR13 -0.31 dB -16.42 dB 2:39 07-The Fish (Shindleria Praematurus)
DR13 -4.41 dB -22.27 dB 3:03 08-Mood For A Day
DR12 -1.40 dB -16.79 dB 11:24 09-Heart Of The Sunrise
––––––––––––––––––––––––––––––––––––––––

Number of tracks: 9
Official DR value: DR12

Samplerate: 44100 Hz
Channels: 2
Bits per sample: 16
Bitrate: 816 kbps
Codec: FLAC
================================================================================




Original ripper: otto1961
Original format: 32/192
Direct Drive Turntable: Электроника ЭП 017С
Cartridge: ГЗМ-053
Amplifier: Бриг-001
ADC: VIA HD audio device

Downsampled to 16/44

Yes: Collection (1969 - 2014) [Vinyl Rip 16/44 & mp3-320]

Tracklist VNL04 - 1971 - The Yes Album:
Atlantic, SD 19131

Side one
1. "Yours Is No Disgrace" (Jon Anderson/Chris
Squire/Steve Howe/Tony Kaye/Bill Bruford) – 9:41
2. "Clap" (Howe) – 3:17
* Recorded live at The Lyceum Theatre,
London, 17 July 1970
3. "Starship Trooper" – 9:25
1. "Life Seeker" (Anderson)
2. "Disillusion" (Squire)
3. "Würm" (Howe)

Side two
1. "I've Seen All Good People" – 6:56
1. "Your Move" (Jon Anderson)
2. "All Good People" (Chris Squire)
2. "A Venture" (Jon Anderson) – 3:18
3. "Perpetual Change" (Jon Anderson/Chris Squire) –
8:54

foobar2000 1.2.9 / Dynamic Range Meter 1.1.1
log date: 2018-04-06 18:08:45

––––––––––––––––––––––––––––––––––––––––
Analyzed: Yes / The Yes Album
––––––––––––––––––––––––––––––––––––––––

DR Peak RMS Duration Track
––––––––––––––––––––––––––––––––––––––––
DR11 -5.42 dB -18.84 dB 9:44 01-Yours Is No Disgrace
DR14 -6.11 dB -23.53 dB 3:15 02-Clap
DR11 -5.91 dB -19.50 dB 9:27 03-Starship Trooper
DR11 -3.69 dB -18.35 dB 7:02 04-I've Seen All Good People
DR11 -5.76 dB -19.11 dB 3:14 05-A Venture
DR11 -5.87 dB -19.80 dB 8:51 06-Perpetual Change
––––––––––––––––––––––––––––––––––––––––

Number of tracks: 6
Official DR value: DR12

Samplerate: 44100 Hz
Channels: 2
Bits per sample: 16
Bitrate: 762 kbps
Codec: FLAC
================================================================================




Original ripper: AlBeOne
Original format: 24/192
Direct Drive Turntable: ClearAudio
Cartridge: Aurum Alpha Wood mkII
Amplifier: Musical Fidelity V LPS
ADC: E-mu 1212

Downsampled to 16/44

Yes: Collection (1969 - 2014) [Vinyl Rip 16/44 & mp3-320]

Tracklist VNL05 - 1972 - Close To The Edge:
Atlantic/Warner-Pioneer, P-8274A

01. Close To The Edge
(i) The Solid Time Of Change
(ii) Total Mass Retain
(iii) I Get Up I Get Down
(iv) Seasons Of Man
02. And You And I
(i) Cord Of Life
(ii) Eclipse
(iii) The Preacher The Teacher
(iv) The Apocalypse
03. Siberian Khatru

foobar2000 1.2.9 / Dynamic Range Meter 1.1.1
log date: 2018-04-06 18:08:57

––––––––––––––––––––––––––––––––––––––––
Analyzed: Yes / Close To The Edge
––––––––––––––––––––––––––––––––––––––––

DR Peak RMS Duration Track
––––––––––––––––––––––––––––––––––––––––
DR12 -0.83 dB -15.36 dB 18:37 01-Close To The Edge
DR12 -1.40 dB -17.68 dB 10:11 02-And You And I
DR11 -1.19 dB -14.53 dB 8:58 03-Siberian Khatru
––––––––––––––––––––––––––––––––––––––––

Number of tracks: 3
Official DR value: DR11

Samplerate: 44100 Hz
Channels: 2
Bits per sample: 16
Bitrate: 836 kbps
Codec: FLAC
================================================================================




Original ripper: JonnyB2502
Original format: 32/192
Direct Drive Turntable: Music hall mmf-2.2
Cartridge: Goldring 1022GX
Amplifier: Cambridge Audio 651P + Marantz PM7005
ADC: Roland Quad-Capture

Downsampled to 16/44

Yes: Collection (1969 - 2014) [Vinyl Rip 16/44 & mp3-320]

Tracklist VNL06 - 1973 - Tales From Topographic Oceans:
Atlantic, ATL 80001

Disc 1
"The Revealing Science of God (Dance of the Dawn)"
Anderson/Howe 20:25
"The Remembering (High the Memory)" Anderson/Howe

20:38
Disc 2
"The Ancient (Giants under the Sun)" Anderson/Howe
18:35
"Ritual (Nous sommes du soleil)" Anderson/Howe
21:37

foobar2000 1.2.9 / Dynamic Range Meter 1.1.1
log date: 2018-04-06 18:09:16

––––––––––––––––––––––––––––––––––––––––
Analyzed: Yes / Tales From Topographic Oceans
––––––––––––––––––––––––––––––––––––––––

DR Peak RMS Duration Track
––––––––––––––––––––––––––––––––––––––––
DR12 0.00 dB -15.55 dB 20:46 01-The Revealing Science of God (Dance of the Dawn)
DR13 -0.13 dB -17.57 dB 20:38 02-The Remembering (High the Memory)
DR13 -1.37 dB -17.67 dB 18:53 03-The Ancient (Giants under the Sun)
DR13 0.00 dB -17.11 dB 21:56 04-Ritual (Nous sommes du soleil)
––––––––––––––––––––––––––––––––––––––––

Number of tracks: 4
Official DR value: DR13

Samplerate: 44100 Hz
Channels: 2
Bits per sample: 16
Bitrate: 763 kbps
Codec: FLAC
================================================================================




Original ripper: AlBeOne
Original format: 24/192
Direct Drive Turntable: ClearAudio
Cartridge: Aurum Alpha Wood mkII
Amplifier: Musical Fidelity V LPS
ADC: E-mu 1212

Downsampled to 16/44

Yes: Collection (1969 - 2014) [Vinyl Rip 16/44 & mp3-320]

Tracklist VNL07 - 1974 - Relayer:
Atlantic, ST-A-743267

Side 1
"The Gates of Delirium" 21:50

Side 2
"Sound Chaser" 9:26
"To Be Over" 9:06

foobar2000 1.2.9 / Dynamic Range Meter 1.1.1
log date: 2018-04-06 18:09:28

––––––––––––––––––––––––––––––––––––––––
Analyzed: Yes / Relayer
––––––––––––––––––––––––––––––––––––––––

DR Peak RMS Duration Track
––––––––––––––––––––––––––––––––––––––––
DR11 -3.01 dB -17.95 dB 21:53 01-The Gates of Delirium
DR11 -0.10 dB -17.70 dB 9:35 02-Sound Chaser
DR11 -1.75 dB -17.81 dB 9:06 03-To Be Over
––––––––––––––––––––––––––––––––––––––––

Number of tracks: 3
Official DR value: DR11

Samplerate: 44100 Hz
Channels: 2
Bits per sample: 16
Bitrate: 817 kbps
Codec: FLAC
================================================================================




Original ripper: AlBeOne
Original format: 24/192
Direct Drive Turntable: ClearAudio
Cartridge: Aurum Alpha Wood mkII
Amplifier: Musical Fidelity V LPS
ADC: E-mu 1212

Downsampled to 16/44

Yes: Collection (1969 - 2014) [Vinyl Rip 16/44 & mp3-320]

Tracklist VNL08 - 1977 - Going For The One:
Atlantic, ATL 50 379

Side one
1. "Going for the One" (Jon Anderson) – 5:32
2. "Turn of the Century" (Jon Anderson/Steve
Howe/Alan White) – 7:56
3. "Parallels" (Chris Squire) – 5:53

Side two
4. "Wonderous Stories" (Jon Anderson) – 3:49
5. "Awaken" (Jon Anderson/Steve Howe) – 15:31

foobar2000 1.2.9 / Dynamic Range Meter 1.1.1
log date: 2018-04-06 18:09:39

––––––––––––––––––––––––––––––––––––––––
Analyzed: Yes / Going For The One
––––––––––––––––––––––––––––––––––––––––

DR Peak RMS Duration Track
––––––––––––––––––––––––––––––––––––––––
DR12 0.00 dB -14.79 dB 5:33 01-Going For The One
DR12 -1.17 dB -17.94 dB 7:55 02-Turn of the Century
DR12 0.00 dB -14.39 dB 5:53 03-Parallels
DR11 -2.33 dB -17.10 dB 3:50 04-Wonderous Stories
DR12 -1.49 dB -18.19 dB 15:29 05-Awaken
––––––––––––––––––––––––––––––––––––––––

Number of tracks: 5
Official DR value: DR12

Samplerate: 44100 Hz
Channels: 2
Bits per sample: 16
Bitrate: 813 kbps
Codec: FLAC
================================================================================




Original ripper: AlBeOne
Original format: 24/192
Direct Drive Turntable: ClearAudio
Cartridge: Aurum Alpha Wood mkII
Amplifier: Musical Fidelity V LPS
ADC: E-mu 1212

Downsampled to 16/44

Yes: Collection (1969 - 2014) [Vinyl Rip 16/44 & mp3-320]

Tracklist VNL09 - 1978 - Tormato:
Atlanric, SD 19202

Side one
1. "Future Times" (Jon Anderson/Chris Squire/Steve
Howe/Rick Wakeman/Alan White)/ "Rejoice" (Jon
Anderson) – 6:46
2. "Don't Kill the Whale" (Jon Anderson/Chris
Squire) – 3:56
3. "Madrigal" (Jon Anderson/Rick Wakeman) – 2:25
* String arrangement by Andrew Pryce Jackman
from an original idea by Rick Wakeman
4. "Release, Release" (Jon Anderson/Alan
White/Chris Squire) – 5:44

Side two
1. "Arriving UFO" (Jon Anderson/Steve Howe/Rick Wakeman) – 6:07
2. "Circus of Heaven" (Jon Anderson) – 4:31 * Featuring the voice of Jon Anderson's son, Damion
3. "Onward" (Chris Squire) – 4:05 * Arrangement and orchestration by Andrew Pryce Jackman
4. "On the Silent Wings of Freedom" (Jon Anderson/Chris Squire) – 7:47

foobar2000 1.2.9 / Dynamic Range Meter 1.1.1
log date: 2018-04-06 18:19:57

––––––––––––––––––––––––––––––––––––––––
Analyzed: Yes / Tormato
––––––––––––––––––––––––––––––––––––––––

DR Peak RMS Duration Track
––––––––––––––––––––––––––––––––––––––––
DR13 -1.03 dB -17.87 dB 6:51 01-Future Times
DR13 0.00 dB -15.77 dB 3:58 02-Don't Kill the Whale
DR11 -7.64 dB -22.63 dB 2:23 03-Madrigal
DR13 -1.43 dB -16.45 dB 5:46 04-Release, Release
DR12 -1.01 dB -17.01 dB 6:11 05-Arriving UFO
DR14 -5.08 dB -23.97 dB 4:32 06-Circus of Heaven
DR11 -5.92 dB -20.62 dB 4:07 07-Onward
DR13 -1.90 dB -17.75 dB 7:48 08-On the Silent Wings of Freedom
––––––––––––––––––––––––––––––––––––––––

Number of tracks: 8
Official DR value: DR13

Samplerate: 44100 Hz
Channels: 2
Bits per sample: 16
Bitrate: 755 kbps
Codec: FLAC
================================================================================




Original ripper: AlBeOne
Original format: 24/192
Direct Drive Turntable: ClearAudio
Cartridge: ClearAudio Concept MC
Amplifier: Musical Fidelity V LPS
ADC: E-mu 1212

Downsampled to 16/44

Yes: Collection (1969 - 2014) [Vinyl Rip 16/44 & mp3-320]

Tracklist VNL10 - 1980 - Drama:
Warner Pioneer, Japan, P-10854

Side one
1. "Machine Messiah" – 10:27
2. "White Car" – 1:21
3. "Does It Really Happen?" – 6:35

Side two
1. "Into the Lens" – 8:33
2. "Run Through the Light" – 4:43

foobar2000 1.2.9 / Dynamic Range Meter 1.1.1
log date: 2018-04-06 18:09:50

––––––––––––––––––––––––––––––––––––––––
Analyzed: Yes / Drama
––––––––––––––––––––––––––––––––––––––––

DR Peak RMS Duration Track
––––––––––––––––––––––––––––––––––––––––
DR13 0.00 dB -18.63 dB 10:24 01-Machine Messiah
DR11 -4.75 dB -20.57 dB 1:22 02-White Car
DR13 0.00 dB -15.98 dB 6:34 03-Does It Really Happen?
DR13 -0.11 dB -17.10 dB 8:33 04-Into the Lens
DR13 -1.75 dB -17.59 dB 4:40 05-Run Through the Light
DR13 -2.55 dB -17.64 dB 5:17 06-Tempus Fugit
––––––––––––––––––––––––––––––––––––––––

Number of tracks: 6
Official DR value: DR13

Samplerate: 44100 Hz
Channels: 2
Bits per sample: 16
Bitrate: 790 kbps
Codec: FLAC
================================================================================




Original ripper: AlBeOne
Original format: 24/192
Direct Drive Turntable: ClearAudio
Cartridge: Aurum Alpha Wood mkII
Amplifier: Musical Fidelity V LPS
ADC: E-mu 1212

Downsampled to 16/44

Yes: Collection (1969 - 2014) [Vinyl Rip 16/44 & mp3-320]

Tracklist VNL11 - 1983 - 90125:
Atlantic, 90125

Side one
1. "Owner of a Lonely Heart" (Anderson/Horn/Rabin/Squire) – 4:29
2. "Hold On" (Anderson/Rabin/Squire) – 5:16
3. "It Can Happen" (Anderson/Rabin/Squire) – 5:29
4. "Changes" (Anderson/Rabin/White) – 6:20

Side two
5. "Cinema" (Kaye/Rabin/Squire/White) – 2:08
6. "Leave It" (Horn/Rabin/Squire) – 4:14
7. "Our Song" (Anderson/Kaye/Rabin/Squire/White) – 4:18
8. "City of Love" (Anderson/Rabin) – 4:51
9. "Hearts" (Anderson/Kaye/Rabin/Squire/White) – 7:39

foobar2000 1.2.9 / Dynamic Range Meter 1.1.1
log date: 2018-04-06 18:10:05

––––––––––––––––––––––––––––––––––––––––
Analyzed: Yes / 90125
––––––––––––––––––––––––––––––––––––––––

DR Peak RMS Duration Track
––––––––––––––––––––––––––––––––––––––––
DR14 -1.96 dB -18.64 dB 4:31 01-Owner of a Lonely Heart
DR15 -0.78 dB -18.25 dB 5:19 02-Hold On
DR13 -2.67 dB -18.85 dB 5:29 03-It Can Happen
DR14 -0.71 dB -18.36 dB 6:21 04-Changes
DR11 -5.33 dB -18.15 dB 2:06 05-Cinema
DR12 -2.14 dB -19.41 dB 4:16 06-Leave It
DR14 -1.64 dB -18.12 dB 4:16 07-Our Song
DR13 -0.63 dB -18.29 dB 4:53 08-City of Love
DR13 -4.06 dB -20.71 dB 7:37 09-Hearts
––––––––––––––––––––––––––––––––––––––––

Number of tracks: 9
Official DR value: DR13

Samplerate: 44100 Hz
Channels: 2
Bits per sample: 16
Bitrate: 834 kbps
Codec: FLAC
================================================================================




Original ripper: AlBeOne
Original format: 24/192
Direct Drive Turntable: ClearAudio
Cartridge: Aurum Alpha Wood mkII
Amplifier: Musical Fidelity V LPS
ADC: E-mu 1212

Downsampled to 16/44

Yes: Collection (1969 - 2014) [Vinyl Rip 16/44 & mp3-320]

Tracklist VNL12 - 1987 - Big Generator:
Atlantic, ST-C-876505

Side one
1. "Rhythm of Love" (Jon Anderson/Tony Kaye/Trevor
Rabin/Chris Squire) – 4:47
2. "Big Generator" (Jon Anderson/Tony Kaye/Trevor
Rabin/Chris Squire/Alan White) – 4:33
3. "Shoot High, Aim Low" (Jon Anderson/Tony
Kaye/Trevor Rabin/Chris Squire/Alan White) – 7:01
4. "Almost Like Love" (Jon Anderson/Tony
Kaye/Trevor Rabin/Chris Squire) – 4:58

Side two
1. "Love Will Find a Way" (Trevor Rabin) – 4:50
2. "Final Eyes" (Jon Anderson/Tony Kaye/Trevor
Rabin/Chris Squire) – 6:25
3. "I'm Running" (Jon Anderson/Tony Kaye/Trevor
Rabin/Chris Squire/Alan White) – 7:37
4. "Holy Lamb (Song for Harmonic Convergence)" (Jon
Anderson) – 3:19

foobar2000 1.2.9 / Dynamic Range Meter 1.1.1
log date: 2018-04-06 18:10:19

––––––––––––––––––––––––––––––––––––––––
Analyzed: Yes / Big Generator
––––––––––––––––––––––––––––––––––––––––

DR Peak RMS Duration Track
––––––––––––––––––––––––––––––––––––––––
DR15 -0.74 dB -18.04 dB 4:57 01-Rhythm of Love
DR14 -1.12 dB -17.84 dB 4:35 02-Big Generator
DR14 -1.68 dB -19.09 dB 7:01 03-Shoot High, Aim Low
DR14 -2.24 dB -18.73 dB 5:00 04-Almost Like Love
DR14 -0.80 dB -16.84 dB 4:53 05-Love Will Find a Way
DR12 -1.75 dB -17.71 dB 6:25 06-Final Eyes
DR13 -1.89 dB -18.20 dB 7:38 07-I'm Running
DR14 -2.98 dB -20.61 dB 3:23 08-Holy Lamb (Song for Harmonic Convergence)
––––––––––––––––––––––––––––––––––––––––

Number of tracks: 8
Official DR value: DR14

Samplerate: 44100 Hz
Channels: 2
Bits per sample: 16
Bitrate: 855 kbps
Codec: FLAC
================================================================================




Original ripper: AlBeOne
Original format: 24/192
Direct Drive Turntable: ClearAudio
Cartridge: Aurum Alpha Wood mkII
Amplifier: Musical Fidelity V LPS
ADC: E-mu 1212

Downsampled to 16/44

Yes: Collection (1969 - 2014) [Vinyl Rip 16/44 & mp3-320]

Tracklist VNL13 - 1991 - Union:
Arista, S 211 558

1. "I Would Have Waited Forever" Anderson, Howe, Elias 6:32
2. "Shock to the System" Anderson, Howe, Elias 5:09
3. "Masquerade" Howe 2:17
4. "Lift Me Up" Rabin, Squire 6:30
5. "Without Hope You Cannot Start the Day" Anderson, Elias 5:18
6. "Saving My Heart" Rabin 4:41
7. "Miracle of Life" Rabin, Mark Mancina 7:30
8. "Silent Talking" Anderson, Howe, Wakeman, Bruford, Elias 4:00
9. "The More We Live - Let Go" Squire, Billy Sherwood 4:51
10. "Dangerous (Look in the Light of What You're Searching For)" Anderson, Elias 3:36
11. "Holding On" Anderson, Elias, Howe 5:24
12. "Evensong" Levin, Bruford 0:52
13. "Take the Water to the Mountain" Anderson 3:10

foobar2000 1.2.9 / Dynamic Range Meter 1.1.1
log date: 2018-04-06 18:10:36

––––––––––––––––––––––––––––––––––––––––
Analyzed: Yes / Union
––––––––––––––––––––––––––––––––––––––––

DR Peak RMS Duration Track
––––––––––––––––––––––––––––––––––––––––
DR12 -6.48 dB -20.90 dB 6:34 01-I Would Have Waited Forever
DR11 -7.10 dB -20.91 dB 5:10 02-Shock to the System
DR14 -7.94 dB -26.04 dB 2:18 03-Masquerade
DR12 -2.93 dB -20.08 dB 6:30 04-Lift Me Up
DR13 -7.24 dB -23.49 dB 5:20 05-Without Hope You Cannot Start the Day
DR12 -6.96 dB -21.49 dB 4:39 06-Saving My Heart
DR12 -4.46 dB -19.71 dB 7:31 07-Miracle of Life
DR11 -5.12 dB -19.52 dB 4:01 08-Silent Talking
DR11 -5.04 dB -19.60 dB 4:54 09-The More We Live - Let Go
DR14 -3.44 dB -20.24 dB 3:39 10-Dangerous (Look in the Light of What You're Searching For)
DR13 -5.64 dB -20.85 dB 5:25 11-Holding On
DR10 -11.80 dB -25.92 dB 0:54 12-Evensong
DR11 -4.75 dB -22.46 dB 3:09 13-Take the Water to the Mountain
––––––––––––––––––––––––––––––––––––––––

Number of tracks: 13
Official DR value: DR12

Samplerate: 44100 Hz
Channels: 2
Bits per sample: 16
Bitrate: 788 kbps
Codec: FLAC
================================================================================




Original ripper: AlBeOne
Original format: 24/192
Direct Drive Turntable: ClearAudio
Cartridge: ClearAudio Concept MC
Amplifier: Musical Fidelity V LPS
ADC: E-mu 1212

Downsampled to 16/44

Yes: Collection (1969 - 2014) [Vinyl Rip 16/44 & mp3-320]

Tracklist VNL14 - 1999 - The Ladder:
Arista, S 211 558

Side 1

A1 - Homeworld 9:36
A2 - It Will Be A Good Day (The River) 4:22

Side 2

B1 - Lightning Strikes
Saxophone, Trumpet, Trombone, Tuba - Marguerita Horns, The 4:36
B2 - Can I? 1:34
B3 - Face To Face 5:05

Side 3

C1 - If Only You Knew 5:45
C2 - To Be Alive (Hep Yadda) 5:09
C3 - Finally 6:03

Side 4

D1 - The Messenger 5:15
D2 - New Language 9:21
D3 - Nine Voices (Longwalker) 3:20

foobar2000 1.2.9 / Dynamic Range Meter 1.1.1
log date: 2018-04-06 18:10:53

––––––––––––––––––––––––––––––––––––––––
Analyzed: Yes / The Ladder
––––––––––––––––––––––––––––––––––––––––

DR Peak RMS Duration Track
––––––––––––––––––––––––––––––––––––––––
DR10 -1.55 dB -15.01 dB 9:32 01-Homeworld (The Ladder)
DR10 -1.61 dB -14.43 dB 4:56 02-It Will Be A Good Day (The River)
DR10 -0.60 dB -13.59 dB 4:35 03-Lightning Strikes
DR11 -2.29 dB -15.28 dB 1:31 04-Can I?
DR10 -1.57 dB -13.65 dB 5:00 05-Face To Face
DR11 -1.86 dB -16.88 dB 5:44 06-If Only You Knew
DR11 -2.54 dB -16.26 dB 5:06 07-To Be Alive (Hep Yadda)
DR11 -3.57 dB -17.62 dB 6:03 08-Finally
DR11 -2.07 dB -16.57 dB 5:12 09-The Messenger
DR10 -1.35 dB -15.06 dB 9:18 10-New Language
DR11 -5.30 dB -20.57 dB 3:20 11-Nine Voices (Longwalker)
––––––––––––––––––––––––––––––––––––––––

Number of tracks: 11
Official DR value: DR10

Samplerate: 44100 Hz
Channels: 2
Bits per sample: 16
Bitrate: 856 kbps
Codec: FLAC
================================================================================




Original ripper: nptoz
Original format: 24/96
Direct Drive Turntable: Roksan Radius 5.2
Cartridge: Lyra Delos
Amplifier: MMusical Fidelity M1
ADC: Lynx HiLo

Downsampled to 16/44

Yes: Collection (1969 - 2014) [Vinyl Rip 16/44 & mp3-320]

Tracklist VNL15 - 2001 - Magnification:
Beyond Music/Eagle/Sireena Records, SIR-4019, 2013

Side1
01. Magnification
02. Spirit Of Survival
03. Don't Go
Side 2
01. Give Love Each Day
02. Can You Imagine
03. We Agree
04. Soft As A Dove
Side 3
01. Dreamtime
02. In The Presence of…
a. Deeper
b. Death Of Ego
c. True Beginner
d. Turn Around And Remember
03. Time Is Time

foobar2000 1.2.9 / Dynamic Range Meter 1.1.1
log date: 2018-04-06 18:11:08

––––––––––––––––––––––––––––––––––––––––
Analyzed: Yes / Magnification
––––––––––––––––––––––––––––––––––––––––

DR Peak RMS Duration Track
––––––––––––––––––––––––––––––––––––––––
DR11 -0.30 dB -13.91 dB 7:18 01-Magnification
DR12 -0.74 dB -16.05 dB 6:03 02-Spirit Of Survival
DR12 -1.68 dB -16.78 dB 4:28 03-Don't Go
DR11 -0.67 dB -15.08 dB 7:44 04-Give Love Each Day
DR12 -0.64 dB -16.71 dB 2:58 05-Can You Imagine
DR11 -1.05 dB -15.69 dB 6:30 06-We Agree
DR11 -5.70 dB -20.06 dB 2:21 07-Soft As A Dove
DR12 -0.35 dB -14.75 dB 10:46 08-Dreamtime
DR12 -0.90 dB -16.54 dB 10:26 09-In The Presence Of…
DR13 -7.89 dB -23.18 dB 2:11 10-Time Is Time
––––––––––––––––––––––––––––––––––––––––

Number of tracks: 10
Official DR value: DR12

Samplerate: 44100 Hz
Channels: 2
Bits per sample: 16
Bitrate: 848 kbps
Codec: FLAC
================================================================================


Original ripper: JonnyB2502
Original format: 32/192
Direct Drive Turntable: Kenwood KP-990
Cartridge: Ortofon MC20 Super 25
Amplifier: WhestTwo (power mod.)
ADC: Roland Quad-Capture

Downsampled to 16/44

Yes: Collection (1969 - 2014) [Vinyl Rip 16/44 & mp3-320]

Tracklist VNL16 - 2011 - Fly From Here:
Frontiers, FR LP 520

1. "Fly from Here – Overture" Trevor Horn, Geoff Downes 1:53
2. "Fly from Here, Part I: We Can Fly" Horn, Downes, Chris Squire 6:00
3. "Fly from Here, Part II: Sad Night at the Airfield" Horn, Downes 6:41
4. "Fly from Here, Part III: Madman at the Screens" Horn, Downes 5:16
5. "Fly from Here, Part IV: Bumpy Ride" Steve Howe 2:15
6. "Fly from Here, Part V: We Can Fly (Reprise)" Horn, Downes, Squire 1:44
7. "The Man You Always Wanted Me to Be" Squire, Gerard Johnson, Simon Sessler 5:07
8. "Life on a Film Set" Horn, Downes 5:01
9. "Hour of Need" Howe 3:07
10. "Solitaire" Howe 3:30
11. "Into the Storm" Squire, Oliver Wakeman, Howe, Horn, Benoît David, Alan White 6:54

foobar2000 1.2.9 / Dynamic Range Meter 1.1.1
log date: 2018-04-06 18:11:21

––––––––––––––––––––––––––––––––––––––––
Analyzed: Yes / Fly From Here
––––––––––––––––––––––––––––––––––––––––

DR Peak RMS Duration Track
––––––––––––––––––––––––––––––––––––––––
DR12 -3.19 dB -17.94 dB 1:56 01-Fly from Here – Overture
DR11 -4.14 dB -17.28 dB 5:59 02-Fly from Here, Part I: We Can Fly
DR10 -3.73 dB -17.57 dB 6:51 03-Fly from Here, Part II: Sad Night at the Airfield
DR13 -3.23 dB -17.63 dB 4:36 04-Fly from Here, Part III: Madman at the Screens
DR12 -3.88 dB -18.57 dB 2:48 05-Fly from Here, Part IV: Bumpy Ride
DR11 -2.81 dB -16.21 dB 1:43 06-Fly from Here, Part V: We Can Fly (Reprise)
DR11 -3.52 dB -16.97 dB 5:08 07-The Man You Always Wanted Me to Be
DR11 -3.61 dB -16.61 dB 5:02 08-Life on a Film Set
DR10 -4.93 dB -17.60 dB 3:07 09-Hour of Need
DR12 -7.79 dB -23.32 dB 3:31 10-Solitaire
DR12 -2.40 dB -15.67 dB 6:55 11-Into the Storm
––––––––––––––––––––––––––––––––––––––––

Number of tracks: 11
Official DR value: DR11

Samplerate: 44100 Hz
Channels: 2
Bits per sample: 16
Bitrate: 781 kbps
Codec: FLAC
================================================================================




Original ripper: AlBeOne
Original format: 24/192
Direct Drive Turntable: ClearAudio
Cartridge: Aurum Alpha Wood mkII
Amplifier: Musical Fidelity V LPS
ADC: E-mu 1212

Downsampled to 16/44

Yes: Collection (1969 - 2014) [Vinyl Rip 16/44 & mp3-320]

Tracklist VNL17 - 2014 - Heaven And Earth:
Frontiers, PRELP 086C-2

01. Believe Again
02. The Game
03. Step Beyond
04. To Ascend
05. In A World Of Our Own
06. Light Of The Ages
07. It Was All We Knew
08. Subway Walls

foobar2000 1.2.9 / Dynamic Range Meter 1.1.1
log date: 2018-04-06 18:11:40

––––––––––––––––––––––––––––––––––––––––
Analyzed: Yes / Heaven And Earth
––––––––––––––––––––––––––––––––––––––––

DR Peak RMS Duration Track
––––––––––––––––––––––––––––––––––––––––
DR13 -1.12 dB -16.01 dB 8:01 01-Believe Again
DR14 -1.39 dB -18.10 dB 6:52 02-The Game
DR13 -3.19 dB -18.65 dB 5:35 03-Step Beyound
DR13 -3.37 dB -19.07 dB 4:44 04-To Ascend
DR12 -2.84 dB -17.55 dB 5:19 05-In A World Of Our Own
DR13 -2.52 dB -19.50 dB 7:40 06-Light Of The Ages
DR12 -2.12 dB -16.93 dB 4:13 07-It Was All We Knew
DR12 -2.40 dB -17.45 dB 9:03 08-Subway Walls
––––––––––––––––––––––––––––––––––––––––

Number of tracks: 8
Official DR value: DR13

Samplerate: 44100 Hz
Channels: 2
Bits per sample: 16
Bitrate: 788 kbps
Codec: FLAC
================================================================================




Original ripper: JonnyB2502
Original format: 32/192
Direct Drive Turntable: Music hall mmf-2.2
Cartridge: Goldring 1022GX
Amplifier: Cambridge Audio 651P + Marantz PM7005
ADC: Roland Quad-Capture

Downsampled to 16/44


All thanks go to the original releaser

Decca, Wiener Philharmoniker - 6 Classic Analogue LPs (2014) [Vinyl Rip 16/44]
Beethoven - Chicago Symphony Orchestra / Sir Georg Solti ‎– The Nine Symphonies (1975) [Vinyl Rip 16/44 & mp3-320]
Scorpions: Collection (1974 - 2015) [Vinyl Rip 16/44 & mp3-320]


Slade: Collection (1969 - 1994) [Vinyl Rip 16/44 & mp3-320]
Pink Floyd - Echoes: The Best Of Pink Floyd (2001) [Vinyl Rip 16/44]
Alice Cooper - Paranormal (2017) [Vinyl Rip 16/44 & mp3-320]
Alanis Morissette - MTV Unplugged (1999) [LP & DVD]
Rush: Collection (1974 - 2012) [Vinyl Rip 16/44 & mp3-320]
Manfred Mann's Earth Band: Collection (1967 - 2014) [Vinyl Rip 16/44 & mp3-320]
AC/DC: Discography (1975 - 2014) [Vinyl Rip 16/44 & mp3-320]
Rainbow: Discography (1975 - 1986) [Vinyl Rip 16/44 & mp3-320]
Janis Joplin – The Classic LP Collection (2011) [Vinyl Rip 16/44 & mp3-320]
Donovan: Collection (1965 - 1971) [Vinyl Rip 16/44 & mp3-320]
Amanda Lear: Collection (1978 - 1986) [Vinyl Rip 16/44 & mp3-320]
The Byrds - The Byrds' Greatest Hits (1967) [Vinyl Rip 16/44 & mp3-320]
Space & Didier Marouani: Collection (1977 - 1987) [Vinyl Rip 16/44 & mp3-320]
The Rolling Stones - Double Deluxe (1970) [Vinyl Rip 16/44 & mp3-320]
Rod Stewart: Collection (1969 - 1988) [Vinyl Rip 16/44 & mp3-320]
Rick Wakeman: Collection (1973 - 1981) [Vinyl Rip 16/44 & mp3-320]
Kraftwerk: Collection (1974 - 1991) [Vinyl Rip 16/44 & mp3-320]
Jethro Tull - 20 Years Of J. T. The Definitive Collection (1988) [Vinyl Rip 16/44 & mp3-320]
Testament: Discography (1987-2016) [Vinyl Rip 16/44 & mp3-320]
Roger Waters: Vinyl Collection (1970 - 1992) [Vinyl Rip 16/44 & mp3-320]
Rare Earth: Collection (1969 - 1978) [Vinyl Rip 16/44 & mp3-320]
David Gilmour - Rattle That Lock (2015) [Vinyl Rip 16/44 & mp3-320]
Tarja: Collection (2007 - 2016) [Vinyl Rip 16/44 & mp3-320]
Depeche Mode: Collection (1981 - 2013) [Vinyl Rip 16/44 & mp3-320]
Pink Floyd: Remastered Collection (1967 - 2016) [Vinyl Rip 16/44 & mp3-320]
Sade: Discography (1984 - 2010) [Vinyl Rip 16/44 & MP3-320]
Deep Purple: Collection (1968 - 2017) [Vinyl Rip 16/44 & mp3-320]
Queen: Collection (1973 - 1995) [Vinyl Rip 16/44 & MP3-320]
The Cars: Collection (1978 - 1987) [Vinyl Rip 16/44 & mp3-320]
Metallica: Discography (1983 - 2016) [Vinyl Rip 16/44 & mp3-320]
Bon Jovi - The Albums (2017) [Vinyl Rip 16/44 & mp3-320, Limited Edition Box set]
The Doors: Collection (1967 - 1971) [Vinyl Rip 16/44 & mp3-320]
Black Sabbath: Collection (1970 - 2013) [Vinyl Rip 16/44 & mp3-320]
The Beatles: Discography (1963 - 1988) [Vinyl Rip 16/44 & mp3-320]
Joe Cocker: Collection (1969 - 1991) [Vinyl Rip 16/44 & mp3-320]
Frank Zappa: Collection (1969 - 1981) [Vinyl Rip 16/44 & mp3-320]
Ten Years After: Collection (1967 - 1974) [Vinyl Rip 16/44 & mp3-320]
Dire Straits: Discography (1978 - 1991) [Vinyl Rip 16/44 & mp3-320]
Bonnie Tyler: Collection (1977 - 1986) [Vinyl Rip 16/44 & mp3-320]
The Beatles: Stereo Vinyl Box Set (2012) [Vinyl Rip 16/44 & mp3-320]
Wolfgang Amadeus Mozart - Die Violin Konzerte (1968) [Vinyl Rip 16/44 & mp3-320]
Eagles - The Studio Albums 1972-1979 (2013) [Vinyl Rip 16/44 & mp3-320]
Pink Floyd: Discography (1967 - 2014) [Vinyl Rip 16/44 & mp3-320]
Led Zeppelin: Discography (1969 - 1982) [Vinyl Rip 16/44 & mp3-320]
Manowar: Collection (1982 - 2012) [Vinyl Rip 16/44 & mp3-320]
A-HA: Collection (1985-2015) [Vinyl Rip 16/44 & mp3-320]


Yes or Yes in my Blog

Download Yes: Collection (1969 - 2014):