Subcategories

Yes - Talk (1994) Re-up

Posted By: v3122
Yes - Talk (1994) Re-up

Yes - Talk (1994)
EAC | Flac(Image) + Cue + Log & MP3 CBR 320Kbps
Victory, 383-480-033-2 | ~ 383 or 145 Mb | Scans
Progressive Rock

The tenth lineup of Yes features Jon Anderson, Trevor Rabin, Tony Kaye, Chris Squire, and Alan White. Talk makes some effort to get away from the group's indulgent art rock pretensions, at least to the extent of using a spare, spacious production full of closely miked drums and sharp guitars. (No wonder, since guitarist Trevor Rabin produced the record.) Rabin and Anderson are the main composers, and they fail to come up with really distinctive songs, which may help explain why this album had a lower chart peak than any new Yes album since 1972 and a shorter chart run than any Yes album except the compilation album Classic Yes. In other words, a disaster.

by William Ruhlmann, AMG
Yes - Talk (1994) Re-up


Yes - Talk (1994):

Yes - Talk (1994) Re-up

Tracklist:

01. The Calling (Rabin / Anderson / Squire) (6:57)
02. I Am Waiting (Rabin / Anderson) (7:26)
03. Real Love (Rabin / Squire / Anderson) (8:49)
04. State Of Play (Rabin / Anderson) (5:01)
05. Walls (Rabin / Hodgson / Anderson) (4:57)
06. Where Will You Be (Rabin / Anderson) (6:09)
07. Endless Dream: Silent Spring (Rabin / Anderson) (1:55)
08. Endless Dream: Talk (Rabin / Anderson) (11:55)
09. Endless Dream: Endless Dream (Rabin / Anderson) (1:53)

Musicians:

Jon Anderson: Lead Vocals
Chris Squire: Bass, Backing Vocals
Trevor Rabin: Guitars, Keyboards, Lead & Backing Vocals, Producer, Arranger
Tony Kaye: Hammond organ
Alan White: Drums


Exact Audio Copy V1.1 from 23. June 2015

Отчёт EAC об извлечении, выполненном 16. апреля 2017, 21:02

Yes / Talk

Дисковод: Optiarc DVD RW AD-5280S Adapter: 1 ID: 0

Режим чтения : Достоверность
Использование точного потока : Да
Отключение кэша аудио : Да
Использование указателей C2 : Нет

Коррекция смещения при чтении : 48
Способность читать области Lead-in и Lead-out : Нет
Заполнение пропущенных сэмплов тишиной : Да
Удаление блоков с тишиной в начале и конце : Нет
При вычислениях CRC использовались нулевые сэмплы : Да
Интерфейс : Встроенный Win32-интерфейс для Win NT/2000

Выходной формат : Пользовательский кодировщик
Выбранный битрейт : 768 kBit/s
Качество : Высокий
Добавление ID3-тега : Нет
Утилита сжатия : C:\Program Files (x86)\Exact Audio Copy\FLAC\FLAC.EXE
Дополнительные параметры : -6 -V -T "ARTIST=%artist%" -T "TITLE=%title%" -T "ALBUM=%albumtitle%" -T "DATE=%year%" -T "TRACKNUMBER=%tracknr%" -T "GENRE=%genre%" -T "COMMENT=%comment%" -T "BAND=%albuminterpret%" -T "ALBUMARTIST=%albuminterpret%" -T "COMPOSER=%composer%" %haslyrics%–tag-from-file=LYRICS="%lyricsfile%"%haslyrics% -T "DISCNUMBER=%cdnumber%" -T "TOTALDISCS=%totalcds%" -T "TOTALTRACKS=%numtracks%" %hascover%–picture="%coverfile%"%hascover% %source% -o %dest%


TOC извлечённого CD

Трек | Старт | Длительность | Начальный сектор | Конечный сектор
––––––––––––––––––––––––––––––––––-
1 | 0:00.00 | 6:55.65 | 0 | 31189
2 | 6:55.65 | 7:25.70 | 31190 | 64634
3 | 14:21.60 | 8:48.73 | 64635 | 104307
4 | 23:10.58 | 5:00.55 | 104308 | 126862
5 | 28:11.38 | 4:57.07 | 126863 | 149144
6 | 33:08.45 | 6:09.15 | 149145 | 176834
7 | 39:17.60 | 1:55.68 | 176835 | 185527
8 | 41:13.53 | 11:54.50 | 185528 | 239127
9 | 53:08.28 | 1:52.35 | 239128 | 247562


Характеристики диапазона извлечения и сообщения об ошибках

Выбранный диапазон

Имя файла D:\TEMP\Yes - Talk.wav

Пиковый уровень 98.8 %
Скорость извлечения 3.8 X
Качество диапазона 100.0 %
CRC теста 6420B5E1
CRC копии 6420B5E1
Копирование… OK

Ошибок не произошло


AccurateRip: сводка

Трек 1 : извлечено точно (доверие 1) [DFB9B7CD] (AR v1)
Трек 2 : извлечено точно (доверие 1) [5C5FC013] (AR v1)
Трек 3 : извлечено точно (доверие 2) [6446259C] (AR v1)
Трек 4 : извлечено точно (доверие 1) [C06A725B] (AR v1)
Трек 5 : извлечено точно (доверие 1) [427D54BA] (AR v1)
Трек 6 : извлечено точно (доверие 1) [69AFEA53] (AR v1)
Трек 7 : извлечено точно (доверие 2) [1048A04F] (AR v1)
Трек 8 : извлечено точно (доверие 1) [DD60433C] (AR v1)
Трек 9 : извлечено точно (доверие 1) [30099CEC] (AR v1)

Все треки извлечены точно

Конец отчёта

–– CUETools DB Plugin V2.1.6

[CTDB TOCID: 4.KkAR9yVuhn2Coe8LyoWWotsdg-] found
Submit result: 4.KkAR9yVuhn2Coe8LyoWWotsdg- has been confirmed
Track | CTDB Status
1 | (1/1) Accurately ripped
2 | (1/1) Accurately ripped
3 | (1/1) Accurately ripped
4 | (1/1) Accurately ripped
5 | (1/1) Accurately ripped
6 | (1/1) Accurately ripped
7 | (1/1) Accurately ripped
8 | (1/1) Accurately ripped
9 | (1/1) Accurately ripped



foobar2000 1.2.9 / Dynamic Range Meter 1.1.1
log date: 2015-08-06 11:47:54

––––––––––––––––––––––––––––––––––––––––
Analyzed: Yes / Talk (Victory 383-480-033-2 USA 1994)
––––––––––––––––––––––––––––––––––––––––

DR Peak RMS Duration Track
––––––––––––––––––––––––––––––––––––––––
DR7 -0.08 dB -9.69 dB 6:57 01-The Calling
DR9 -0.08 dB -12.95 dB 7:26 02-I Am Waiting
DR8 -0.08 dB -11.81 dB 8:49 03-Real Love
DR7 -0.03 dB -8.93 dB 5:01 04-State Of Play
DR7 0.00 dB -9.88 dB 4:57 05-Walls
DR13 -0.18 dB -15.91 dB 6:09 06-Where Will You Be
DR9 -0.11 dB -10.95 dB 1:55 07-Endless Dream: Silent Spring
DR8 -0.08 dB -12.20 dB 11:55 08-Endless Dream: Talk
DR12 -4.77 dB -19.67 dB 1:53 09-Endless Dream: Endless Dream
––––––––––––––––––––––––––––––––––––––––

Number of tracks: 9
Official DR value: DR9

Samplerate: 44100 Hz
Channels: 2
Bits per sample: 16
Bitrate: 870 kbps
Codec: FLAC

[CUETools log; Date: 06.08.2015 11:24:01; Version: 2.1.4]
Pregap length 00:00:37.
[CTDB TOCID: 0LsIpmbczSQlQX4cwVeTXdYpkNk-] found.
Track | CTDB Status
1 | (26/27) Accurately ripped
2 | (27/27) Accurately ripped
3 | (27/27) Accurately ripped
4 | (27/27) Accurately ripped
5 | (27/27) Accurately ripped
6 | (27/27) Accurately ripped
7 | (27/27) Accurately ripped
8 | (27/27) Accurately ripped
9 | (27/27) Accurately ripped
[AccurateRip ID: 00143c14-0091d7c8-880ce609] found.
Track [ CRC | V2 ] Status
01 [2bd9cc68|f1d0e3db] (058+043/239) Accurately ripped
02 [656f151a|0e6e7522] (058+043/239) Accurately ripped
03 [adf10605|e6d5b742] (058+041/236) Accurately ripped
04 [1e22f767|00e7e16a] (059+042/237) Accurately ripped
05 [02bfad78|62cd8cc7] (058+041/235) Accurately ripped
06 [0cd6f14c|b93aa8f4] (056+040/232) Accurately ripped
07 [f931b551|172b0bc9] (057+041/236) Accurately ripped
08 [c08c68d8|61ff9835] (055+041/234) Accurately ripped
09 [1eac7116|04140a06] (047+040/234) Accurately ripped
Offsetted by -698:
01 [f22709ae] (002/239) Accurately ripped
02 [f6e3151a] (002/239) Accurately ripped
03 [3ed30091] (002/236) Accurately ripped
04 [8af2f767] (002/237) Accurately ripped
05 [c357b2ec] (002/235) Accurately ripped
06 [161ee91e] (002/232) Accurately ripped
07 [d7a4b00b] (002/236) Accurately ripped
08 [c4edafe5] (002/234) Accurately ripped
09 [e07981c1] (002/234) Accurately ripped
Offsetted by 2591:
01 [f5ecf687] (002/239) Accurately ripped
02 [8f31151a] (002/239) Accurately ripped
03 [85761a43] (002/236) Accurately ripped
04 [3eaaf767] (002/237) Accurately ripped
05 [f3fb993a] (002/235) Accurately ripped
06 [7f4b0fa9] (002/232) Accurately ripped
07 [e21f26d4] (002/236) Accurately ripped
08 [362974c1] (002/234) Accurately ripped
09 [9f7d0d0b] (002/234) Accurately ripped

Track Peak [ CRC32 ] [W/O NULL] [ LOG ]
– 100,0 [62055809] [2B5D55A3] CRC32
01 99,0 [B6CEFB85] [ED337C9D]
02 99,0 [DE12AEF5] [BEA86023]
03 99,0 [71646F8B] [DAD4B812]
04 99,6 [D0CAAB95] [01F775CE]
05 100,0 [734CF9A1] [9A47F3A5]
06 97,9 [33EFF0C1] [B8EF0031]
07 98,7 [9F3B1221] [00812C8D]
08 99,1 [4EF2A5BC] [036995E4]
09 57,7 [0278F004] [FE0FE06F]

Yes - Talk (1994) Re-up

All thanks go to the original releaser

Yes in my Blog

Download Yes - Talk (1994):