Yes - The Yes Album (1971) [MFSL, 2010] (Repost)

Posted By: gribovar
Yes - The Yes Album (1971) [MFSL, 2010] (Repost)

Yes - The Yes Album (1971) [MFSL, 2010]
EAC Rip | FLAC (image+.cue+log) - 281 MB | MP3 CBR 320 kbps (LAME 3.93) - 100 MB | Covers included
Genre: Progressive Rock | RAR 3% Rec. | Label: Mobile Fidelity Sound Lab (UDCD 779)

The album that first gave shape to the established Yes sound, build around science-fiction concepts, folk melodies, and soaring organ, guitar, and vocal showpieces. "Your Move" actually made the U.S. charts as a single, and "Starship Trooper," "Perpetual Change," and "Yours Is No Disgrace" became much-loved parts of the band's concert repertory for many tours to come.
Tracklist:
01. Yours Is No Disgrace
02. The Clap
03. Starship Trooper:
a) Life Seeker
b) Disillusion
c) Wurm
04. I've Seen All Good People:
a) Your Move
b) All Good People
05. A Venture
06. Perpetual Change

Total time: 41:23

Exact Audio Copy V0.99 prebeta 5 from 4. May 2009

EAC extraction logfile from 24. May 2010, 23:14

Yes / The Yes Album (MFSL 24kt Gold UDCD 779)

Used drive : TSSTcorpCD/DVDW TS-H552D Adapter: 0 ID: 0

Read mode : Secure
Utilize accurate stream : Yes
Defeat audio cache : Yes
Make use of C2 pointers : No

Read offset correction : 6
Overread into Lead-In and Lead-Out : No
Fill up missing offset samples with silence : Yes
Delete leading and trailing silent blocks : No
Null samples used in CRC calculations : Yes
Used interface : Installed external ASPI interface

Used output format : Internal WAV Routines
Sample format : 44.100 Hz; 16 Bit; Stereo


TOC of the extracted CD

Track | Start | Length | Start sector | End sector
––––––––––––––––––––––––––––-
1 | 0:00.00 | 9:37.33 | 0 | 43307
2 | 9:37.33 | 3:15.44 | 43308 | 57976
3 | 12:53.02 | 9:28.29 | 57977 | 100605
4 | 22:21.31 | 6:53.43 | 100606 | 131623
5 | 29:14.74 | 3:17.25 | 131624 | 146423
6 | 32:32.24 | 8:50.22 | 146424 | 186195


Range status and errors

Selected range

Filename F:\Rips\Yes - The Yes Album (1971) (MFSL UDCD 779)\Yes - The Yes Album (MFSL 24kt Gold UDCD 779).wav

Peak level 98.9 %
Range quality 100.0 %
Copy CRC 1134E093
Copy OK

No errors occurred


AccurateRip summary

Track 1 not present in database
Track 2 not present in database
Track 3 not present in database
Track 4 not present in database
Track 5 not present in database
Track 6 not present in database

None of the tracks are present in the AccurateRip database

End of status report

[CUETools log; Date: 04.01.2013 4:27:00; Version: 2.0.9]
[CTDB TOCID: D.6ZaTlwwgjARRAAMyeGoDafiwU-] found.
[ CTDBID ] Status
[72a861b2] (41/41) Accurately ripped
[AccurateRip ID: 000a2a17-003573a0-5b09b206] found.
Track [ CRC ] Status
01 [ef350085] (35/48) Accurately ripped
02 [8da0c54c] (35/48) Accurately ripped
03 [24b39add] (36/49) Accurately ripped
04 [a570630c] (35/48) Accurately ripped
05 [21efde8a] (35/48) Accurately ripped
06 [1e88f442] (35/48) Accurately ripped

Track Peak [ CRC32 ] [W/O NULL] [ LOG ]
– 98,9 [1134E093] [73CDCEED] CRC32
01 93,7 [3BDFB075] [A5FBFD5D]
02 97,5 [5298C642] [A36E1817]
03 98,9 [BF222CBD] [EFA528EA]
04 95,8 [277DED19] [0B1F2B21]
05 95,5 [AF5BD555] [B34AE66E]
06 91,2 [23DAF00F] [17085E6C]

Thanks to erro

More MFSL releases from my blog:
MFSL releases

Yes - The Yes Album (1971) [MFSL, 2010] (Repost)
LOSSLESS:

Filepost.com
________________

MP3 320 kbps:

Filepost.com