Subcategories

Yiruma - The Very Best Of Yiruma: Yiruma & Piano (3CD) (2011) {Stomp Music/Warner Music Korea}

Posted By: TestTickles
Yiruma - The Very Best Of Yiruma: Yiruma & Piano (3CD) (2011) {Stomp Music/Warner Music Korea}

Yiruma - The Very Best Of Yiruma: Yiruma & Piano (3CD) (2011) {Stomp Music/Warner Music Korea}
EAC Rip | FLAC with CUE and LOG | scans | 898 mb
MP3 CBR 320 kbps | RAR | 488 mb
Genre: classical, easy listening

The Very Best Of Yiruma: Yiruma & Pian is a 3CD box set by Korean pianist and composer Lee Ru-ma, who goes by the name Yiruma. It features material of his from the early 2000's plus a third disc of what was new material. This was released by Stomp Music/Warner Music Korea.

Yiruma - The Very Best Of Yiruma: Yiruma & Piano (3CD) (2011) {Stomp Music/Warner Music Korea}

DISC 1
01. Wait There
02. Tears On Love
03. I
04. May Be
05. Love Me
06. MeRiver Flows In You
07. It's Your Day
08. When The Love Falls
09. Passing By
10. Do You
11. As You Wish
12. All Myself To You
13. Spring Rain
14. What Beautiful Stars
15. Chaconne
16. Indigo
17. Kiss The Rain
18. Sometimes… Someone
19. The Sunbeams… They Scatter

DISC 2
01. Destiny Of Love
02. 추억과 함께 영원히 둘로 남는다
03. 내 창가에서 보이는 풍경
04. Nocturnal Rainbow
05. Because I Love You
06. Poem
07. Wonder Boy
08. Fotografia
09. Elegy
10. One Day Diary
11. Lord… Hold My Hand
12. Joy
13. Loanna
14. Ribbonized
15. Sky
16. Journey
17. Hope
18. Kiss The Rain (String Ver.)
19. When The Love Falls (String Ver.)

DISC 3
01. 하늘 사이로
02. 너에게 보낸 내 마음
03. 슬픔, 물 위에 잠들다
04. 너의 마음속엔 강이 흐른다 (River Flows In You Feat. Ruvin)
05. 그 끝에는 내가 잊을까
06. 잊혀지는… 잊혀질 시간들
07. 나에게로 (To My Heart)
08. 함께 떠나다 (How Could I)
09. 잠시 (Just For A While)
10. Dream
11. 널 그리다 (The Things I Really)
12. 사랑하기를 (Beloved) By 정재욱
13. 어떻게 날 잊어야 하는지

Exact Audio Copy V1.0 beta 3 from 29. August 2011

EAC extraction logfile from 14. February 2012, 12:08

Yiruma / The Very Best Of Yiruma: Yiruma & Piano (Disc 1)

Used drive : HL-DT-STDVDRAM GH24LS70 Adapter: 0 ID: 1

Read mode : Secure
Utilize accurate stream : Yes
Defeat audio cache : Yes
Make use of C2 pointers : No

Read offset correction : 667
Overread into Lead-In and Lead-Out : No
Fill up missing offset samples with silence : Yes
Delete leading and trailing silent blocks : No
Null samples used in CRC calculations : Yes
Used interface : Native Win32 interface for Win NT & 2000
Gap handling : Appended to previous track

Used output format : User Defined Encoder
Selected bitrate : 896 kBit/s
Quality : High
Add ID3 tag : No
Command line compressor : C:\Program Files (x86)\Exact Audio Copy\Flac\flac.exe
Additional command line options : -8 -V -T "ARTIST=%artist%" -T "TITLE=%title%" -T "ALBUM=%albumtitle%" -T "DATE=%year%" -T "TRACKNUMBER=%tracknr%" -T "TOTALTRACKS=%numtracks%" -T "GENRE=%genre%" -T "ALBUM ARTIST=%albumartist%" -T "COMMENT=L2Bits, EAC V1.0 beta 3 Secure Mode, Test & Copy, AccurateRip, FLAC -8" %source%


TOC of the extracted CD

Track | Start | Length | Start sector | End sector
––––––––––––––––––––––––––––-
1 | 0:00.00 | 4:55.36 | 0 | 22160
2 | 4:55.36 | 3:33.08 | 22161 | 38143
3 | 8:28.44 | 4:11.70 | 38144 | 57038
4 | 12:40.39 | 4:01.21 | 57039 | 75134
5 | 16:41.60 | 4:05.42 | 75135 | 93551
6 | 20:47.27 | 3:08.18 | 93552 | 107669
7 | 23:55.45 | 3:41.46 | 107670 | 124290
8 | 27:37.16 | 3:17.65 | 124291 | 139130
9 | 30:55.06 | 4:36.51 | 139131 | 159881
10 | 35:31.57 | 4:09.09 | 159882 | 178565
11 | 39:40.66 | 2:50.53 | 178566 | 191368
12 | 42:31.44 | 4:18.56 | 191369 | 210774
13 | 46:50.25 | 3:57.17 | 210775 | 228566
14 | 50:47.42 | 2:50.46 | 228567 | 241362
15 | 53:38.13 | 3:50.08 | 241363 | 258620
16 | 57:28.21 | 3:04.35 | 258621 | 272455
17 | 60:32.56 | 4:19.64 | 272456 | 291944
18 | 64:52.45 | 4:20.43 | 291945 | 311487
19 | 69:13.13 | 3:50.71 | 311488 | 328808


Track 1

Filename C:\cuntfist\FLAC\Yiruma - The Very Best Of Yiruma, Yiruma & Piano (3CD) (2011) [FLAC] {Stomp Music, Warner Music Korea}\Disc 1 (2001-2004)\01 - Wait There.wav

Pre-gap length 0:00:02.00

Peak level 98.8 %
Extraction speed 1.1 X
Track quality 99.9 %
Test CRC 862BE4EA
Copy CRC 862BE4EA
Accurately ripped (confidence 1) [5DB11DF8] (AR v1)
Copy OK

Track 2

Filename C:\cuntfist\FLAC\Yiruma - The Very Best Of Yiruma, Yiruma & Piano (3CD) (2011) [FLAC] {Stomp Music, Warner Music Korea}\Disc 1 (2001-2004)\02 - Tears On Love.wav

Pre-gap length 0:00:02.58

Peak level 94.0 %
Extraction speed 1.1 X
Track quality 99.9 %
Test CRC 86608F4E
Copy CRC 86608F4E
Accurately ripped (confidence 1) [CEBB75C7] (AR v1)
Copy OK

Track 3

Filename C:\cuntfist\FLAC\Yiruma - The Very Best Of Yiruma, Yiruma & Piano (3CD) (2011) [FLAC] {Stomp Music, Warner Music Korea}\Disc 1 (2001-2004)\03 - I.wav

Pre-gap length 0:00:02.59

Peak level 98.8 %
Extraction speed 1.4 X
Track quality 100.0 %
Test CRC 4FC0EBD0
Copy CRC 4FC0EBD0
Accurately ripped (confidence 1) [0E2636E3] (AR v1)
Copy OK

Track 4

Filename C:\cuntfist\FLAC\Yiruma - The Very Best Of Yiruma, Yiruma & Piano (3CD) (2011) [FLAC] {Stomp Music, Warner Music Korea}\Disc 1 (2001-2004)\04 - May Be.wav

Pre-gap length 0:00:02.57

Peak level 98.9 %
Extraction speed 1.5 X
Track quality 100.0 %
Test CRC 1BD2D064
Copy CRC 1BD2D064
Accurately ripped (confidence 1) [95FF9368] (AR v1)
Copy OK

Track 5

Filename C:\cuntfist\FLAC\Yiruma - The Very Best Of Yiruma, Yiruma & Piano (3CD) (2011) [FLAC] {Stomp Music, Warner Music Korea}\Disc 1 (2001-2004)\05 - Love Me.wav

Pre-gap length 0:00:02.59

Peak level 98.8 %
Extraction speed 1.6 X
Track quality 100.0 %
Test CRC DD818C6E
Copy CRC DD818C6E
Accurately ripped (confidence 1) [B907CF85] (AR v1)
Copy OK

Track 6

Filename C:\cuntfist\FLAC\Yiruma - The Very Best Of Yiruma, Yiruma & Piano (3CD) (2011) [FLAC] {Stomp Music, Warner Music Korea}\Disc 1 (2001-2004)\06 - MeRiver Flows In You.wav

Pre-gap length 0:00:02.59

Peak level 98.8 %
Extraction speed 1.4 X
Track quality 99.9 %
Test CRC 14A03FCE
Copy CRC 14A03FCE
Accurately ripped (confidence 1) [CD8D1401] (AR v1)
Copy OK

Track 7

Filename C:\cuntfist\FLAC\Yiruma - The Very Best Of Yiruma, Yiruma & Piano (3CD) (2011) [FLAC] {Stomp Music, Warner Music Korea}\Disc 1 (2001-2004)\07 - It's Your Day.wav

Pre-gap length 0:00:02.57

Peak level 98.8 %
Extraction speed 1.7 X
Track quality 100.0 %
Test CRC 5DF0B934
Copy CRC 5DF0B934
Accurately ripped (confidence 1) [18273063] (AR v1)
Copy OK

Track 8

Filename C:\cuntfist\FLAC\Yiruma - The Very Best Of Yiruma, Yiruma & Piano (3CD) (2011) [FLAC] {Stomp Music, Warner Music Korea}\Disc 1 (2001-2004)\08 - When The Love Falls.wav

Pre-gap length 0:00:02.57

Peak level 95.7 %
Extraction speed 1.5 X
Track quality 99.9 %
Test CRC B78E04D4
Copy CRC B78E04D4
Accurately ripped (confidence 1) [C47E72A9] (AR v1)
Copy OK

Track 9

Filename C:\cuntfist\FLAC\Yiruma - The Very Best Of Yiruma, Yiruma & Piano (3CD) (2011) [FLAC] {Stomp Music, Warner Music Korea}\Disc 1 (2001-2004)\09 - Passing By.wav

Pre-gap length 0:00:02.57

Peak level 98.8 %
Extraction speed 1.9 X
Track quality 100.0 %
Test CRC 1D03A618
Copy CRC 1D03A618
Accurately ripped (confidence 1) [FDF93EF1] (AR v1)
Copy OK

Track 10

Filename C:\cuntfist\FLAC\Yiruma - The Very Best Of Yiruma, Yiruma & Piano (3CD) (2011) [FLAC] {Stomp Music, Warner Music Korea}\Disc 1 (2001-2004)\10 - Do You.wav

Pre-gap length 0:00:02.56

Peak level 89.0 %
Extraction speed 2.0 X
Track quality 100.0 %
Test CRC DB489132
Copy CRC DB489132
Accurately ripped (confidence 1) [8C5F5E2E] (AR v1)
Copy OK

Track 11

Filename C:\cuntfist\FLAC\Yiruma - The Very Best Of Yiruma, Yiruma & Piano (3CD) (2011) [FLAC] {Stomp Music, Warner Music Korea}\Disc 1 (2001-2004)\11 - As You Wish.wav

Pre-gap length 0:00:02.58

Peak level 72.7 %
Extraction speed 1.9 X
Track quality 100.0 %
Test CRC 6DC13D51
Copy CRC 6DC13D51
Accurately ripped (confidence 1) [B74A9519] (AR v1)
Copy OK

Track 12

Filename C:\cuntfist\FLAC\Yiruma - The Very Best Of Yiruma, Yiruma & Piano (3CD) (2011) [FLAC] {Stomp Music, Warner Music Korea}\Disc 1 (2001-2004)\12 - All Myself To You.wav

Pre-gap length 0:00:02.58

Peak level 96.1 %
Extraction speed 2.1 X
Track quality 100.0 %
Test CRC ECDED0E3
Copy CRC ECDED0E3
Accurately ripped (confidence 1) [BF5F7BC7] (AR v1)
Copy OK

Track 13

Filename C:\cuntfist\FLAC\Yiruma - The Very Best Of Yiruma, Yiruma & Piano (3CD) (2011) [FLAC] {Stomp Music, Warner Music Korea}\Disc 1 (2001-2004)\13 - Spring Rain.wav

Pre-gap length 0:00:02.58

Peak level 85.9 %
Extraction speed 2.1 X
Track quality 100.0 %
Test CRC 7E5048EA
Copy CRC 7E5048EA
Accurately ripped (confidence 1) [88C4C462] (AR v1)
Copy OK

Track 14

Filename C:\cuntfist\FLAC\Yiruma - The Very Best Of Yiruma, Yiruma & Piano (3CD) (2011) [FLAC] {Stomp Music, Warner Music Korea}\Disc 1 (2001-2004)\14 - What Beautiful Stars.wav

Pre-gap length 0:00:02.59

Peak level 86.7 %
Extraction speed 1.7 X
Track quality 99.9 %
Test CRC E02B3FC4
Copy CRC E02B3FC4
Accurately ripped (confidence 1) [C4AB8E29] (AR v1)
Copy OK

Track 15

Filename C:\cuntfist\FLAC\Yiruma - The Very Best Of Yiruma, Yiruma & Piano (3CD) (2011) [FLAC] {Stomp Music, Warner Music Korea}\Disc 1 (2001-2004)\15 - Chaconne.wav

Pre-gap length 0:00:02.59

Peak level 97.1 %
Extraction speed 1.7 X
Track quality 99.9 %
Test CRC 5F259718
Copy CRC 5F259718
Accurately ripped (confidence 1) [94E88B9F] (AR v1)
Copy OK

Track 16

Filename C:\cuntfist\FLAC\Yiruma - The Very Best Of Yiruma, Yiruma & Piano (3CD) (2011) [FLAC] {Stomp Music, Warner Music Korea}\Disc 1 (2001-2004)\16 - Indigo.wav

Pre-gap length 0:00:02.58

Peak level 98.8 %
Extraction speed 2.2 X
Track quality 100.0 %
Test CRC 6B5BA645
Copy CRC 6B5BA645
Accurately ripped (confidence 1) [C672B34A] (AR v1)
Copy OK

Track 17

Filename C:\cuntfist\FLAC\Yiruma - The Very Best Of Yiruma, Yiruma & Piano (3CD) (2011) [FLAC] {Stomp Music, Warner Music Korea}\Disc 1 (2001-2004)\17 - Kiss The Rain.wav

Pre-gap length 0:00:02.58

Peak level 82.4 %
Extraction speed 2.4 X
Track quality 100.0 %
Test CRC A3A610BB
Copy CRC A3A610BB
Accurately ripped (confidence 1) [25778FFD] (AR v1)
Copy OK

Track 18

Filename C:\cuntfist\FLAC\Yiruma - The Very Best Of Yiruma, Yiruma & Piano (3CD) (2011) [FLAC] {Stomp Music, Warner Music Korea}\Disc 1 (2001-2004)\18 - Sometimes… Someone.wav

Pre-gap length 0:00:02.58

Peak level 98.8 %
Extraction speed 2.2 X
Track quality 99.9 %
Test CRC B97F264C
Copy CRC B97F264C
Accurately ripped (confidence 1) [3848E6FE] (AR v1)
Copy OK

Track 19

Filename C:\cuntfist\FLAC\Yiruma - The Very Best Of Yiruma, Yiruma & Piano (3CD) (2011) [FLAC] {Stomp Music, Warner Music Korea}\Disc 1 (2001-2004)\19 - The Sunbeams… They Scatter.wav

Pre-gap length 0:00:02.59

Peak level 98.8 %
Extraction speed 2.5 X
Track quality 100.0 %
Test CRC D7919D28
Copy CRC D7919D28
Accurately ripped (confidence 1) [7EB70039] (AR v1)
Copy OK


All tracks accurately ripped

No errors occurred

End of status report

==== Log checksum C1BED22BBFE4F6DC7F53D7B282AE68DC5B4F3461D6E3B2871E2CBD32F4DBFE12 ====







Exact Audio Copy V1.0 beta 3 from 29. August 2011

EAC extraction logfile from 14. February 2012, 05:46

Yiruma / The Very Best Of Yiruma: Yiruma & Piano (Disc 2)

Used drive : HL-DT-STDVDRAM GH24LS70 Adapter: 0 ID: 1

Read mode : Secure
Utilize accurate stream : Yes
Defeat audio cache : Yes
Make use of C2 pointers : No

Read offset correction : 667
Overread into Lead-In and Lead-Out : No
Fill up missing offset samples with silence : Yes
Delete leading and trailing silent blocks : No
Null samples used in CRC calculations : Yes
Used interface : Native Win32 interface for Win NT & 2000
Gap handling : Appended to previous track

Used output format : User Defined Encoder
Selected bitrate : 896 kBit/s
Quality : High
Add ID3 tag : No
Command line compressor : C:\Program Files (x86)\Exact Audio Copy\Flac\flac.exe
Additional command line options : -8 -V -T "ARTIST=%artist%" -T "TITLE=%title%" -T "ALBUM=%albumtitle%" -T "DATE=%year%" -T "TRACKNUMBER=%tracknr%" -T "TOTALTRACKS=%numtracks%" -T "GENRE=%genre%" -T "ALBUM ARTIST=%albumartist%" -T "COMMENT=L2Bits, EAC V1.0 beta 3 Secure Mode, Test & Copy, AccurateRip, FLAC -8" %source%


TOC of the extracted CD

Track | Start | Length | Start sector | End sector
––––––––––––––––––––––––––––-
1 | 0:00.00 | 4:49.06 | 0 | 21680
2 | 4:49.06 | 3:32.26 | 21681 | 37606
3 | 8:21.32 | 3:27.12 | 37607 | 53143
4 | 11:48.44 | 3:47.65 | 53144 | 70233
5 | 15:36.34 | 3:33.05 | 70234 | 86213
6 | 19:09.39 | 3:12.57 | 86214 | 100670
7 | 22:22.21 | 3:56.35 | 100671 | 118405
8 | 26:18.56 | 4:23.27 | 118406 | 138157
9 | 30:42.08 | 4:23.49 | 138158 | 157931
10 | 35:05.57 | 7:39.36 | 157932 | 192392
11 | 42:45.18 | 3:24.74 | 192393 | 207766
12 | 46:10.17 | 3:29.68 | 207767 | 223509
13 | 49:40.10 | 4:22.72 | 223510 | 243231
14 | 54:03.07 | 5:30.49 | 243232 | 268030
15 | 59:33.56 | 3:47.29 | 268031 | 285084
16 | 63:21.10 | 3:55.25 | 285085 | 302734
17 | 67:16.35 | 2:51.17 | 302735 | 315576
18 | 70:07.52 | 4:24.58 | 315577 | 335434
19 | 74:32.35 | 3:48.01 | 335435 | 352535


Track 1

Filename C:\cuntfist\FLAC\Yiruma - The Very Best Of Yiruma, Yiruma & Piano (3CD) (2011) [FLAC] {Stomp Music, Warner Music Korea}\Disc 2 (2005-2008)\01 - Destiny Of Love.wav

Pre-gap length 0:00:02.00

Peak level 98.8 %
Extraction speed 1.1 X
Track quality 100.0 %
Test CRC F24A2E17
Copy CRC F24A2E17
Accurately ripped (confidence 1) [F8F8C08F] (AR v1)
Copy OK

Track 2

Filename C:\cuntfist\FLAC\Yiruma - The Very Best Of Yiruma, Yiruma & Piano (3CD) (2011) [FLAC] {Stomp Music, Warner Music Korea}\Disc 2 (2005-2008)\02 - 추억과 함께 영원히 둘로 남는다.wav

Pre-gap length 0:00:02.58

Peak level 98.8 %
Extraction speed 1.2 X
Track quality 100.0 %
Test CRC D312B695
Copy CRC D312B695
Accurately ripped (confidence 1) [8794BFF7] (AR v1)
Copy OK

Track 3

Filename C:\cuntfist\FLAC\Yiruma - The Very Best Of Yiruma, Yiruma & Piano (3CD) (2011) [FLAC] {Stomp Music, Warner Music Korea}\Disc 2 (2005-2008)\03 - 내 창가에서 보이는 풍경.wav

Pre-gap length 0:00:02.38

Peak level 98.4 %
Extraction speed 1.0 X
Track quality 99.9 %
Test CRC 294F25C3
Copy CRC 294F25C3
Accurately ripped (confidence 1) [78C2275A] (AR v1)
Copy OK

Track 4

Filename C:\cuntfist\FLAC\Yiruma - The Very Best Of Yiruma, Yiruma & Piano (3CD) (2011) [FLAC] {Stomp Music, Warner Music Korea}\Disc 2 (2005-2008)\04 - Nocturnal Rainbow.wav

Pre-gap length 0:00:02.58

Peak level 83.2 %
Extraction speed 1.3 X
Track quality 100.0 %
Test CRC E49D91F7
Copy CRC E49D91F7
Accurately ripped (confidence 1) [A97444C0] (AR v1)
Copy OK

Track 5

Filename C:\cuntfist\FLAC\Yiruma - The Very Best Of Yiruma, Yiruma & Piano (3CD) (2011) [FLAC] {Stomp Music, Warner Music Korea}\Disc 2 (2005-2008)\05 - Because I Love You.wav

Pre-gap length 0:00:02.58

Peak level 98.8 %
Extraction speed 1.4 X
Track quality 100.0 %
Test CRC 8A881A0A
Copy CRC 8A881A0A
Accurately ripped (confidence 1) [9159C80A] (AR v1)
Copy OK

Track 6

Filename C:\cuntfist\FLAC\Yiruma - The Very Best Of Yiruma, Yiruma & Piano (3CD) (2011) [FLAC] {Stomp Music, Warner Music Korea}\Disc 2 (2005-2008)\06 - Poem.wav

Pre-gap length 0:00:02.60

Peak level 88.0 %
Extraction speed 1.4 X
Track quality 100.0 %
Test CRC 1527AB24
Copy CRC 1527AB24
Accurately ripped (confidence 1) [ACF20166] (AR v1)
Copy OK

Track 7

Filename C:\cuntfist\FLAC\Yiruma - The Very Best Of Yiruma, Yiruma & Piano (3CD) (2011) [FLAC] {Stomp Music, Warner Music Korea}\Disc 2 (2005-2008)\07 - Wonder Boy.wav

Pre-gap length 0:00:02.59

Peak level 96.3 %
Extraction speed 1.6 X
Track quality 100.0 %
Test CRC 7097A234
Copy CRC 7097A234
Accurately ripped (confidence 1) [765DDE84] (AR v1)
Copy OK

Track 8

Filename C:\cuntfist\FLAC\Yiruma - The Very Best Of Yiruma, Yiruma & Piano (3CD) (2011) [FLAC] {Stomp Music, Warner Music Korea}\Disc 2 (2005-2008)\08 - Fotografia.wav

Pre-gap length 0:00:02.10

Peak level 83.2 %
Extraction speed 1.7 X
Track quality 100.0 %
Test CRC E2CD003B
Copy CRC E2CD003B
Accurately ripped (confidence 1) [F9EF4DB8] (AR v1)
Copy OK

Track 9

Filename C:\cuntfist\FLAC\Yiruma - The Very Best Of Yiruma, Yiruma & Piano (3CD) (2011) [FLAC] {Stomp Music, Warner Music Korea}\Disc 2 (2005-2008)\09 - Elegy.wav

Pre-gap length 0:00:01.58

Peak level 98.8 %
Extraction speed 1.8 X
Track quality 100.0 %
Test CRC CB634036
Copy CRC CB634036
Accurately ripped (confidence 1) [47109696] (AR v1)
Copy OK

Track 10

Filename C:\cuntfist\FLAC\Yiruma - The Very Best Of Yiruma, Yiruma & Piano (3CD) (2011) [FLAC] {Stomp Music, Warner Music Korea}\Disc 2 (2005-2008)\10 - One Day Diary.wav

Pre-gap length 0:00:02.12

Peak level 82.4 %
Extraction speed 1.8 X
Track quality 99.9 %
Test CRC 7B7FB1EE
Copy CRC 7B7FB1EE
Accurately ripped (confidence 1) [B2D58B72] (AR v1)
Copy OK

Track 11

Filename C:\cuntfist\FLAC\Yiruma - The Very Best Of Yiruma, Yiruma & Piano (3CD) (2011) [FLAC] {Stomp Music, Warner Music Korea}\Disc 2 (2005-2008)\11 - Lord… Hold My Hand.wav

Pre-gap length 0:00:01.15

Peak level 95.7 %
Extraction speed 1.9 X
Track quality 100.0 %
Test CRC 5C9EAB4B
Copy CRC 5C9EAB4B
Cannot be verified as accurate (confidence 1) [438189E2], AccurateRip returned [DEBAA574] (AR v2)
Copy OK

Track 12

Filename C:\cuntfist\FLAC\Yiruma - The Very Best Of Yiruma, Yiruma & Piano (3CD) (2011) [FLAC] {Stomp Music, Warner Music Korea}\Disc 2 (2005-2008)\12 - Joy.wav

Pre-gap length 0:00:01.18

Peak level 98.8 %
Extraction speed 1.4 X
Track quality 99.9 %
Test CRC 107F724A
Copy CRC 107F724A
Accurately ripped (confidence 1) [0D6EFE06] (AR v1)
Copy OK

Track 13

Filename C:\cuntfist\FLAC\Yiruma - The Very Best Of Yiruma, Yiruma & Piano (3CD) (2011) [FLAC] {Stomp Music, Warner Music Korea}\Disc 2 (2005-2008)\13 - Loanna.wav

Pre-gap length 0:00:02.58

Peak level 98.8 %
Extraction speed 1.8 X
Track quality 99.9 %
Test CRC 9B7BB30D
Copy CRC 9B7BB30D
Accurately ripped (confidence 1) [FFDF7F8E] (AR v1)
Copy OK

Track 14

Filename C:\cuntfist\FLAC\Yiruma - The Very Best Of Yiruma, Yiruma & Piano (3CD) (2011) [FLAC] {Stomp Music, Warner Music Korea}\Disc 2 (2005-2008)\14 - Ribbonized.wav

Pre-gap length 0:00:02.58

Peak level 98.8 %
Extraction speed 2.0 X
Track quality 99.9 %
Test CRC AEE78693
Copy CRC AEE78693
Accurately ripped (confidence 1) [1F7C15C6] (AR v1)
Copy OK

Track 15

Filename C:\cuntfist\FLAC\Yiruma - The Very Best Of Yiruma, Yiruma & Piano (3CD) (2011) [FLAC] {Stomp Music, Warner Music Korea}\Disc 2 (2005-2008)\15 - Sky.wav

Pre-gap length 0:00:02.58

Peak level 82.5 %
Extraction speed 1.8 X
Track quality 99.9 %
Test CRC A9D34B28
Copy CRC A9D34B28
Accurately ripped (confidence 1) [337523A2] (AR v1)
Copy OK

Track 16

Filename C:\cuntfist\FLAC\Yiruma - The Very Best Of Yiruma, Yiruma & Piano (3CD) (2011) [FLAC] {Stomp Music, Warner Music Korea}\Disc 2 (2005-2008)\16 - Journey.wav

Pre-gap length 0:00:02.59

Peak level 96.1 %
Extraction speed 2.2 X
Track quality 100.0 %
Test CRC 6CB1820F
Copy CRC 6CB1820F
Accurately ripped (confidence 1) [9D507F75] (AR v1)
Copy OK

Track 17

Filename C:\cuntfist\FLAC\Yiruma - The Very Best Of Yiruma, Yiruma & Piano (3CD) (2011) [FLAC] {Stomp Music, Warner Music Korea}\Disc 2 (2005-2008)\17 - Hope.wav

Pre-gap length 0:00:02.59

Peak level 98.8 %
Extraction speed 2.1 X
Track quality 100.0 %
Test CRC 32BF5A8F
Copy CRC 32BF5A8F
Accurately ripped (confidence 1) [92C20D5E] (AR v1)
Copy OK

Track 18

Filename C:\cuntfist\FLAC\Yiruma - The Very Best Of Yiruma, Yiruma & Piano (3CD) (2011) [FLAC] {Stomp Music, Warner Music Korea}\Disc 2 (2005-2008)\18 - Kiss The Rain (String Ver.).wav

Pre-gap length 0:00:02.58

Peak level 89.3 %
Extraction speed 2.3 X
Track quality 100.0 %
Test CRC 76BE8406
Copy CRC 76BE8406
Accurately ripped (confidence 1) [2CD9E00E] (AR v1)
Copy OK

Track 19

Filename C:\cuntfist\FLAC\Yiruma - The Very Best Of Yiruma, Yiruma & Piano (3CD) (2011) [FLAC] {Stomp Music, Warner Music Korea}\Disc 2 (2005-2008)\19 - When The Love Falls (String Ver.).wav

Pre-gap length 0:00:02.59

Peak level 98.8 %
Extraction speed 1.2 X
Track quality 99.7 %
Test CRC 8FB068C5
Copy CRC 8FB068C5
Cannot be verified as accurate (confidence 1) [131A263C], AccurateRip returned [83B48092] (AR v2)
Copy OK


17 track(s) accurately ripped
2 track(s) could not be verified as accurate

Some tracks could not be verified as accurate

No errors occurred

End of status report

==== Log checksum B2E58D5CDE93D6B0CA01D5788E98247DDE27F4E40003021C824FEBEBFCFA3C25 ====







Exact Audio Copy V1.0 beta 3 from 29. August 2011

EAC extraction logfile from 14. February 2012, 13:08

Yiruma / The Very Best Of Yiruma: Yiruma & Piano (Disc 3)

Used drive : HL-DT-STDVDRAM GH24LS70 Adapter: 0 ID: 1

Read mode : Secure
Utilize accurate stream : Yes
Defeat audio cache : Yes
Make use of C2 pointers : No

Read offset correction : 667
Overread into Lead-In and Lead-Out : No
Fill up missing offset samples with silence : Yes
Delete leading and trailing silent blocks : No
Null samples used in CRC calculations : Yes
Used interface : Native Win32 interface for Win NT & 2000
Gap handling : Appended to previous track

Used output format : User Defined Encoder
Selected bitrate : 896 kBit/s
Quality : High
Add ID3 tag : No
Command line compressor : C:\Program Files (x86)\Exact Audio Copy\Flac\flac.exe
Additional command line options : -8 -V -T "ARTIST=%artist%" -T "TITLE=%title%" -T "ALBUM=%albumtitle%" -T "DATE=%year%" -T "TRACKNUMBER=%tracknr%" -T "TOTALTRACKS=%numtracks%" -T "GENRE=%genre%" -T "ALBUM ARTIST=%albumartist%" -T "COMMENT=L2Bits, EAC V1.0 beta 3 Secure Mode, Test & Copy, AccurateRip, FLAC -8" %source%


TOC of the extracted CD

Track | Start | Length | Start sector | End sector
––––––––––––––––––––––––––––-
1 | 0:00.00 | 1:05.28 | 0 | 4902
2 | 1:05.28 | 3:34.24 | 4903 | 20976
3 | 4:39.52 | 4:08.73 | 20977 | 39649
4 | 8:48.50 | 3:42.02 | 39650 | 56301
5 | 12:30.52 | 4:32.62 | 56302 | 76763
6 | 17:03.39 | 2:34.14 | 76764 | 88327
7 | 19:37.53 | 4:39.49 | 88328 | 109301
8 | 24:17.27 | 1:55.64 | 109302 | 117990
9 | 26:13.16 | 4:03.09 | 117991 | 136224
10 | 30:16.25 | 4:15.04 | 136225 | 155353
11 | 34:31.29 | 3:29.03 | 155354 | 171031
12 | 38:00.32 | 4:38.44 | 171032 | 191925
13 | 42:39.01 | 3:38.50 | 191926 | 208325


Track 1

Filename C:\cuntfist\FLAC\Yiruma - The Very Best Of Yiruma, Yiruma & Piano (3CD) (2011) [FLAC] {Stomp Music, Warner Music Korea}\Disc 3 (Special Edition, New Movement)\01 - 하늘 사이로.wav

Pre-gap length 0:00:02.00

Peak level 71.3 %
Extraction speed 0.5 X
Track quality 99.8 %
Test CRC 0C016E1A
Copy CRC 0C016E1A
Track not present in AccurateRip database
Copy OK

Track 2

Filename C:\cuntfist\FLAC\Yiruma - The Very Best Of Yiruma, Yiruma & Piano (3CD) (2011) [FLAC] {Stomp Music, Warner Music Korea}\Disc 3 (Special Edition, New Movement)\02 - 너에게 보낸 내 마음.wav

Pre-gap length 0:00:02.60

Peak level 95.5 %
Extraction speed 1.0 X
Track quality 100.0 %
Test CRC DAB6F3C6
Copy CRC DAB6F3C6
Track not present in AccurateRip database
Copy OK

Track 3

Filename C:\cuntfist\FLAC\Yiruma - The Very Best Of Yiruma, Yiruma & Piano (3CD) (2011) [FLAC] {Stomp Music, Warner Music Korea}\Disc 3 (Special Edition, New Movement)\03 - 슬픔, 물 위에 잠들다.wav

Pre-gap length 0:00:02.59

Peak level 92.9 %
Extraction speed 1.0 X
Track quality 99.9 %
Test CRC E8768EF0
Copy CRC E8768EF0
Track not present in AccurateRip database
Copy OK

Track 4

Filename C:\cuntfist\FLAC\Yiruma - The Very Best Of Yiruma, Yiruma & Piano (3CD) (2011) [FLAC] {Stomp Music, Warner Music Korea}\Disc 3 (Special Edition, New Movement)\04 - 너의 마음속엔 강이 흐른다 (River Flows In You Feat. Ruvin).wav

Pre-gap length 0:00:02.58

Peak level 95.8 %
Extraction speed 1.2 X
Track quality 100.0 %
Test CRC 3AA2091D
Copy CRC 3AA2091D
Track not present in AccurateRip database
Copy OK

Track 5

Filename C:\cuntfist\FLAC\Yiruma - The Very Best Of Yiruma, Yiruma & Piano (3CD) (2011) [FLAC] {Stomp Music, Warner Music Korea}\Disc 3 (Special Edition, New Movement)\05 - 그 끝에는 내가 잊을까.wav

Pre-gap length 0:00:02.59

Peak level 95.7 %
Extraction speed 1.3 X
Track quality 100.0 %
Test CRC 889F5476
Copy CRC 889F5476
Track not present in AccurateRip database
Copy OK

Track 6

Filename C:\cuntfist\FLAC\Yiruma - The Very Best Of Yiruma, Yiruma & Piano (3CD) (2011) [FLAC] {Stomp Music, Warner Music Korea}\Disc 3 (Special Edition, New Movement)\06 - 잊혀지는… 잊혀질 시간들.wav

Pre-gap length 0:00:02.60

Peak level 95.6 %
Extraction speed 1.3 X
Track quality 100.0 %
Test CRC A493EC16
Copy CRC A493EC16
Track not present in AccurateRip database
Copy OK

Track 7

Filename C:\cuntfist\FLAC\Yiruma - The Very Best Of Yiruma, Yiruma & Piano (3CD) (2011) [FLAC] {Stomp Music, Warner Music Korea}\Disc 3 (Special Edition, New Movement)\07 - 나에게로(To My Heart).wav

Pre-gap length 0:00:02.59

Peak level 96.1 %
Extraction speed 1.5 X
Track quality 100.0 %
Test CRC 382F789C
Copy CRC 382F789C
Track not present in AccurateRip database
Copy OK

Track 8

Filename C:\cuntfist\FLAC\Yiruma - The Very Best Of Yiruma, Yiruma & Piano (3CD) (2011) [FLAC] {Stomp Music, Warner Music Korea}\Disc 3 (Special Edition, New Movement)\08 - 함께 떠나다(How Could I).wav

Pre-gap length 0:00:02.59

Peak level 95.5 %
Extraction speed 1.1 X
Track quality 99.9 %
Test CRC 5899D15A
Copy CRC 5899D15A
Track not present in AccurateRip database
Copy OK

Track 9

Filename C:\cuntfist\FLAC\Yiruma - The Very Best Of Yiruma, Yiruma & Piano (3CD) (2011) [FLAC] {Stomp Music, Warner Music Korea}\Disc 3 (Special Edition, New Movement)\09 - 잠시(Just For A While).wav

Pre-gap length 0:00:02.59

Peak level 98.9 %
Extraction speed 1.6 X
Track quality 100.0 %
Test CRC E8BCAE45
Copy CRC E8BCAE45
Track not present in AccurateRip database
Copy OK

Track 10

Filename C:\cuntfist\FLAC\Yiruma - The Very Best Of Yiruma, Yiruma & Piano (3CD) (2011) [FLAC] {Stomp Music, Warner Music Korea}\Disc 3 (Special Edition, New Movement)\10 - Dream.wav

Pre-gap length 0:00:02.60

Peak level 98.8 %
Extraction speed 1.7 X
Track quality 100.0 %
Test CRC 2CD7129E
Copy CRC 2CD7129E
Track not present in AccurateRip database
Copy OK

Track 11

Filename C:\cuntfist\FLAC\Yiruma - The Very Best Of Yiruma, Yiruma & Piano (3CD) (2011) [FLAC] {Stomp Music, Warner Music Korea}\Disc 3 (Special Edition, New Movement)\11 - 널 그리다 (The Things I Really).wav

Pre-gap length 0:00:03.57

Peak level 98.7 %
Extraction speed 1.7 X
Track quality 100.0 %
Test CRC EFBB3AFF
Copy CRC EFBB3AFF
Track not present in AccurateRip database
Copy OK

Track 12

Filename C:\cuntfist\FLAC\Yiruma - The Very Best Of Yiruma, Yiruma & Piano (3CD) (2011) [FLAC] {Stomp Music, Warner Music Korea}\Disc 3 (Special Edition, New Movement)\12 - 사랑하기를 (Beloved) By 정재욱.wav

Pre-gap length 0:00:02.59

Peak level 78.5 %
Extraction speed 1.9 X
Track quality 100.0 %
Test CRC 9086D802
Copy CRC 9086D802
Track not present in AccurateRip database
Copy OK

Track 13

Filename C:\cuntfist\FLAC\Yiruma - The Very Best Of Yiruma, Yiruma & Piano (3CD) (2011) [FLAC] {Stomp Music, Warner Music Korea}\Disc 3 (Special Edition, New Movement)\13 - 어떻게 날 잊어야 하는지.wav

Pre-gap length 0:00:02.59

Peak level 89.2 %
Extraction speed 1.9 X
Track quality 100.0 %
Test CRC 417EDAA2
Copy CRC 417EDAA2
Track not present in AccurateRip database
Copy OK


None of the tracks are present in the AccurateRip database

No errors occurred

End of status report

==== Log checksum EA4440C454033DA42BA4D3DB162B27BFC87C7D5AF6F7D2AD23524FD6FC92CADA ====


Yiruma - The Very Best Of Yiruma: Yiruma & Piano (3CD) (2011) {Stomp Music/Warner Music Korea}


Thank you to the original uploader.