Subcategories

Yusuf (Cat Stevens) - Tell ‘em I’m Gone (2014)

Posted By: hill0
Yusuf (Cat Stevens) - Tell ‘em I’m Gone (2014)

Yusuf (Cat Stevens) - Tell ‘em I’m Gone (2014)
EAC Rip | FLAC (tracks & cue & log) | 215 MB | MP3 CBR 320 kbps | 84 MB | Artwork (PNG) | 420 MB | 36:02
Genre: Folk Rock / Singer-Songwriters | Country: UK | Label: Legacy | 88875017052

Tell 'Em I'm Gone is the first new Yusuf album to be released since 2009 s acclaimed Roadsinger. Recorded all over the world, including Los Angeles, Dubai, Brussels, and London, the album features 10 brand-new studio recordings, including five originals and five carefully-chosen cover songs. Tell 'Em I'm Gone features musical contributions from Richard Thompson, blues harmonica legend Charlie Musselwhite, singer-songwriter Bonnie 'Prince' Billy, Tuareg group Tinariwen, and guitarist Matt Sweeney. The album was produced by Yusuf, with Rick Rubin also producing select tracks.Each track on Tell 'Em I'm Gone revives the age-old themes of freedom and peace that have prevailed through more than four decades of Yusuf's musical career. On this album, Yusuf returns to the roots of his teenage musical inspiration: American blues and R&B, using these genres to explore humanity's climb to freedom with songs that recall the spirit of his earliest days as a nascent singer-songwriter in London.
Yusuf (Cat Stevens) - Tell ‘em I’m Gone (2014)

Stunning originals like "I Was Raised In Babylon" and "Cat And The Dog Trap" plus covers of American standards ("Big Boss Man," "You Are My Sunshine") and a moving version of Edgar Winter's "Dying To Live" find Yusuf as strong of voice and as engaging a performer as ever before.
Yusuf (Cat Stevens) - Tell ‘em I’m Gone (2014)



Tracklist

01. I Was Raised in Babylon (3:53)
02. Big Boss Man (3:11)
03. Dying to Live (3:47)
04. You Are My Sunshine (3:13)
05. Editing Floor Blues (3:42)
06. Cat & The Dog Trap (3:23)
07. Gold Digger (4:34)
08. The Devil Came From Kansas (3:42)
09. Tell 'em I'm Gone (3:12)
10. Doors (3:22)

Exact Audio Copy V1.0 beta 3 from 29. August 2011

EAC extraction logfile from 6. February 2015, 23:08

Yusuf / Tell 'em I'm Gone

Used drive : PLEXTOR DVDR PX-891SAW Adapter: 2 ID: 1

Read mode : Secure
Utilize accurate stream : Yes
Defeat audio cache : Yes
Make use of C2 pointers : No

Read offset correction : 48
Overread into Lead-In and Lead-Out : No
Fill up missing offset samples with silence : Yes
Delete leading and trailing silent blocks : No
Null samples used in CRC calculations : Yes
Used interface : Native Win32 interface for Win NT & 2000
Gap handling : Appended to previous track

Used output format : User Defined Encoder
Selected bitrate : 128 kBit/s
Quality : High
Add ID3 tag : No
Command line compressor : C:\Program Files (x86)\Exact Audio Copy\FLAC\FLAC.EXE
Additional command line options : -8 -V -T "ARTIST=%artist%" -T "TITLE=%title%" -T "ALBUM=%albumtitle%" -T "DATE=%year%" -T "TRACKNUMBER=%tracknr%" -T "TOTALTRACKS=%numtracks%" -T "GENRE=%genre%" -T "ALBUMARTIST=%albumartist%" -T "ALBUM ARTIST=%albumartist%" -T "COMMENT=EAC Secure Mode, Test & Copy, AccurateRip, FLAC -8" %source%


TOC of the extracted CD

Track | Start | Length | Start sector | End sector
––––––––––––––––––––––––––––-
1 | 0:00.00 | 3:53.10 | 0 | 17484
2 | 3:53.10 | 3:10.58 | 17485 | 31792
3 | 7:03.68 | 3:47.28 | 31793 | 48845
4 | 10:51.21 | 3:13.21 | 48846 | 63341
5 | 14:04.42 | 3:42.36 | 63342 | 80027
6 | 17:47.03 | 3:22.56 | 80028 | 95233
7 | 21:09.59 | 4:34.25 | 95234 | 115808
8 | 25:44.09 | 3:42.21 | 115809 | 132479
9 | 29:26.30 | 3:12.24 | 132480 | 146903
10 | 32:38.54 | 3:22.03 | 146904 | 162056


Track 1

Filename G:\Flac Rips\01 - I Was Raised in Babylon.wav

Pre-gap length 0:00:02.00

Peak level 96.5 %
Extraction speed 4.5 X
Track quality 100.0 %
Test CRC DA452C28
Copy CRC DA452C28
Accurately ripped (confidence 61) [F6862A31] (AR v2)
Copy OK

Track 2

Filename G:\Flac Rips\02 - Big Boss Man.wav

Peak level 97.4 %
Extraction speed 4.9 X
Track quality 100.0 %
Test CRC 72256F16
Copy CRC 72256F16
Accurately ripped (confidence 61) [40CB3A38] (AR v2)
Copy OK

Track 3

Filename G:\Flac Rips\03 - Dying to Live.wav

Peak level 95.8 %
Extraction speed 3.6 X
Track quality 99.9 %
Test CRC AA06B051
Copy CRC AA06B051
Accurately ripped (confidence 61) [57E7F1D5] (AR v2)
Copy OK

Track 4

Filename G:\Flac Rips\04 - You Are My Sunshine.wav

Peak level 98.4 %
Extraction speed 5.6 X
Track quality 100.0 %
Test CRC E32F113E
Copy CRC E32F113E
Accurately ripped (confidence 61) [2C81632F] (AR v2)
Copy OK

Track 5

Filename G:\Flac Rips\05 - Editing Floor Blues.wav

Peak level 99.8 %
Extraction speed 6.0 X
Track quality 100.0 %
Test CRC 25056B57
Copy CRC 25056B57
Accurately ripped (confidence 61) [1A2B98B3] (AR v2)
Copy OK

Track 6

Filename G:\Flac Rips\06 - Cat & The Dog Trap.wav

Peak level 95.7 %
Extraction speed 6.3 X
Track quality 100.0 %
Test CRC B826A9B6
Copy CRC B826A9B6
Accurately ripped (confidence 61) [FF675B53] (AR v2)
Copy OK

Track 7

Filename G:\Flac Rips\07 - Gold Digger.wav

Peak level 90.9 %
Extraction speed 6.8 X
Track quality 100.0 %
Test CRC 0107E3C6
Copy CRC 0107E3C6
Accurately ripped (confidence 61) [8202F480] (AR v2)
Copy OK

Track 8

Filename G:\Flac Rips\08 - The Devil Came From Kansas.wav

Peak level 100.0 %
Extraction speed 7.0 X
Track quality 100.0 %
Test CRC 476CF4B3
Copy CRC 476CF4B3
Accurately ripped (confidence 61) [8717A192] (AR v2)
Copy OK

Track 9

Filename G:\Flac Rips\09 - Tell 'em I'm Gone.wav

Peak level 99.3 %
Extraction speed 7.1 X
Track quality 100.0 %
Test CRC D6C084B9
Copy CRC D6C084B9
Accurately ripped (confidence 61) [144724F2] (AR v2)
Copy OK

Track 10

Filename G:\Flac Rips\10 - Doors.wav

Pre-gap length 0:00:00.12

Peak level 97.7 %
Extraction speed 7.3 X
Track quality 100.0 %
Test CRC 54DDB16F
Copy CRC 54DDB16F
Accurately ripped (confidence 61) [1E7B93DE] (AR v2)
Copy OK


All tracks accurately ripped

No errors occurred

End of status report

==== Log checksum 6E1FB1ACC360304C86898123544DBBB7CEBE57BC3994507C6114775164C1C526 ====

[CUETools log; Date: 24.10.2016 10:00:37; Version: 2.1.5]
[CTDB TOCID: awqgpcaD3pMLJmGNESfCSL1pAqU-] found.
Track | CTDB Status
1 | (222/222) Accurately ripped
2 | (222/222) Accurately ripped
3 | (222/222) Accurately ripped
4 | (222/222) Accurately ripped
5 | (221/222) Accurately ripped
6 | (222/222) Accurately ripped
7 | (222/222) Accurately ripped
8 | (222/222) Accurately ripped
9 | (222/222) Accurately ripped
10 | (222/222) Accurately ripped
[AccurateRip ID: 000da41a-006d3f9d-8808700a] found.
Track [ CRC | V2 ] Status
01 [03084362|f6862a31] (006+141/153) Accurately ripped
02 [a01e3b00|40cb3a38] (006+141/153) Accurately ripped
03 [d63a518c|57e7f1d5] (006+141/153) Accurately ripped
04 [9586b1e8|2c81632f] (006+141/153) Accurately ripped
05 [2c4a02bd|1a2b98b3] (006+140/152) Accurately ripped
06 [f2301a3b|ff675b53] (006+140/152) Accurately ripped
07 [8a82c86b|8202f480] (006+140/152) Accurately ripped
08 [d7cc53ea|8717a192] (006+140/152) Accurately ripped
09 [63763549|144724f2] (006+140/152) Accurately ripped
10 [2cf2fd8c|1e7b93de] (006+140/150) Accurately ripped
Offsetted by -646:
01 [77a3e99f] (000/153) No match (V2 was not tested)
02 [03b62688] (000/153) No match (V2 was not tested)
03 [6eba62df] (000/153) No match (V2 was not tested)
04 [b45b3ca1] (000/153) No match (V2 was not tested)
05 [d8c563a6] (000/152) No match (V2 was not tested)
06 [7be5208f] (000/152) No match (V2 was not tested)
07 [00ed6296] (000/152) No match (V2 was not tested)
08 [cdd13849] (000/152) No match (V2 was not tested)
09 [4fb7e40f] (000/152) No match (V2 was not tested)
10 [7bdb8be6] (000/150) No match (V2 was not tested)
Offsetted by 6:
01 [a2e8cd9c] (000/153) No match (V2 was not tested)
02 [91df1932] (000/153) No match (V2 was not tested)
03 [0c4b5199] (000/153) No match (V2 was not tested)
04 [07a137fd] (000/153) No match (V2 was not tested)
05 [1b3913ab] (000/152) No match (V2 was not tested)
06 [5f7437ee] (000/152) No match (V2 was not tested)
07 [b09cd515] (000/152) No match (V2 was not tested)
08 [9a1813a2] (000/152) No match (V2 was not tested)
09 [d1117d86] (000/152) No match (V2 was not tested)
10 [0c8374b2] (000/150) No match (V2 was not tested)

Track Peak [ CRC32 ] [W/O NULL] [ LOG ]
– 100,0 [CD0F91CA] [757FB880]
01 96,5 [DA452C28] [5D93AA44] CRC32
02 97,4 [72256F16] [19F7E1E2] CRC32
03 95,8 [AA06B051] [82482490] CRC32
04 98,4 [E32F113E] [A43910FF] CRC32
05 99,8 [25056B57] [6BCE32E6] CRC32
06 95,7 [B826A9B6] [145D0D7E] CRC32
07 90,9 [0107E3C6] [E907E00A] CRC32
08 100,0 [476CF4B3] [1FB45FD1] CRC32
09 99,3 [D6C084B9] [BACADECA] CRC32
10 97,7 [54DDB16F] [CD25B30C] CRC32


Yusuf (Cat Stevens) - Tell ‘em I’m Gone (2014)

All thanks goes to the original releaser
=====