Subcategories

ZZ Top - Chrome Smoke & BBQ: The ZZ Top Box (2003) 4 CD

Posted By: hill0
ZZ Top - Chrome Smoke & BBQ: The ZZ Top Box (2003) 4 CD

ZZ Top - Chrome Smoke & BBQ: The ZZ Top Box (2003) 4 CD
EAC Rip | FLAC (tracks & cue & log) | 2,01 GB | MP3 CBR 320 kbps | 717 MB | Full Artwork (PNG) | 859 MB | 5:13:33
Genre: Classic Rock / Blues Rock / Southern Rock | Country: USA | Label: Warner Bros. Records | 8122-78176-2

Chrome, Smoke & BBQ is a box set by American blues-rock band ZZ Top, released in 2003. This box set is notable for using the original mixes for all of the tracks from the band's first five albums for the first time on the CD format. This box set, and the companion release Rancho Texicano, are the only two CD releases which feature original mixes from ZZ Top's First Album, Rio Grande Mud, and Tejas, aside from 1977's The Best of ZZ Top which features two tracks from Rio Grande Mud and one track from First Album. Tres Hombres and Fandango! were reissued in their original mixes in 2006.
ZZ Top - Chrome Smoke & BBQ: The ZZ Top Box (2003) 4 CD

Chrome, Smoke & BBQ was released in two editions, both containing a terrific book, filled with great photos – including early shots of Gibbons in the Moving Sidewalks, without the beard – testimonials by the likes of Billy Bob Thornton, Dwight Yoakam, Ann Richards, and of all people, David Lynch (who immortally proclaims "ZZ Top = the fast track to cool"), an excellent history by Tom Vickers, and track-by-track notes by Gibbons, Hill, and Beard, as told to Bob Merlis. The limited edition is quite fancy in its own right, encased in a mock roadhouse shack and containing a booklet shaped as a menu, a sheet of ZZ Top paper dolls (no perforations, however; this is for display purposes only), and a flipbook that finds the trio doing their signature twirling guitars and hand gestures. It's a little elaborate, but it's fun, particularly because the four discs are in jewel cases and can be transported while this sits on the set, next to the other impractical, oversized box sets, such as that Charley Patton box designed as a fake album of 78s, in your collection
ZZ Top - Chrome Smoke & BBQ: The ZZ Top Box (2003) 4 CD




ZZ Top - Chrome Smoke & BBQ: The ZZ Top Box (2003) 4 CD

Tracklist CD 1:

01. You Make Me Shake (3:03)
02. Joe Blues (7:36)
03. Crimson Witch (3:03)
04. Miller's Farm (2:36)
05. Salt Lick (2:47)
06. Brown Sugar (5:22)
07. Goin' Down To Mexico (3:22)
08. Just Got Back From My Baby's (4:10)
09. Francene (3:34)
10. Just Got Paid (4:28)
11. Ko Ko Blue (4:33)
12. Chevrolet (3:21)
13. Bar-B-Q (3:28)
14. Sure Got Cold After The Rain Fell (7:21)
15. Whisky'n Moma (3:22)
16. La Grange (3:54)
17. Waitin' For The Bus (2:53)
18. Jesus Just Left Chicago (3:30)
19. Beer Drinkers & Hell Raisers (3:25)
20. Master Of Sparks (3:30)

Exact Audio Copy V1.0 beta 6 from 9. April 2015

EAC extraction logfile from 27. January 2016, 20:25

ZZ Top / Chrome, Smoke & BBQ (Disc 1)

Used drive : PIONEER DVD-RW DVRKD08RS Adapter: 1 ID: 1

Read mode : Secure
Utilize accurate stream : Yes
Defeat audio cache : Yes
Make use of C2 pointers : No

Read offset correction : 48
Overread into Lead-In and Lead-Out : No
Fill up missing offset samples with silence : Yes
Delete leading and trailing silent blocks : No
Null samples used in CRC calculations : Yes
Used interface : Native Win32 interface for Win NT & 2000
Gap handling : Appended to previous track

Used output format : User Defined Encoder
Selected bitrate : 128 kBit/s
Quality : High
Add ID3 tag : No
Command line compressor : C:\Program Files (x86)\Exact Audio Copy\Flac\flac.exe
Additional command line options : -8 -V -T "ARTIST=%artist%" -T "TITLE=%title%" -T "ALBUM=%albumtitle%" -T "DATE=%year%" -T "TRACKNUMBER=%tracknr%" -T "TOTALTRACKS=%numtracks%" -T "GENRE=%genre%" -T "ALBUMARTIST=%albumartist%" -T "ALBUM ARTIST=%albumartist%" -T "COMMENT=EAC Secure Mode, Test & Copy, AccurateRip, FLAC -8" %source%


TOC of the extracted CD

Track | Start | Length | Start sector | End sector
––––––––––––––––––––––––––––-
1 | 0:00.00 | 3:02.55 | 0 | 13704
2 | 3:02.55 | 7:36.32 | 13705 | 47936
3 | 10:39.12 | 3:03.18 | 47937 | 61679
4 | 13:42.30 | 2:36.27 | 61680 | 73406
5 | 16:18.57 | 2:46.48 | 73407 | 85904
6 | 19:05.30 | 5:22.35 | 85905 | 110089
7 | 24:27.65 | 3:22.10 | 110090 | 125249
8 | 27:50.00 | 4:10.20 | 125250 | 144019
9 | 32:00.20 | 3:34.12 | 144020 | 160081
10 | 35:34.32 | 4:28.15 | 160082 | 180196
11 | 40:02.47 | 4:32.48 | 180197 | 200644
12 | 44:35.20 | 3:21.37 | 200645 | 215756
13 | 47:56.57 | 3:28.18 | 215757 | 231374
14 | 51:25.00 | 7:20.47 | 231375 | 264421
15 | 58:45.47 | 3:22.35 | 264422 | 279606
16 | 62:08.07 | 3:53.50 | 279607 | 297131
17 | 66:01.57 | 2:53.05 | 297132 | 310111
18 | 68:54.62 | 3:30.15 | 310112 | 325876
19 | 72:25.02 | 3:25.15 | 325877 | 341266
20 | 75:50.17 | 3:30.25 | 341267 | 357041


Track 1

Filename D:\Rips\ZZ Top - Chrome, Smoke & BBQ\Disc 1\01 - You Make Me Shake (performed by The Moving Sidewalks).wav

Pre-gap length 0:00:02.00

Peak level 98.8 %
Extraction speed 2.7 X
Track quality 100.0 %
Test CRC B1E317E1
Copy CRC B1E317E1
Accurately ripped (confidence 10) [EC2EFFB0] (AR v2)
Copy OK

Track 2

Filename D:\Rips\ZZ Top - Chrome, Smoke & BBQ\Disc 1\02 - Joe Blues (performed by The Moving Sidewalks).wav

Pre-gap length 0:00:01.10

Peak level 98.8 %
Extraction speed 3.4 X
Track quality 100.0 %
Test CRC CE9A8E04
Copy CRC CE9A8E04
Accurately ripped (confidence 10) [90BEE79B] (AR v2)
Copy OK

Track 3

Filename D:\Rips\ZZ Top - Chrome, Smoke & BBQ\Disc 1\03 - Crimson Witch (performed by The Moving Sidewalks).wav

Pre-gap length 0:00:01.00

Peak level 100.0 %
Extraction speed 2.9 X
Track quality 99.9 %
Test CRC 2B7676C5
Copy CRC 2B7676C5
Accurately ripped (confidence 10) [CB298596] (AR v2)
Copy OK

Track 4

Filename D:\Rips\ZZ Top - Chrome, Smoke & BBQ\Disc 1\04 - Miller's Farm.wav

Pre-gap length 0:00:00.65

Peak level 98.8 %
Extraction speed 2.8 X
Track quality 99.9 %
Test CRC 03C4B7CB
Copy CRC 03C4B7CB
Accurately ripped (confidence 10) [984F4743] (AR v2)
Copy OK

Track 5

Filename D:\Rips\ZZ Top - Chrome, Smoke & BBQ\Disc 1\05 - Salt Lick.wav

Pre-gap length 0:00:00.72

Peak level 98.8 %
Extraction speed 3.0 X
Track quality 99.9 %
Test CRC 13B6DF5F
Copy CRC 13B6DF5F
Accurately ripped (confidence 10) [17B5667B] (AR v2)
Copy OK

Track 6

Filename D:\Rips\ZZ Top - Chrome, Smoke & BBQ\Disc 1\06 - Brown Sugar.wav

Pre-gap length 0:00:01.18

Peak level 98.8 %
Extraction speed 4.1 X
Track quality 100.0 %
Test CRC CE11AAF8
Copy CRC CE11AAF8
Accurately ripped (confidence 10) [E774D896] (AR v2)
Copy OK

Track 7

Filename D:\Rips\ZZ Top - Chrome, Smoke & BBQ\Disc 1\07 - Goin' Down To Mexico.wav

Pre-gap length 0:00:01.00

Peak level 98.8 %
Extraction speed 4.0 X
Track quality 100.0 %
Test CRC 9C4072B8
Copy CRC 9C4072B8
Accurately ripped (confidence 10) [511BDC9B] (AR v2)
Copy OK

Track 8

Filename D:\Rips\ZZ Top - Chrome, Smoke & BBQ\Disc 1\08 - Just Got Back From Baby's.wav

Pre-gap length 0:00:01.70

Peak level 98.8 %
Extraction speed 4.3 X
Track quality 100.0 %
Test CRC 3A542432
Copy CRC 3A542432
Accurately ripped (confidence 10) [A5769248] (AR v2)
Copy OK

Track 9

Filename D:\Rips\ZZ Top - Chrome, Smoke & BBQ\Disc 1\09 - Francine.wav

Pre-gap length 0:00:01.60

Peak level 98.8 %
Extraction speed 4.3 X
Track quality 100.0 %
Test CRC 6B28171D
Copy CRC 6B28171D
Accurately ripped (confidence 10) [B0BED383] (AR v2)
Copy OK

Track 10

Filename D:\Rips\ZZ Top - Chrome, Smoke & BBQ\Disc 1\10 - Just Got Paid.wav

Pre-gap length 0:00:01.50

Peak level 98.8 %
Extraction speed 4.6 X
Track quality 100.0 %
Test CRC 90890240
Copy CRC 90890240
Accurately ripped (confidence 10) [FC5ABDA0] (AR v2)
Copy OK

Track 11

Filename D:\Rips\ZZ Top - Chrome, Smoke & BBQ\Disc 1\11 - Ko Ko Blue.wav

Pre-gap length 0:00:01.15

Peak level 98.8 %
Extraction speed 4.8 X
Track quality 100.0 %
Test CRC 84676A3C
Copy CRC 84676A3C
Accurately ripped (confidence 10) [E05B89F4] (AR v2)
Copy OK

Track 12

Filename D:\Rips\ZZ Top - Chrome, Smoke & BBQ\Disc 1\12 - Chevrolet.wav

Pre-gap length 0:00:00.40

Peak level 98.8 %
Extraction speed 4.1 X
Track quality 99.9 %
Test CRC 984B057A
Copy CRC 984B057A
Accurately ripped (confidence 10) [9DC5D045] (AR v2)
Copy OK

Track 13

Filename D:\Rips\ZZ Top - Chrome, Smoke & BBQ\Disc 1\13 - Bar-B-Q.wav

Pre-gap length 0:00:01.17

Peak level 98.8 %
Extraction speed 4.9 X
Track quality 100.0 %
Test CRC 54CCDF93
Copy CRC 54CCDF93
Accurately ripped (confidence 10) [A85EB6A6] (AR v2)
Copy OK

Track 14

Filename D:\Rips\ZZ Top - Chrome, Smoke & BBQ\Disc 1\14 - Sure Got Cold After The Rain Fell.wav

Pre-gap length 0:00:01.60

Peak level 98.8 %
Extraction speed 5.5 X
Track quality 100.0 %
Test CRC F36327B0
Copy CRC F36327B0
Accurately ripped (confidence 10) [67F893D2] (AR v2)
Copy OK

Track 15

Filename D:\Rips\ZZ Top - Chrome, Smoke & BBQ\Disc 1\15 - Whiskey'n Mama.wav

Pre-gap length 0:00:02.15

Peak level 98.8 %
Extraction speed 5.2 X
Track quality 100.0 %
Test CRC 5E9B7E08
Copy CRC 5E9B7E08
Accurately ripped (confidence 10) [1028A30F] (AR v2)
Copy OK

Track 16

Filename D:\Rips\ZZ Top - Chrome, Smoke & BBQ\Disc 1\16 - La Grange.wav

Pre-gap length 0:00:02.40

Peak level 98.8 %
Extraction speed 5.4 X
Track quality 100.0 %
Test CRC 126CD0DC
Copy CRC 126CD0DC
Accurately ripped (confidence 10) [8030DC29] (AR v2)
Copy OK

Track 17

Filename D:\Rips\ZZ Top - Chrome, Smoke & BBQ\Disc 1\17 - Waitin' For The Bus.wav

Pre-gap length 0:00:01.10

Peak level 98.8 %
Extraction speed 5.2 X
Track quality 100.0 %
Test CRC 7D14AA0F
Copy CRC 7D14AA0F
Accurately ripped (confidence 10) [4C8A3117] (AR v2)
Copy OK

Track 18

Filename D:\Rips\ZZ Top - Chrome, Smoke & BBQ\Disc 1\18 - Jesus Just Left Chicago.wav

Peak level 98.8 %
Extraction speed 5.5 X
Track quality 100.0 %
Test CRC B94BC7D4
Copy CRC B94BC7D4
Accurately ripped (confidence 10) [BAC4681B] (AR v2)
Copy OK

Track 19

Filename D:\Rips\ZZ Top - Chrome, Smoke & BBQ\Disc 1\19 - Beer Drinkers & Hell Raisers.wav

Pre-gap length 0:00:01.52

Peak level 98.8 %
Extraction speed 4.9 X
Track quality 99.9 %
Test CRC 6A0C4466
Copy CRC 6A0C4466
Accurately ripped (confidence 10) [C90B6CEA] (AR v2)
Copy OK

Track 20

Filename D:\Rips\ZZ Top - Chrome, Smoke & BBQ\Disc 1\20 - Master Of Sparks.wav

Pre-gap length 0:00:01.74

Peak level 98.8 %
Extraction speed 5.7 X
Track quality 100.0 %
Test CRC 346C1495
Copy CRC 346C1495
Accurately ripped (confidence 10) [72320348] (AR v2)
Copy OK


All tracks accurately ripped

No errors occurred

End of status report

==== Log checksum A9AF8EC26589CF281AB2F9F776ECB3C00F2512FBC77B70C3085DF4829006A106 ====

[CUETools log; Date: 17.08.2016 22:05:02; Version: 2.1.5]
[CTDB TOCID: LC0D5BzflGDVmfgwngjkl8NOGX0-] found.
Track | CTDB Status
1 | (46/46) Accurately ripped
2 | (46/46) Accurately ripped
3 | (46/46) Accurately ripped
4 | (46/46) Accurately ripped
5 | (46/46) Accurately ripped
6 | (46/46) Accurately ripped
7 | (46/46) Accurately ripped
8 | (46/46) Accurately ripped
9 | (46/46) Accurately ripped
10 | (46/46) Accurately ripped
11 | (46/46) Accurately ripped
12 | (46/46) Accurately ripped
13 | (46/46) Accurately ripped
14 | (46/46) Accurately ripped
15 | (46/46) Accurately ripped
16 | (46/46) Accurately ripped
17 | (46/46) Accurately ripped
18 | (46/46) Accurately ripped
19 | (46/46) Accurately ripped
20 | (45/46) Accurately ripped
[AccurateRip ID: 003a5f65-03565f9e-33129814] found.
Track [ CRC | V2 ] Status
01 [5777d2b4|ec2effb0] (011+012/118) Accurately ripped
02 [56b6823b|90bee79b] (011+012/118) Accurately ripped
03 [e72c0ace|cb298596] (011+012/118) Accurately ripped
04 [327b8fcb|984f4743] (011+012/119) Accurately ripped
05 [362ef49e|17b5667b] (011+012/118) Accurately ripped
06 [efc423c2|e774d896] (011+012/119) Accurately ripped
07 [8dd89522|511bdc9b] (011+012/120) Accurately ripped
08 [efa20048|a5769248] (011+012/120) Accurately ripped
09 [7fd1be52|b0bed383] (011+012/119) Accurately ripped
10 [940e670e|fc5abda0] (011+012/119) Accurately ripped
11 [90ad3106|e05b89f4] (011+012/120) Accurately ripped
12 [bd77a112|9dc5d045] (011+012/119) Accurately ripped
13 [f535f219|a85eb6a6] (011+012/118) Accurately ripped
14 [7b238376|67f893d2] (011+012/120) Accurately ripped
15 [e2947bd4|1028a30f] (011+012/121) Accurately ripped
16 [68c68f81|8030dc29] (010+012/118) Accurately ripped
17 [c9e95a88|4c8a3117] (011+012/119) Accurately ripped
18 [06155dac|bac4681b] (010+012/120) Accurately ripped
19 [499f868a|c90b6cea] (011+012/119) Accurately ripped
20 [3b1d7b52|72320348] (009+012/114) Accurately ripped
Offsetted by -523:
01 [6ef29fd1] (004/118) Accurately ripped
02 [78189d2e] (004/118) Accurately ripped
03 [9bc9e9e8] (004/118) Accurately ripped
04 [d8811875] (004/119) Accurately ripped
05 [daef6e4d] (004/118) Accurately ripped
06 [d28c6fc5] (004/119) Accurately ripped
07 [a8db8d56] (004/120) Accurately ripped
08 [df6a230e] (004/120) Accurately ripped
09 [d174bfac] (004/119) Accurately ripped
10 [d65fe9be] (004/119) Accurately ripped
11 [e44260df] (004/120) Accurately ripped
12 [c5818055] (004/119) Accurately ripped
13 [56b0dac1] (004/118) Accurately ripped
14 [c5a658c7] (004/120) Accurately ripped
15 [da36f141] (004/121) Accurately ripped
16 [3a234f1b] (004/118) Accurately ripped
17 [e0525c9d] (004/119) Accurately ripped
18 [714a80d4] (004/120) Accurately ripped
19 [3fad9773] (004/119) Accurately ripped
20 [30660663] (004/114) Accurately ripped
Offsetted by -6:
01 [321bb4c8] (015/118) Accurately ripped
02 [3d9226c7] (015/118) Accurately ripped
03 [acaa5929] (015/118) Accurately ripped
04 [b295952b] (015/119) Accurately ripped
05 [a533c042] (014/118) Accurately ripped
06 [1c37587d] (015/119) Accurately ripped
07 [17d76262] (016/120) Accurately ripped
08 [126a5ea8] (016/120) Accurately ripped
09 [cc33b7ea] (016/119) Accurately ripped
10 [95ece874] (016/119) Accurately ripped
11 [7bb0ea04] (016/120) Accurately ripped
12 [7e615cce] (016/119) Accurately ripped
13 [13ff3d70] (016/118) Accurately ripped
14 [b353b857] (016/120) Accurately ripped
15 [73b56eee] (016/121) Accurately ripped
16 [5fa4889e] (016/118) Accurately ripped
17 [4bfd44cb] (015/119) Accurately ripped
18 [615949b0] (016/120) Accurately ripped
19 [3845e90a] (015/119) Accurately ripped
20 [565a99ae] (015/114) Accurately ripped
Offsetted by 141:
01 [6fbb448e] (039/118) Accurately ripped
02 [6039649b] (040/118) Accurately ripped
03 [167ac3bf] (040/118) Accurately ripped
04 [18a89d80] (041/119) Accurately ripped
05 [3a408b88] (041/118) Accurately ripped
06 [a7b68e5f] (041/119) Accurately ripped
07 [b263e92d] (041/120) Accurately ripped
08 [439c4abd] (041/120) Accurately ripped
09 [0169f205] (041/119) Accurately ripped
10 [73512140] (041/119) Accurately ripped
11 [c02a0412] (041/120) Accurately ripped
12 [d7ececaa] (041/119) Accurately ripped
13 [769cc799] (041/118) Accurately ripped
14 [1b96843e] (041/120) Accurately ripped
15 [82fe027d] (041/121) Accurately ripped
16 [9b5924a2] (041/118) Accurately ripped
17 [88bedb03] (042/119) Accurately ripped
18 [d3923d8a] (042/120) Accurately ripped
19 [a7f0bd42] (041/119) Accurately ripped
20 [4b05bb86] (039/114) Accurately ripped
Offsetted by 595:
01 [fe8163f8] (000/118) No match (V2 was not tested)
02 [e50f9aaf] (000/118) No match (V2 was not tested)
03 [965ce610] (000/118) No match (V2 was not tested)
04 [08e92330] (000/119) No match (V2 was not tested)
05 [c2c7b39b] (000/118) No match (V2 was not tested)
06 [3a7ab6f8] (000/119) No match (V2 was not tested)
07 [56b3ff11] (000/120) No match (V2 was not tested)
08 [532049c4] (000/120) No match (V2 was not tested)
09 [15e5c4c9] (000/119) No match (V2 was not tested)
10 [2b5e2069] (000/119) No match (V2 was not tested)
11 [90f3bc39] (000/120) No match (V2 was not tested)
12 [1e9165e6] (000/119) No match (V2 was not tested)
13 [fc6df503] (000/118) No match (V2 was not tested)
14 [7b497ca9] (000/120) No match (V2 was not tested)
15 [060b5dcf] (000/121) No match (V2 was not tested)
16 [d359567d] (000/118) No match (V2 was not tested)
17 [7d6598a6] (000/119) No match (V2 was not tested)
18 [b10ab5a6] (000/120) No match (V2 was not tested)
19 [b8f2bce8] (000/119) No match (V2 was not tested)
20 [97281ace] (000/114) No match (V2 was not tested)

Track Peak [ CRC32 ] [W/O NULL] [ LOG ]
– 100,0 [EFE0728F] [558DE74C]
01 98,8 [B1E317E1] [42AF6482] CRC32
02 98,8 [CE9A8E04] [C218E609] CRC32
03 100,0 [2B7676C5] [13EB2497] CRC32
04 98,8 [03C4B7CB] [3F906CB5] CRC32
05 98,8 [13B6DF5F] [200F3B85] CRC32
06 98,8 [CE11AAF8] [BB2ED780] CRC32
07 98,8 [9C4072B8] [36707E11] CRC32
08 98,8 [3A542432] [1696083A] CRC32
09 98,8 [6B28171D] [07467077] CRC32
10 98,8 [90890240] [D9C2D3FC] CRC32
11 98,8 [84676A3C] [D7038B36] CRC32
12 98,8 [984B057A] [DB031D37] CRC32
13 98,8 [54CCDF93] [5009EEEF] CRC32
14 98,8 [F36327B0] [DA33522C] CRC32
15 98,8 [5E9B7E08] [AAEF028D] CRC32
16 98,8 [126CD0DC] [AA6F1EFE] CRC32
17 98,8 [7D14AA0F] [82E22275] CRC32
18 98,8 [B94BC7D4] [9702665A] CRC32
19 98,8 [6A0C4466] [634200D3] CRC32
20 98,8 [346C1495] [6F8AA973] CRC32

ZZ Top - Chrome Smoke & BBQ: The ZZ Top Box (2003) 4 CD


Tracklist CD 2:

01. Precious And Grace (3:12)
02. Shiek (4:07)
03. Thunderbird (3:05)
04. Jailhouse Rock (1:56)
05. Nasty Dogs and Funky Kings (2:45)
06. Heard It on the X (2:26)
07. Blue Jean Blues (4:45)
08. Mexican Blackbird (3:06)
09. Tush (2:19)
10. It's Only Love (4:23)
11. Arrested for Driving While Blind (3:07)
12. El Diablo (4:23)
13. Enjoy And Get It On (3:26)
14. She's a Heartbreaker (3:03)
15. Alseep in the Desert (3:29)
16. I Thank You (3:26)
17. Cheap Sunglasses (4:49)
18. I'm Bad, I'm Nationwide (4:50)
19. A Fool For Your Stockings (4:15)
20. Deguello Album Radio Spot (1:03)
21. Manic Mechanic (2:39)
22. She Loves My Automobile (2:25)
23. Leila (3:17)
24. Tube Snake Boogie (3:03)

Exact Audio Copy V1.0 beta 6 from 9. April 2015

EAC extraction logfile from 24. January 2016, 12:41

ZZ Top / Chrome, Smoke & BBQ (Disc 2)

Used drive : PIONEER DVD-RW DVRKD08RS Adapter: 1 ID: 1

Read mode : Secure
Utilize accurate stream : Yes
Defeat audio cache : Yes
Make use of C2 pointers : No

Read offset correction : 48
Overread into Lead-In and Lead-Out : No
Fill up missing offset samples with silence : Yes
Delete leading and trailing silent blocks : No
Null samples used in CRC calculations : Yes
Used interface : Native Win32 interface for Win NT & 2000
Gap handling : Appended to previous track

Used output format : User Defined Encoder
Selected bitrate : 128 kBit/s
Quality : High
Add ID3 tag : No
Command line compressor : C:\Program Files (x86)\Exact Audio Copy\Flac\flac.exe
Additional command line options : -8 -V -T "ARTIST=%artist%" -T "TITLE=%title%" -T "ALBUM=%albumtitle%" -T "DATE=%year%" -T "TRACKNUMBER=%tracknr%" -T "TOTALTRACKS=%numtracks%" -T "GENRE=%genre%" -T "ALBUMARTIST=%albumartist%" -T "ALBUM ARTIST=%albumartist%" -T "COMMENT=EAC Secure Mode, Test & Copy, AccurateRip, FLAC -8" %source%


TOC of the extracted CD

Track | Start | Length | Start sector | End sector
––––––––––––––––––––––––––––-
1 | 0:00.00 | 3:11.55 | 0 | 14379
2 | 3:11.55 | 4:06.40 | 14380 | 32869
3 | 7:18.20 | 3:04.60 | 32870 | 46729
4 | 10:23.05 | 1:55.57 | 46730 | 55411
5 | 12:18.62 | 2:45.03 | 55412 | 67789
6 | 15:03.65 | 2:26.05 | 67790 | 78744
7 | 17:29.70 | 4:45.02 | 78745 | 100121
8 | 22:14.72 | 3:06.30 | 100122 | 114101
9 | 25:21.27 | 2:18.53 | 114102 | 124504
10 | 27:40.05 | 4:23.27 | 124505 | 144256
11 | 32:03.32 | 3:06.68 | 144257 | 158274
12 | 35:10.25 | 4:22.50 | 158275 | 177974
13 | 39:33.00 | 3:25.57 | 177975 | 193406
14 | 42:58.57 | 3:03.00 | 193407 | 207131
15 | 46:01.57 | 3:29.08 | 207132 | 222814
16 | 49:30.65 | 3:26.07 | 222815 | 238271
17 | 52:56.72 | 4:48.55 | 238272 | 259926
18 | 57:45.52 | 4:49.43 | 259927 | 281644
19 | 62:35.20 | 4:15.12 | 281645 | 300781
20 | 66:50.32 | 1:02.70 | 300782 | 305501
21 | 67:53.27 | 2:38.40 | 305502 | 317391
22 | 70:31.67 | 2:24.55 | 317392 | 328246
23 | 72:56.47 | 3:16.50 | 328247 | 342996
24 | 76:13.22 | 3:02.60 | 342997 | 356706


Track 1

Filename D:\Rips\ZZ Top - Chrome, Smoke & BBQ\Disc 2\01 - Precious And Grace.wav

Pre-gap length 0:00:02.00

Peak level 98.8 %
Extraction speed 2.8 X
Track quality 100.0 %
Test CRC FA662149
Copy CRC FA662149
Accurately ripped (confidence 9) [769CB64B] (AR v2)
Copy OK

Track 2

Filename D:\Rips\ZZ Top - Chrome, Smoke & BBQ\Disc 2\02 - Shiek.wav

Pre-gap length 0:00:01.33

Peak level 98.8 %
Extraction speed 3.1 X
Track quality 100.0 %
Test CRC B003DA61
Copy CRC B003DA61
Accurately ripped (confidence 9) [3E1CE5C7] (AR v2)
Copy OK

Track 3

Filename D:\Rips\ZZ Top - Chrome, Smoke & BBQ\Disc 2\03 - Thunderbird.wav

Pre-gap length 0:00:02.05

Peak level 98.6 %
Extraction speed 3.2 X
Track quality 100.0 %
Test CRC 70427ECC
Copy CRC 70427ECC
Accurately ripped (confidence 9) [24B6A770] (AR v2)
Copy OK

Track 4

Filename D:\Rips\ZZ Top - Chrome, Smoke & BBQ\Disc 2\04 - Jailhouse Rock.wav

Pre-gap length 0:00:00.55

Peak level 98.0 %
Extraction speed 3.0 X
Track quality 100.0 %
Test CRC FB3E6C8D
Copy CRC FB3E6C8D
Accurately ripped (confidence 9) [3F19F476] (AR v2)
Copy OK

Track 5

Filename D:\Rips\ZZ Top - Chrome, Smoke & BBQ\Disc 2\05 - Nasty Dogs And Funky Kings.wav

Pre-gap length 0:00:01.55

Peak level 98.8 %
Extraction speed 3.3 X
Track quality 100.0 %
Test CRC 371821A3
Copy CRC 371821A3
Accurately ripped (confidence 9) [CBD3FB56] (AR v2)
Copy OK

Track 6

Filename D:\Rips\ZZ Top - Chrome, Smoke & BBQ\Disc 2\06 - Heard It On The X.wav

Pre-gap length 0:00:01.48

Peak level 98.8 %
Extraction speed 2.9 X
Track quality 99.9 %
Test CRC 4AFD1C2E
Copy CRC 4AFD1C2E
Accurately ripped (confidence 9) [F3D74BC3] (AR v2)
Copy OK

Track 7

Filename D:\Rips\ZZ Top - Chrome, Smoke & BBQ\Disc 2\07 - Blue Jean Blues.wav

Pre-gap length 0:00:01.40

Peak level 98.8 %
Extraction speed 4.0 X
Track quality 100.0 %
Test CRC 73542B26
Copy CRC 73542B26
Accurately ripped (confidence 9) [501E9331] (AR v2)
Copy OK

Track 8

Filename D:\Rips\ZZ Top - Chrome, Smoke & BBQ\Disc 2\08 - Mexican Blackbird.wav

Pre-gap length 0:00:00.62

Peak level 98.8 %
Extraction speed 3.8 X
Track quality 100.0 %
Test CRC 1969F038
Copy CRC 1969F038
Accurately ripped (confidence 9) [D46132AF] (AR v2)
Copy OK

Track 9

Filename D:\Rips\ZZ Top - Chrome, Smoke & BBQ\Disc 2\09 - Tush.wav

Pre-gap length 0:00:00.60

Peak level 98.7 %
Extraction speed 3.8 X
Track quality 100.0 %
Test CRC 95E07474
Copy CRC 95E07474
Accurately ripped (confidence 9) [FEFCFFC2] (AR v2)
Copy OK

Track 10

Filename D:\Rips\ZZ Top - Chrome, Smoke & BBQ\Disc 2\10 - It's Only Love.wav

Pre-gap length 0:00:01.55

Peak level 98.8 %
Extraction speed 4.3 X
Track quality 100.0 %
Test CRC E64E7ECE
Copy CRC E64E7ECE
Accurately ripped (confidence 9) [C194CAE1] (AR v2)
Copy OK

Track 11

Filename D:\Rips\ZZ Top - Chrome, Smoke & BBQ\Disc 2\11 - Arrested For Driving While Blind.wav

Peak level 98.8 %
Extraction speed 3.7 X
Track quality 99.9 %
Test CRC DCD33466
Copy CRC DCD33466
Accurately ripped (confidence 9) [93B9F8F6] (AR v2)
Copy OK

Track 12

Filename D:\Rips\ZZ Top - Chrome, Smoke & BBQ\Disc 2\12 - El Diablo.wav

Pre-gap length 0:00:00.58

Peak level 98.8 %
Extraction speed 4.6 X
Track quality 100.0 %
Test CRC 27AFEF74
Copy CRC 27AFEF74
Accurately ripped (confidence 9) [4DB28A26] (AR v2)
Copy OK

Track 13

Filename D:\Rips\ZZ Top - Chrome, Smoke & BBQ\Disc 2\13 - Enjoy And Get It On.wav

Pre-gap length 0:00:01.18

Peak level 98.8 %
Extraction speed 4.6 X
Track quality 100.0 %
Test CRC 2CE08FB5
Copy CRC 2CE08FB5
Accurately ripped (confidence 9) [A6115565] (AR v2)
Copy OK

Track 14

Filename D:\Rips\ZZ Top - Chrome, Smoke & BBQ\Disc 2\14 - She's A Heartbreaker.wav

Pre-gap length 0:00:01.67

Peak level 98.8 %
Extraction speed 4.6 X
Track quality 100.0 %
Test CRC 0D7B066F
Copy CRC 0D7B066F
Accurately ripped (confidence 9) [D0767CFC] (AR v2)
Copy OK

Track 15

Filename D:\Rips\ZZ Top - Chrome, Smoke & BBQ\Disc 2\15 - Asleep In The Desert.wav

Peak level 98.8 %
Extraction speed 4.8 X
Track quality 100.0 %
Test CRC 0C7DC39D
Copy CRC 0C7DC39D
Accurately ripped (confidence 9) [615437E0] (AR v2)
Copy OK

Track 16

Filename D:\Rips\ZZ Top - Chrome, Smoke & BBQ\Disc 2\16 - I Thank You.wav

Pre-gap length 0:00:02.55

Peak level 98.8 %
Extraction speed 5.0 X
Track quality 100.0 %
Test CRC 10BE26CE
Copy CRC 10BE26CE
Accurately ripped (confidence 9) [C2C6E6D4] (AR v2)
Copy OK

Track 17

Filename D:\Rips\ZZ Top - Chrome, Smoke & BBQ\Disc 2\17 - Cheap Sunglasses.wav

Pre-gap length 0:00:02.10

Peak level 98.8 %
Extraction speed 5.3 X
Track quality 100.0 %
Test CRC 166240C9
Copy CRC 166240C9
Accurately ripped (confidence 9) [CD68F8E9] (AR v2)
Copy OK

Track 18

Filename D:\Rips\ZZ Top - Chrome, Smoke & BBQ\Disc 2\18 - I'm Bad, I'm Nationwide.wav

Pre-gap length 0:00:01.62

Peak level 98.8 %
Extraction speed 5.3 X
Track quality 100.0 %
Test CRC CB0F7F26
Copy CRC CB0F7F26
Accurately ripped (confidence 9) [E464228D] (AR v2)
Copy OK

Track 19

Filename D:\Rips\ZZ Top - Chrome, Smoke & BBQ\Disc 2\19 - A Fool For Your Stockings.wav

Pre-gap length 0:00:02.49

Peak level 98.8 %
Extraction speed 5.5 X
Track quality 100.0 %
Test CRC 0B16A426
Copy CRC 0B16A426
Accurately ripped (confidence 9) [593F619E] (AR v2)
Copy OK

Track 20

Filename D:\Rips\ZZ Top - Chrome, Smoke & BBQ\Disc 2\20 - Deguello Album Radio Spot.wav

Pre-gap length 0:00:00.30

Peak level 98.8 %
Extraction speed 3.9 X
Track quality 100.0 %
Test CRC E41EC04F
Copy CRC E41EC04F
Accurately ripped (confidence 9) [ED3272DC] (AR v2)
Copy OK

Track 21

Filename D:\Rips\ZZ Top - Chrome, Smoke & BBQ\Disc 2\21 - Manic Mechanic.wav

Pre-gap length 0:00:02.52

Peak level 98.8 %
Extraction speed 5.2 X
Track quality 100.0 %
Test CRC EFE121EA
Copy CRC EFE121EA
Accurately ripped (confidence 9) [5B6DD9CE] (AR v2)
Copy OK

Track 22

Filename D:\Rips\ZZ Top - Chrome, Smoke & BBQ\Disc 2\22 - She Loves My Automobile.wav

Pre-gap length 0:00:01.27

Peak level 98.8 %
Extraction speed 4.3 X
Track quality 99.9 %
Test CRC DFBA33D1
Copy CRC DFBA33D1
Accurately ripped (confidence 9) [71748732] (AR v2)
Copy OK

Track 23

Filename D:\Rips\ZZ Top - Chrome, Smoke & BBQ\Disc 2\23 - Leila.wav

Pre-gap length 0:00:01.62

Peak level 98.8 %
Extraction speed 5.5 X
Track quality 100.0 %
Test CRC 3C60791C
Copy CRC 3C60791C
Accurately ripped (confidence 9) [BCDA95EA] (AR v2)
Copy OK

Track 24

Filename D:\Rips\ZZ Top - Chrome, Smoke & BBQ\Disc 2\24 - Tube Snake Boogie.wav

Pre-gap length 0:00:01.30

Peak level 98.8 %
Extraction speed 5.6 X
Track quality 100.0 %
Test CRC E19591E7
Copy CRC E19591E7
Accurately ripped (confidence 9) [92ECDDB1] (AR v2)
Copy OK


All tracks accurately ripped

No errors occurred

End of status report

==== Log checksum D5421CA4E7C3313ACD960534A3DE5E302B921FEC6E51FFBDD92E633063AF9BD5 ====

[CUETools log; Date: 17.08.2016 22:12:35; Version: 2.1.5]
[CTDB TOCID: LD1yafevuO_fgazOjcpgf21Cmoo-] found.
Track | CTDB Status
1 | (45/45) Accurately ripped
2 | (45/45) Accurately ripped
3 | (45/45) Accurately ripped
4 | (45/45) Accurately ripped
5 | (45/45) Accurately ripped
6 | (45/45) Accurately ripped
7 | (45/45) Accurately ripped
8 | (45/45) Accurately ripped
9 | (45/45) Accurately ripped
10 | (45/45) Accurately ripped
11 | (45/45) Accurately ripped
12 | (45/45) Accurately ripped
13 | (44/45) Accurately ripped
14 | (45/45) Accurately ripped
15 | (45/45) Accurately ripped
16 | (44/45) Accurately ripped
17 | (45/45) Accurately ripped
18 | (44/45) Accurately ripped
19 | (45/45) Accurately ripped
20 | (45/45) Accurately ripped
21 | (43/45) Accurately ripped
22 | (45/45) Accurately ripped
23 | (45/45) Accurately ripped
24 | (44/45) Accurately ripped
[AccurateRip ID: 004434e4-04a61da1-54129418] found.
Track [ CRC | V2 ] Status
01 [c6f015bd|769cb64b] (011+011/119) Accurately ripped
02 [26815aca|3e1ce5c7] (011+011/119) Accurately ripped
03 [839514b7|24b6a770] (011+011/119) Accurately ripped
04 [e21ea345|3f19f476] (011+011/117) Accurately ripped
05 [e7d325a7|cbd3fb56] (011+011/118) Accurately ripped
06 [04b9a784|f3d74bc3] (011+011/119) Accurately ripped
07 [c3354265|501e9331] (011+011/120) Accurately ripped
08 [69519b79|d46132af] (011+011/119) Accurately ripped
09 [8c8b6e43|fefcffc2] (011+011/119) Accurately ripped
10 [9c64fc5d|c194cae1] (011+011/119) Accurately ripped
11 [c08a5971|93b9f8f6] (011+011/118) Accurately ripped
12 [0bb89eca|4db28a26] (011+011/118) Accurately ripped
13 [6d770279|a6115565] (011+011/119) Accurately ripped
14 [3737e413|d0767cfc] (011+011/119) Accurately ripped
15 [3dd643b5|615437e0] (011+011/119) Accurately ripped
16 [69368c23|c2c6e6d4] (011+011/118) Accurately ripped
17 [651f2b83|cd68f8e9] (011+010/114) Accurately ripped
18 [2306065a|e464228d] (011+011/118) Accurately ripped
19 [d405c718|593f619e] (011+011/117) Accurately ripped
20 [bac2c3f7|ed3272dc] (011+011/119) Accurately ripped
21 [2585127c|5b6dd9ce] (011+011/117) Accurately ripped
22 [3166f65e|71748732] (011+011/119) Accurately ripped
23 [4c004470|bcda95ea] (011+010/117) Accurately ripped
24 [7c8b06fe|92ecddb1] (011+011/108) Accurately ripped
Offsetted by -3:
01 [b0816533] (015/119) Accurately ripped
02 [90711541] (015/119) Accurately ripped
03 [bc70223f] (015/119) Accurately ripped
04 [0883bf23] (014/117) Accurately ripped
05 [ce6f61e3] (015/118) Accurately ripped
06 [bf071c42] (015/119) Accurately ripped
07 [8158275f] (015/120) Accurately ripped
08 [0844f941] (015/119) Accurately ripped
09 [bff0c8dd] (015/119) Accurately ripped
10 [ce65e0c6] (015/119) Accurately ripped
11 [0f44c199] (015/118) Accurately ripped
12 [26fc720d] (015/118) Accurately ripped
13 [fc2c8a5d] (015/119) Accurately ripped
14 [b9c1f2e2] (015/119) Accurately ripped
15 [4314a570] (015/119) Accurately ripped
16 [26c9c58c] (014/118) Accurately ripped
17 [18879933] (013/114) Accurately ripped
18 [2e328580] (015/118) Accurately ripped
19 [7ec83334] (014/117) Accurately ripped
20 [8c720154] (015/119) Accurately ripped
21 [b698accb] (014/117) Accurately ripped
22 [47bffd50] (014/119) Accurately ripped
23 [8409ca35] (014/117) Accurately ripped
24 [08324a4f] (014/108) Accurately ripped
Offsetted by 55:
01 [71381998] (004/119) Accurately ripped
02 [ef0fe56a] (004/119) Accurately ripped
03 [2fa55fcc] (004/119) Accurately ripped
04 [379184bf] (004/117) Accurately ripped
05 [a208aaad] (004/118) Accurately ripped
06 [11c4f277] (004/119) Accurately ripped
07 [4b0df4f8] (004/120) Accurately ripped
08 [1bb69b9e] (004/119) Accurately ripped
09 [20ca4fbc] (004/119) Accurately ripped
10 [725f90ca] (004/119) Accurately ripped
11 [13c41d93] (004/118) Accurately ripped
12 [433ca76c] (004/118) Accurately ripped
13 [1f82548b] (004/119) Accurately ripped
14 [6176b580] (004/119) Accurately ripped
15 [2d1a3c17] (004/119) Accurately ripped
16 [38881e5c] (004/118) Accurately ripped
17 [6aa11be7] (004/114) Accurately ripped
18 [fd2bd139] (004/118) Accurately ripped
19 [e59255be] (004/117) Accurately ripped
20 [df0ac77f] (004/119) Accurately ripped
21 [6fb6547a] (004/117) Accurately ripped
22 [7e4cc968] (004/119) Accurately ripped
23 [1ceb8e55] (004/117) Accurately ripped
24 [9362ca56] (004/108) Accurately ripped
Offsetted by 141:
01 [bfae74e0] (040/119) Accurately ripped
02 [99711e96] (041/119) Accurately ripped
03 [2dc7d39b] (040/119) Accurately ripped
04 [744697a2] (040/117) Accurately ripped
05 [68b68292] (040/118) Accurately ripped
06 [cfe49190] (040/119) Accurately ripped
07 [19188310] (041/120) Accurately ripped
08 [9d710ee4] (040/119) Accurately ripped
09 [8f523593] (040/119) Accurately ripped
10 [9bed526b] (040/119) Accurately ripped
11 [c4e21359] (040/118) Accurately ripped
12 [4c61162e] (040/118) Accurately ripped
13 [1d1f2279] (040/119) Accurately ripped
14 [a6c74a81] (040/119) Accurately ripped
15 [6f3045d4] (040/119) Accurately ripped
16 [b8c8c99e] (041/118) Accurately ripped
17 [fd9fbd5c] (038/114) Accurately ripped
18 [166df3f7] (039/118) Accurately ripped
19 [e0a2a158] (041/117) Accurately ripped
20 [f937953a] (040/119) Accurately ripped
21 [f7051a06] (039/117) Accurately ripped
22 [908ce588] (041/119) Accurately ripped
23 [b5d5fbb9] (040/117) Accurately ripped
24 [e2da7ac0] (035/108) Accurately ripped
Offsetted by 595:
01 [d49d38b4] (000/119) No match (V2 was not tested)
02 [1becfbf4] (000/119) No match (V2 was not tested)
03 [7cda14f6] (000/119) No match (V2 was not tested)
04 [0d697078] (000/117) No match (V2 was not tested)
05 [a4e8a692] (000/118) No match (V2 was not tested)
06 [198944ea] (000/119) No match (V2 was not tested)
07 [a80be40e] (000/120) No match (V2 was not tested)
08 [98767ada] (000/119) No match (V2 was not tested)
09 [48d8925a] (000/119) No match (V2 was not tested)
10 [c6002008] (000/119) No match (V2 was not tested)
11 [79a3c61c] (000/118) No match (V2 was not tested)
12 [dee1a5a3] (000/118) No match (V2 was not tested)
13 [433fcd77] (000/119) No match (V2 was not tested)
14 [bfae197c] (000/119) No match (V2 was not tested)
15 [a1801675] (000/119) No match (V2 was not tested)
16 [fef69ddd] (000/118) No match (V2 was not tested)
17 [bc6fb9eb] (000/114) No match (V2 was not tested)
18 [2500c489] (000/118) No match (V2 was not tested)
19 [30a9643d] (000/117) No match (V2 was not tested)
20 [c476d1d3] (000/119) No match (V2 was not tested)
21 [f0b13843] (000/117) No match (V2 was not tested)
22 [ff26d0cb] (000/119) No match (V2 was not tested)
23 [3a275638] (000/117) No match (V2 was not tested)
24 [5df05470] (000/108) No match (V2 was not tested)

Track Peak [ CRC32 ] [W/O NULL] [ LOG ]
– 98,8 [85565A2D] [DDD1D6FA]
01 98,8 [FA662149] [DB3E91E6] CRC32
02 98,8 [B003DA61] [34ECA251] CRC32
03 98,6 [70427ECC] [6DBEA57E] CRC32
04 98,0 [FB3E6C8D] [7FFBA87B] CRC32
05 98,8 [371821A3] [3201223A] CRC32
06 98,8 [4AFD1C2E] [50635374] CRC32
07 98,8 [73542B26] [F08B989A] CRC32
08 98,8 [1969F038] [21975DC2] CRC32
09 98,7 [95E07474] [4B5F77DD] CRC32
10 98,8 [E64E7ECE] [D3497779] CRC32
11 98,8 [DCD33466] [58F7E565] CRC32
12 98,8 [27AFEF74] [5E5942F6] CRC32
13 98,8 [2CE08FB5] [582C4F1B] CRC32
14 98,8 [0D7B066F] [75894B40] CRC32
15 98,8 [0C7DC39D] [F563FA58] CRC32
16 98,8 [10BE26CE] [E7E2D530] CRC32
17 98,8 [166240C9] [01894AF4] CRC32
18 98,8 [CB0F7F26] [275B1EB8] CRC32
19 98,8 [0B16A426] [09381996] CRC32
20 98,8 [E41EC04F] [A788572B] CRC32
21 98,8 [EFE121EA] [0B9F0713] CRC32
22 98,8 [DFBA33D1] [34F703AD] CRC32
23 98,8 [3C60791C] [247BE319] CRC32
24 98,8 [E19591E7] [3739720C] CRC32

ZZ Top - Chrome Smoke & BBQ: The ZZ Top Box (2003) 4 CD


Tracklist CD 3 :

01. I Wanna Drive You Home (4:48)
02. It's So Hard (5:12)
03. Pearl Necklace (4:07)
04. Heaven, Hell Or Houston (2:33)
05. Gimme All Your Lovin (4:01)
06. Got Me Under Pressure (4:01)
07. TV Dinners (3:51)
08. Sharp Dressed Man (4:15)
09. Legs (3:37)
10. I Got The Six (2:54)
11. Dirty Dog (4:03)
12. If I Could Only Flag Her Down (3:42)
13. Sleeping Bag (4:05)
14. Stages (3:35)
15. Woke Up With Wood (3:48)
16. Rough Boy (4:53)
17. Can't Stop Rockin' (3:06)
18. Planet Of Women (4:06)
19. Velcro Fly (3:31)
20. Delirious (3:41)

Exact Audio Copy V1.0 beta 6 from 9. April 2015

EAC extraction logfile from 24. January 2016, 17:17

ZZ Top / Chrome, Smoke & BBQ (Disc 3)

Used drive : PIONEER DVD-RW DVRKD08RS Adapter: 1 ID: 1

Read mode : Secure
Utilize accurate stream : Yes
Defeat audio cache : Yes
Make use of C2 pointers : No

Read offset correction : 48
Overread into Lead-In and Lead-Out : No
Fill up missing offset samples with silence : Yes
Delete leading and trailing silent blocks : No
Null samples used in CRC calculations : Yes
Used interface : Native Win32 interface for Win NT & 2000
Gap handling : Appended to previous track

Used output format : User Defined Encoder
Selected bitrate : 128 kBit/s
Quality : High
Add ID3 tag : No
Command line compressor : C:\Program Files (x86)\Exact Audio Copy\Flac\flac.exe
Additional command line options : -8 -V -T "ARTIST=%artist%" -T "TITLE=%title%" -T "ALBUM=%albumtitle%" -T "DATE=%year%" -T "TRACKNUMBER=%tracknr%" -T "TOTALTRACKS=%numtracks%" -T "GENRE=%genre%" -T "ALBUMARTIST=%albumartist%" -T "ALBUM ARTIST=%albumartist%" -T "COMMENT=EAC Secure Mode, Test & Copy, AccurateRip, FLAC -8" %source%


TOC of the extracted CD

Track | Start | Length | Start sector | End sector
––––––––––––––––––––––––––––-
1 | 0:00.00 | 4:48.30 | 0 | 21629
2 | 4:48.30 | 5:11.57 | 21630 | 45011
3 | 10:00.12 | 4:06.53 | 45012 | 63514
4 | 14:06.65 | 2:33.32 | 63515 | 75021
5 | 16:40.22 | 4:00.45 | 75022 | 93066
6 | 20:40.67 | 4:01.05 | 93067 | 111146
7 | 24:41.72 | 3:51.03 | 111147 | 128474
8 | 28:33.00 | 4:14.67 | 128475 | 147591
9 | 32:47.67 | 3:36.53 | 147592 | 163844
10 | 36:24.45 | 2:53.67 | 163845 | 176886
11 | 39:18.37 | 4:03.20 | 176887 | 195131
12 | 43:21.57 | 3:42.35 | 195132 | 211816
13 | 47:04.17 | 4:04.68 | 211817 | 230184
14 | 51:09.10 | 3:34.42 | 230185 | 246276
15 | 54:43.52 | 3:47.40 | 246277 | 263341
16 | 58:31.17 | 4:52.48 | 263342 | 285289
17 | 63:23.65 | 3:05.40 | 285290 | 299204
18 | 66:29.30 | 4:05.50 | 299205 | 317629
19 | 70:35.05 | 3:31.32 | 317630 | 333486
20 | 74:06.37 | 3:41.00 | 333487 | 350061


Track 1

Filename D:\Rips\ZZ Top - Chrome, Smoke & BBQ\Disc 3\01 - I Wanna Drive You Home.wav

Pre-gap length 0:00:02.00

Peak level 98.8 %
Extraction speed 3.0 X
Track quality 100.0 %
Test CRC A54729C9
Copy CRC A54729C9
Accurately ripped (confidence 10) [69B853DA] (AR v2)
Copy OK

Track 2

Filename D:\Rips\ZZ Top - Chrome, Smoke & BBQ\Disc 3\02 - It's So Hard.wav

Pre-gap length 0:00:01.13

Peak level 98.8 %
Extraction speed 3.0 X
Track quality 99.9 %
Test CRC C1374E4C
Copy CRC C1374E4C
Accurately ripped (confidence 10) [9F214C89] (AR v2)
Copy OK

Track 3

Filename D:\Rips\ZZ Top - Chrome, Smoke & BBQ\Disc 3\03 - Pearl Necklace.wav

Peak level 98.8 %
Extraction speed 3.5 X
Track quality 100.0 %
Test CRC CAC459BF
Copy CRC CAC459BF
Accurately ripped (confidence 10) [81E9D1C7] (AR v2)
Copy OK

Track 4

Filename D:\Rips\ZZ Top - Chrome, Smoke & BBQ\Disc 3\04 - Heaven, Hell Or Houston.wav

Pre-gap length 0:00:00.73

Peak level 98.8 %
Extraction speed 3.4 X
Track quality 100.0 %
Test CRC 1C2BCC28
Copy CRC 1C2BCC28
Accurately ripped (confidence 10) [4D067266] (AR v2)
Copy OK

Track 5

Filename D:\Rips\ZZ Top - Chrome, Smoke & BBQ\Disc 3\05 - Gimme All Your Lovin.wav

Pre-gap length 0:00:01.60

Peak level 98.8 %
Extraction speed 3.8 X
Track quality 100.0 %
Test CRC B6E26610
Copy CRC B6E26610
Accurately ripped (confidence 10) [9F585561] (AR v2)
Copy OK

Track 6

Filename D:\Rips\ZZ Top - Chrome, Smoke & BBQ\Disc 3\06 - Got Me Under Pressure.wav

Pre-gap length 0:00:00.35

Peak level 98.8 %
Extraction speed 4.0 X
Track quality 100.0 %
Test CRC 42DF9710
Copy CRC 42DF9710
Accurately ripped (confidence 10) [F6264D19] (AR v2)
Copy OK

Track 7

Filename D:\Rips\ZZ Top - Chrome, Smoke & BBQ\Disc 3\07 - TV Dinners.wav

Pre-gap length 0:00:02.47

Peak level 98.8 %
Extraction speed 3.7 X
Track quality 99.9 %
Test CRC 827964E2
Copy CRC 827964E2
Accurately ripped (confidence 10) [AEBB7C89] (AR v2)
Copy OK

Track 8

Filename D:\Rips\ZZ Top - Chrome, Smoke & BBQ\Disc 3\08 - Sharp Dressed Man.wav

Pre-gap length 0:00:00.17

Peak level 98.8 %
Extraction speed 4.4 X
Track quality 100.0 %
Test CRC 4E14FE66
Copy CRC 4E14FE66
Accurately ripped (confidence 10) [9D65C9B7] (AR v2)
Copy OK

Track 9

Filename D:\Rips\ZZ Top - Chrome, Smoke & BBQ\Disc 3\09 - Legs.wav

Pre-gap length 0:00:02.10

Peak level 98.8 %
Extraction speed 4.4 X
Track quality 100.0 %
Test CRC 108B2539
Copy CRC 108B2539
Accurately ripped (confidence 10) [9CB5749F] (AR v2)
Copy OK

Track 10

Filename D:\Rips\ZZ Top - Chrome, Smoke & BBQ\Disc 3\10 - I Got The Six.wav

Pre-gap length 0:00:01.10

Peak level 98.8 %
Extraction speed 4.4 X
Track quality 100.0 %
Test CRC EC688568
Copy CRC EC688568
Accurately ripped (confidence 10) [B0B0E32E] (AR v2)
Copy OK

Track 11

Filename D:\Rips\ZZ Top - Chrome, Smoke & BBQ\Disc 3\11 - Dirty Dog.wav

Pre-gap length 0:00:01.52

Peak level 98.8 %
Extraction speed 4.8 X
Track quality 100.0 %
Test CRC 12AED395
Copy CRC 12AED395
Accurately ripped (confidence 10) [1790C1E9] (AR v2)
Copy OK

Track 12

Filename D:\Rips\ZZ Top - Chrome, Smoke & BBQ\Disc 3\12 - If I Could Only Flag Her Down.wav

Pre-gap length 0:00:01.27

Peak level 98.8 %
Extraction speed 4.8 X
Track quality 100.0 %
Test CRC 2BD1F441
Copy CRC 2BD1F441
Accurately ripped (confidence 9) [CA165C7B] (AR v2)
Copy OK

Track 13

Filename D:\Rips\ZZ Top - Chrome, Smoke & BBQ\Disc 3\13 - Sleeping Bag.wav

Pre-gap length 0:00:02.30

Peak level 100.0 %
Extraction speed 5.0 X
Track quality 100.0 %
Test CRC C8C83CA4
Copy CRC C8C83CA4
Accurately ripped (confidence 10) [EE413420] (AR v2)
Copy OK

Track 14

Filename D:\Rips\ZZ Top - Chrome, Smoke & BBQ\Disc 3\14 - Stages.wav

Pre-gap length 0:00:02.35

Peak level 100.0 %
Extraction speed 5.0 X
Track quality 100.0 %
Test CRC 6858D855
Copy CRC 6858D855
Accurately ripped (confidence 10) [EDB92015] (AR v2)
Copy OK

Track 15

Filename D:\Rips\ZZ Top - Chrome, Smoke & BBQ\Disc 3\15 - Woke Up With Wood.wav

Pre-gap length 0:00:02.49

Peak level 100.0 %
Extraction speed 5.2 X
Track quality 100.0 %
Test CRC BC38593A
Copy CRC BC38593A
Accurately ripped (confidence 10) [CE6C9847] (AR v2)
Copy OK

Track 16

Filename D:\Rips\ZZ Top - Chrome, Smoke & BBQ\Disc 3\16 - Rough Boy.wav

Pre-gap length 0:00:01.72

Peak level 100.0 %
Extraction speed 5.5 X
Track quality 100.0 %
Test CRC 1EA24BF8
Copy CRC 1EA24BF8
Accurately ripped (confidence 10) [9E711640] (AR v2)
Copy OK

Track 17

Filename D:\Rips\ZZ Top - Chrome, Smoke & BBQ\Disc 3\17 - Can't Stop Rockin'.wav

Pre-gap length 0:00:01.73

Peak level 100.0 %
Extraction speed 5.3 X
Track quality 100.0 %
Test CRC 0E6BE6BA
Copy CRC 0E6BE6BA
Accurately ripped (confidence 10) [2DC3A89D] (AR v2)
Copy OK

Track 18

Filename D:\Rips\ZZ Top - Chrome, Smoke & BBQ\Disc 3\18 - Planet Of Women.wav

Pre-gap length 0:00:02.38

Peak level 100.0 %
Extraction speed 5.0 X
Track quality 99.9 %
Test CRC 14A630AF
Copy CRC 14A630AF
Accurately ripped (confidence 10) [259E019E] (AR v2)
Copy OK

Track 19

Filename D:\Rips\ZZ Top - Chrome, Smoke & BBQ\Disc 3\19 - Velcro Fly.wav

Pre-gap length 0:00:02.30

Peak level 99.6 %
Extraction speed 5.6 X
Track quality 100.0 %
Test CRC 9DCD6151
Copy CRC 9DCD6151
Accurately ripped (confidence 10) [70D19BF7] (AR v2)
Copy OK

Track 20

Filename D:\Rips\ZZ Top - Chrome, Smoke & BBQ\Disc 3\20 - Delirious.wav

Pre-gap length 0:00:02.17

Peak level 100.0 %
Extraction speed 5.7 X
Track quality 100.0 %
Test CRC 966E3E31
Copy CRC 966E3E31
Accurately ripped (confidence 10) [7E3A0D32] (AR v2)
Copy OK


All tracks accurately ripped

No errors occurred

End of status report

==== Log checksum 331FCCB01B2206FCD32DA919048A8B66399B6ECF14DB9D3E65F18B363401666D ====

[CUETools log; Date: 17.08.2016 22:18:22; Version: 2.1.5]
[CTDB TOCID: rT3jQjxotrWpEJs0ZAbyDMqhM_s-] found.
Track | CTDB Status
1 | (43/43) Accurately ripped
2 | (43/43) Accurately ripped
3 | (43/43) Accurately ripped
4 | (43/43) Accurately ripped
5 | (42/43) Accurately ripped
6 | (43/43) Accurately ripped
7 | (43/43) Accurately ripped
8 | (41/43) Accurately ripped
9 | (41/43) Accurately ripped
10 | (43/43) Accurately ripped
11 | (43/43) Accurately ripped
12 | (43/43) Accurately ripped
13 | (43/43) Accurately ripped
14 | (43/43) Accurately ripped
15 | (41/43) Accurately ripped
16 | (42/43) Accurately ripped
17 | (42/43) Accurately ripped
18 | (43/43) Accurately ripped
19 | (43/43) Accurately ripped
20 | (42/43) Accurately ripped
[AccurateRip ID: 00395a1b-03412647-19123b14] found.
Track [ CRC | V2 ] Status
01 [91a5a994|69b853da] (011+012/119) Accurately ripped
02 [b0d82525|9f214c89] (011+012/119) Accurately ripped
03 [28616241|81e9d1c7] (011+012/118) Accurately ripped
04 [84af637a|4d067266] (011+012/117) Accurately ripped
05 [17b58a78|9f585561] (010+012/117) Accurately ripped
06 [f6bc9d9e|f6264d19] (010+012/118) Accurately ripped
07 [1ae28ea0|aebb7c89] (011+012/120) Accurately ripped
08 [175beaa8|9d65c9b7] (011+012/117) Accurately ripped
09 [f3070929|9cb5749f] (011+012/116) Accurately ripped
10 [3439cb38|b0b0e32e] (011+012/118) Accurately ripped
11 [d5cb2054|1790c1e9] (011+012/116) Accurately ripped
12 [2a9940fc|ca165c7b] (011+011/116) Accurately ripped
13 [01b4f51e|ee413420] (011+012/118) Accurately ripped
14 [ffd62a6c|edb92015] (011+012/114) Accurately ripped
15 [300f0427|ce6c9847] (011+012/117) Accurately ripped
16 [5bc27e0f|9e711640] (011+012/117) Accurately ripped
17 [0c75c172|2dc3a89d] (011+012/115) Accurately ripped
18 [9758275b|259e019e] (011+012/116) Accurately ripped
19 [937d5f8a|70d19bf7] (010+012/119) Accurately ripped
20 [bb76acba|7e3a0d32] (010+012/117) Accurately ripped
Offsetted by -17:
01 [1a661e98] (015/119) Accurately ripped
02 [65ab7efa] (015/119) Accurately ripped
03 [67d5796b] (015/118) Accurately ripped
04 [0a87e4b3] (015/117) Accurately ripped
05 [7fcb5d82] (015/117) Accurately ripped
06 [530f7bd2] (015/118) Accurately ripped
07 [c2b7b455] (015/120) Accurately ripped
08 [c1eb8068] (015/117) Accurately ripped
09 [c4925088] (015/116) Accurately ripped
10 [20a99805] (015/118) Accurately ripped
11 [f7374017] (014/116) Accurately ripped
12 [20da7e38] (015/116) Accurately ripped
13 [65b8335f] (016/118) Accurately ripped
14 [4f34e32d] (014/114) Accurately ripped
15 [d1a3a3b0] (015/117) Accurately ripped
16 [af611ba7] (015/117) Accurately ripped
17 [ff5e39c9] (014/115) Accurately ripped
18 [503f7eb0] (015/116) Accurately ripped
19 [ac12737e] (015/119) Accurately ripped
20 [04eb4a86] (014/117) Accurately ripped
Offsetted by 55:
01 [ffce0ae9] (004/119) Accurately ripped
02 [d7697c4f] (004/119) Accurately ripped
03 [c8b9965b] (004/118) Accurately ripped
04 [b2f69078] (004/117) Accurately ripped
05 [030149ae] (004/117) Accurately ripped
06 [3b4020a4] (004/118) Accurately ripped
07 [8e487e19] (004/120) Accurately ripped
08 [ed5ea49d] (004/117) Accurately ripped
09 [05a1af08] (004/116) Accurately ripped
10 [a13911ea] (004/118) Accurately ripped
11 [5c705afb] (004/116) Accurately ripped
12 [4b6ac6b4] (004/116) Accurately ripped
13 [f8069d3a] (004/118) Accurately ripped
14 [92d0c18d] (004/114) Accurately ripped
15 [1acc084e] (004/117) Accurately ripped
16 [16f8ee2b] (004/117) Accurately ripped
17 [e438988e] (004/115) Accurately ripped
18 [18eb3aec] (004/116) Accurately ripped
19 [a057455b] (004/119) Accurately ripped
20 [0c5f0884] (004/117) Accurately ripped
Offsetted by 141:
01 [9a2d9740] (040/119) Accurately ripped
02 [b3d2307c] (040/119) Accurately ripped
03 [69d76f97] (039/118) Accurately ripped
04 [9338da14] (040/117) Accurately ripped
05 [c42992e5] (041/117) Accurately ripped
06 [b807b406] (040/118) Accurately ripped
07 [e045aff8] (041/120) Accurately ripped
08 [648b682b] (040/117) Accurately ripped
09 [2a064673] (040/116) Accurately ripped
10 [66a73574] (040/118) Accurately ripped
11 [f5daaf78] (040/116) Accurately ripped
12 [6182c47e] (040/116) Accurately ripped
13 [01c93f47] (040/118) Accurately ripped
14 [f0285e27] (037/114) Accurately ripped
15 [56623170] (039/117) Accurately ripped
16 [cc74d1e2] (039/117) Accurately ripped
17 [92e61815] (039/115) Accurately ripped
18 [b1f7d9d0] (038/116) Accurately ripped
19 [9946c92e] (040/119) Accurately ripped
20 [b0df815e] (038/117) Accurately ripped
Offsetted by 6:
01 [9a29a6e5] (000/119) No match
02 [9cbe3ec2] (000/119) No match
03 [078debf2] (000/118) No match
04 [3399a774] (000/117) No match
05 [72b73d47] (000/117) No match
06 [be655e7c] (000/118) No match
07 [79dd5425] (000/120) No match
08 [b3cd91b2] (000/117) No match
09 [cc38a5f7] (000/116) No match
10 [01842b59] (000/118) No match
11 [9ee535f8] (000/116) No match
12 [1cf8f80f] (000/116) No match
13 [7920d374] (000/118) No match
14 [708c3cf9] (000/114) No match
15 [0fa93c07] (000/117) No match
16 [652f2584] (000/117) No match
17 [d347d6c6] (000/115) No match
18 [16da9587] (000/116) No match
19 [054fb697] (002/119) Accurately ripped
20 [fbfbfc8c] (002/117) Accurately ripped
Offsetted by 595:
01 [4c854972] (000/119) No match (V2 was not tested)
02 [f5694e0b] (000/119) No match (V2 was not tested)
03 [96d2e894] (000/118) No match (V2 was not tested)
04 [6ca6b20f] (000/117) No match (V2 was not tested)
05 [a46acd97] (000/117) No match (V2 was not tested)
06 [423c3219] (000/118) No match (V2 was not tested)
07 [4bc7efd0] (000/120) No match (V2 was not tested)
08 [b8c6f336] (000/117) No match (V2 was not tested)
09 [2ccd6ba3] (000/116) No match (V2 was not tested)
10 [c8f1da68] (000/118) No match (V2 was not tested)
11 [9ff7cdee] (000/116) No match (V2 was not tested)
12 [d47e9a23] (000/116) No match (V2 was not tested)
13 [7790228e] (000/118) No match (V2 was not tested)
14 [6cba9c7f] (000/114) No match (V2 was not tested)
15 [40e6bc7b] (000/117) No match (V2 was not tested)
16 [c522e4f3] (000/117) No match (V2 was not tested)
17 [b6ec6e3f] (000/115) No match (V2 was not tested)
18 [534676bb] (000/116) No match (V2 was not tested)
19 [c269417e] (000/119) No match (V2 was not tested)
20 [a0411434] (000/117) No match (V2 was not tested)

Track Peak [ CRC32 ] [W/O NULL] [ LOG ]
– 100,0 [B12EC822] [0E2AE965]
01 98,8 [A54729C9] [0F10A1E0] CRC32
02 98,8 [C1374E4C] [FF6E7680] CRC32
03 98,8 [CAC459BF] [8E5E7FBB] CRC32
04 98,8 [1C2BCC28] [FF8DE62E] CRC32
05 98,8 [B6E26610] [0717BCBA] CRC32
06 98,8 [42DF9710] [B8FE7ABC] CRC32
07 98,8 [827964E2] [5012895E] CRC32
08 98,8 [4E14FE66] [3DBBBF3E] CRC32
09 98,8 [108B2539] [981E4A9F] CRC32
10 98,8 [EC688568] [9DDBE38F] CRC32
11 98,8 [12AED395] [D6AB68CC] CRC32
12 98,8 [2BD1F441] [90F0857F] CRC32
13 100,0 [C8C83CA4] [76D09EA7] CRC32
14 100,0 [6858D855] [C434F340] CRC32
15 100,0 [BC38593A] [427FA791] CRC32
16 100,0 [1EA24BF8] [952DEAD0] CRC32
17 100,0 [0E6BE6BA] [EE56B2BD] CRC32
18 100,0 [14A630AF] [BC521C8F] CRC32
19 99,6 [9DCD6151] [85D22716] CRC32
20 100,0 [966E3E31] [6D5E4EE1] CRC32

ZZ Top - Chrome Smoke & BBQ: The ZZ Top Box (2003) 4 CD


Tracklist CD 4:

01. Concrete and Steel (3:51)
02. Lovething (3:26)
03. Penthouse Eyes (3:50)
04. My Head's In Mississippi (4:21)
05. Give It Up (3:32)
06. Doubleback (3:58)
07. 2000 Blues (4:43)
08. Reverberation (Doubt) (3:03)
09. Viva Las Vegas (4:46)
10. Gun Love (3:42)
11. Francene (Spanish) (2:57)
12. Cheap Sunglasses (Live) (5:15)
13. Legs (Dance mix) (7:57)
14. Viva Los Vegas (12' Remix) (8:40)
15. Give It Up (2,800 mile Remix) (6:25)
16. Velcro Fly (12' Remix) (6:38)

Exact Audio Copy V1.0 beta 6 from 9. April 2015

EAC extraction logfile from 27. January 2016, 21:31

ZZ Top / Chrome, Smoke & BBQ (Disc 4)

Used drive : PIONEER DVD-RW DVRKD08RS Adapter: 1 ID: 1

Read mode : Secure
Utilize accurate stream : Yes
Defeat audio cache : Yes
Make use of C2 pointers : No

Read offset correction : 48
Overread into Lead-In and Lead-Out : No
Fill up missing offset samples with silence : Yes
Delete leading and trailing silent blocks : No
Null samples used in CRC calculations : Yes
Used interface : Native Win32 interface for Win NT & 2000
Gap handling : Appended to previous track

Used output format : User Defined Encoder
Selected bitrate : 128 kBit/s
Quality : High
Add ID3 tag : No
Command line compressor : C:\Program Files (x86)\Exact Audio Copy\Flac\flac.exe
Additional command line options : -8 -V -T "ARTIST=%artist%" -T "TITLE=%title%" -T "ALBUM=%albumtitle%" -T "DATE=%year%" -T "TRACKNUMBER=%tracknr%" -T "TOTALTRACKS=%numtracks%" -T "GENRE=%genre%" -T "ALBUMARTIST=%albumartist%" -T "ALBUM ARTIST=%albumartist%" -T "COMMENT=EAC Secure Mode, Test & Copy, AccurateRip, FLAC -8" %source%


TOC of the extracted CD

Track | Start | Length | Start sector | End sector
––––––––––––––––––––––––––––-
1 | 0:00.00 | 3:50.45 | 0 | 17294
2 | 3:50.45 | 3:26.37 | 17295 | 32781
3 | 7:17.07 | 3:50.00 | 32782 | 50031
4 | 11:07.07 | 4:20.70 | 50032 | 69601
5 | 15:28.02 | 3:32.08 | 69602 | 85509
6 | 19:00.10 | 3:58.27 | 85510 | 103386
7 | 22:58.37 | 4:42.53 | 103387 | 124589
8 | 27:41.15 | 3:03.12 | 124590 | 138326
9 | 30:44.27 | 4:46.20 | 138327 | 159796
10 | 35:30.47 | 3:42.25 | 159797 | 176471
11 | 39:12.72 | 2:56.65 | 176472 | 189736
12 | 42:09.62 | 5:14.73 | 189737 | 213359
13 | 47:24.60 | 7:57.35 | 213360 | 249169
14 | 55:22.20 | 8:39.50 | 249170 | 288144
15 | 64:01.70 | 6:25.00 | 288145 | 317019
16 | 70:26.70 | 6:38.35 | 317020 | 346904


Track 1

Filename D:\Rips\ZZ Top - Chrome, Smoke & BBQ\Disc 4\01 - Concrete And Steel.wav

Pre-gap length 0:00:02.00

Peak level 99.8 %
Extraction speed 2.9 X
Track quality 100.0 %
Test CRC BC8473DC
Copy CRC BC8473DC
Accurately ripped (confidence 10) [344692BD] (AR v2)
Copy OK

Track 2

Filename D:\Rips\ZZ Top - Chrome, Smoke & BBQ\Disc 4\02 - Lovething.wav

Pre-gap length 0:00:02.15

Peak level 99.8 %
Extraction speed 2.7 X
Track quality 99.9 %
Test CRC D0D1A203
Copy CRC D0D1A203
Accurately ripped (confidence 10) [EFA4CEF3] (AR v2)
Copy OK

Track 3

Filename D:\Rips\ZZ Top - Chrome, Smoke & BBQ\Disc 4\03 - Penthouse Eyes.wav

Pre-gap length 0:00:01.35

Peak level 99.8 %
Extraction speed 3.3 X
Track quality 100.0 %
Test CRC 519E43BA
Copy CRC 519E43BA
Accurately ripped (confidence 9) [00244E30] (AR v2)
Copy OK

Track 4

Filename D:\Rips\ZZ Top - Chrome, Smoke & BBQ\Disc 4\04 - My Head's In Mississippi.wav

Pre-gap length 0:00:02.02

Peak level 99.8 %
Extraction speed 3.2 X
Track quality 99.9 %
Test CRC 0988E6A2
Copy CRC 0988E6A2
Accurately ripped (confidence 10) [70A94B63] (AR v2)
Copy OK

Track 5

Filename D:\Rips\ZZ Top - Chrome, Smoke & BBQ\Disc 4\05 - Give It Up.wav

Pre-gap length 0:00:01.65

Peak level 99.8 %
Extraction speed 3.7 X
Track quality 100.0 %
Test CRC 6EF50609
Copy CRC 6EF50609
Accurately ripped (confidence 10) [9530D554] (AR v2)
Copy OK

Track 6

Filename D:\Rips\ZZ Top - Chrome, Smoke & BBQ\Disc 4\06 - Doubleback.wav

Pre-gap length 0:00:01.50

Peak level 100.0 %
Extraction speed 3.5 X
Track quality 99.9 %
Test CRC 65B85589
Copy CRC 65B85589
Accurately ripped (confidence 10) [F9592790] (AR v2)
Copy OK

Track 7

Filename D:\Rips\ZZ Top - Chrome, Smoke & BBQ\Disc 4\07 - 2000 Blues.wav

Pre-gap length 0:00:01.44

Peak level 100.0 %
Extraction speed 4.2 X
Track quality 100.0 %
Test CRC 45A92D57
Copy CRC 45A92D57
Accurately ripped (confidence 10) [7FFB63F4] (AR v2)
Copy OK

Track 8

Filename D:\Rips\ZZ Top - Chrome, Smoke & BBQ\Disc 4\08 - Reverberation (Doubt).wav

Pre-gap length 0:00:00.53

Peak level 91.4 %
Extraction speed 4.1 X
Track quality 100.0 %
Test CRC 557D40D9
Copy CRC 557D40D9
Accurately ripped (confidence 10) [1DA1C332] (AR v2)
Copy OK

Track 9

Filename D:\Rips\ZZ Top - Chrome, Smoke & BBQ\Disc 4\09 - Viva Las Vegas.wav

Pre-gap length 0:00:02.72

Peak level 95.4 %
Extraction speed 4.6 X
Track quality 100.0 %
Test CRC 963EED82
Copy CRC 963EED82
Accurately ripped (confidence 10) [D4AB750B] (AR v2)
Copy OK

Track 10

Filename D:\Rips\ZZ Top - Chrome, Smoke & BBQ\Disc 4\10 - Gun Love.wav

Pre-gap length 0:00:02.57

Peak level 95.7 %
Extraction speed 4.6 X
Track quality 100.0 %
Test CRC F9A599F1
Copy CRC F9A599F1
Accurately ripped (confidence 10) [BC829FF1] (AR v2)
Copy OK

Track 11

Filename D:\Rips\ZZ Top - Chrome, Smoke & BBQ\Disc 4\11 - Francine (Spanish).wav

Pre-gap length 0:00:02.42

Peak level 98.8 %
Extraction speed 4.5 X
Track quality 100.0 %
Test CRC 35C18732
Copy CRC 35C18732
Accurately ripped (confidence 10) [CEE20947] (AR v2)
Copy OK

Track 12

Filename D:\Rips\ZZ Top - Chrome, Smoke & BBQ\Disc 4\12 - Cheap Sunglasses (Live).wav

Peak level 98.8 %
Extraction speed 5.0 X
Track quality 100.0 %
Test CRC E344BD4E
Copy CRC E344BD4E
Accurately ripped (confidence 10) [E95C3A4A] (AR v2)
Copy OK

Track 13

Filename D:\Rips\ZZ Top - Chrome, Smoke & BBQ\Disc 4\13 - Legs (Dance Mix).wav

Peak level 100.0 %
Extraction speed 5.5 X
Track quality 100.0 %
Test CRC 8EB765C6
Copy CRC 8EB765C6
Accurately ripped (confidence 10) [897D4D6B] (AR v2)
Copy OK

Track 14

Filename D:\Rips\ZZ Top - Chrome, Smoke & BBQ\Disc 4\14 - Viva Las Vegas (12'' Remix).wav

Pre-gap length 0:00:06.50

Peak level 99.8 %
Extraction speed 5.8 X
Track quality 100.0 %
Test CRC C99FD190
Copy CRC C99FD190
Accurately ripped (confidence 10) [A5351591] (AR v2)
Copy OK

Track 15

Filename D:\Rips\ZZ Top - Chrome, Smoke & BBQ\Disc 4\15 - Give It Up (2,800 Mile Remix).wav

Peak level 98.8 %
Extraction speed 5.9 X
Track quality 100.0 %
Test CRC CB3E56FE
Copy CRC CB3E56FE
Accurately ripped (confidence 10) [81055B37] (AR v2)
Copy OK

Track 16

Filename D:\Rips\ZZ Top - Chrome, Smoke & BBQ\Disc 4\16 - Velcro Fly (12'' Remix).wav

Peak level 100.0 %
Extraction speed 6.2 X
Track quality 100.0 %
Test CRC 41C0BD1A
Copy CRC 41C0BD1A
Accurately ripped (confidence 10) [F1C0AFDD] (AR v2)
Copy OK


All tracks accurately ripped

No errors occurred

End of status report

==== Log checksum 452692B4EC732C93C62B2066D1D3BC5C93250B794F2D4CD8B609DB3810D91B9B ====

[CUETools log; Date: 17.08.2016 22:21:51; Version: 2.1.5]
[CTDB TOCID: WP61ISv9fJq.KJI_qnOZyoG2M6Y-] found.
Track | CTDB Status
1 | (43/43) Accurately ripped
2 | (43/43) Accurately ripped
3 | (42/43) Accurately ripped
4 | (43/43) Accurately ripped
5 | (43/43) Accurately ripped
6 | (43/43) Accurately ripped
7 | (43/43) Accurately ripped
8 | (43/43) Accurately ripped
9 | (43/43) Accurately ripped
10 | (43/43) Accurately ripped
11 | (43/43) Accurately ripped
12 | (43/43) Accurately ripped
13 | (40/43) Accurately ripped
14 | (41/43) Accurately ripped
15 | (41/43) Accurately ripped
16 | (39/43) Accurately ripped
[AccurateRip ID: 00271853-01e119ed-d4121110] found.
Track [ CRC | V2 ] Status
01 [6b6a436c|344692bd] (011+012/118) Accurately ripped
02 [48459165|efa4cef3] (011+012/118) Accurately ripped
03 [82bb046d|00244e30] (011+010/116) Accurately ripped
04 [7a8c99f5|70a94b63] (011+012/118) Accurately ripped
05 [942a7bbd|9530d554] (011+012/117) Accurately ripped
06 [aff176bb|f9592790] (011+011/117) Accurately ripped
07 [8a1689f1|7ffb63f4] (011+011/116) Accurately ripped
08 [ca1bc07c|1da1c332] (011+011/117) Accurately ripped
09 [d150df78|d4ab750b] (011+012/117) Accurately ripped
10 [bec96aba|bc829ff1] (011+011/115) Accurately ripped
11 [8bea4639|cee20947] (011+012/116) Accurately ripped
12 [b73f5ad6|e95c3a4a] (011+012/116) Accurately ripped
13 [3f226c15|897d4d6b] (011+012/114) Accurately ripped
14 [f1c33999|a5351591] (010+011/111) Accurately ripped
15 [0b531a36|81055b37] (011+011/113) Accurately ripped
16 [05f38aa7|f1c0afdd] (010+012/108) Accurately ripped
Offsetted by -775:
01 [ca8f07d0] (004/118) Accurately ripped
02 [706ec6cf] (004/118) Accurately ripped
03 [07325fa8] (004/116) Accurately ripped
04 [9eb58427] (004/118) Accurately ripped
05 [2df3107d] (004/117) Accurately ripped
06 [1c7b344f] (004/117) Accurately ripped
07 [4ca7fa5c] (004/116) Accurately ripped
08 [70be3b64] (004/117) Accurately ripped
09 [b81fbec3] (004/117) Accurately ripped
10 [c5e716b7] (004/115) Accurately ripped
11 [901e2946] (004/116) Accurately ripped
12 [a477f81c] (004/116) Accurately ripped
13 [5f3c3f7c] (004/114) Accurately ripped
14 [b60d1087] (004/111) Accurately ripped
15 [510055b2] (004/113) Accurately ripped
16 [7a010794] (004/108) Accurately ripped
Offsetted by -695:
01 [7a434404] (014/118) Accurately ripped
02 [b23f4149] (014/118) Accurately ripped
03 [50cad35e] (014/116) Accurately ripped
04 [9a4daf7d] (015/118) Accurately ripped
05 [08603f70] (014/117) Accurately ripped
06 [65747a80] (015/117) Accurately ripped
07 [aa3f7b48] (014/116) Accurately ripped
08 [bea75e53] (014/117) Accurately ripped
09 [7d915908] (014/117) Accurately ripped
10 [f3a99ade] (014/115) Accurately ripped
11 [073cc89d] (015/116) Accurately ripped
12 [46595477] (014/116) Accurately ripped
13 [97566bfc] (014/114) Accurately ripped
14 [54de4e8e] (014/111) Accurately ripped
15 [56f25ae4] (014/113) Accurately ripped
16 [0c059068] (013/108) Accurately ripped
Offsetted by -689:
01 [238f5b64] (040/118) Accurately ripped
02 [ff46f5de] (040/118) Accurately ripped
03 [d88c5f14] (040/116) Accurately ripped
04 [21597f22] (039/118) Accurately ripped
05 [db651eed] (039/117) Accurately ripped
06 [1fecb08e] (039/117) Accurately ripped
07 [cbe61734] (039/116) Accurately ripped
08 [bc879f56] (040/117) Accurately ripped
09 [34a2f16d] (039/117) Accurately ripped
10 [1031d339] (038/115) Accurately ripped
11 [c3a935ab] (038/116) Accurately ripped
12 [aca28150] (039/116) Accurately ripped
13 [91369712] (038/114) Accurately ripped
14 [f9fbf9f1] (038/111) Accurately ripped
15 [354aeb52] (037/113) Accurately ripped
16 [375a2112] (035/108) Accurately ripped
Offsetted by -235:
01 [65d3efcc] (000/118) No match (V2 was not tested)
02 [d86a06b2] (000/118) No match (V2 was not tested)
03 [18415d70] (000/116) No match (V2 was not tested)
04 [0273b8b6] (000/118) No match (V2 was not tested)
05 [13d9015e] (000/117) No match (V2 was not tested)
06 [ddce087c] (000/117) No match (V2 was not tested)
07 [aa7f5aea] (000/116) No match (V2 was not tested)
08 [69a3922e] (000/117) No match (V2 was not tested)
09 [5fa212c6] (000/117) No match (V2 was not tested)
10 [fc8a50ab] (000/115) No match (V2 was not tested)
11 [79e33c0f] (000/116) No match (V2 was not tested)
12 [ebeb6295] (000/116) No match (V2 was not tested)
13 [b8f429dd] (000/114) No match (V2 was not tested)
14 [5db2855d] (000/111) No match (V2 was not tested)
15 [42fb8cdb] (000/113) No match (V2 was not tested)
16 [1dbeea87] (000/108) No match (V2 was not tested)

Track Peak [ CRC32 ] [W/O NULL] [ LOG ]
– 100,0 [D61AF8DE] [58B6C2CD]
01 99,8 [BC8473DC] [BA49DD28] CRC32
02 99,8 [D0D1A203] [4C55B103] CRC32
03 99,8 [519E43BA] [D5DCDC00] CRC32
04 99,8 [0988E6A2] [D8184214] CRC32
05 99,8 [6EF50609] [3BD77A6B] CRC32
06 100,0 [65B85589] [CD06D197] CRC32
07 100,0 [45A92D57] [426FCBFB] CRC32
08 91,4 [557D40D9] [1DE0E991] CRC32
09 95,4 [963EED82] [470E9AD3] CRC32
10 95,7 [F9A599F1] [18075436] CRC32
11 98,8 [35C18732] [E9719457] CRC32
12 98,8 [E344BD4E] [348440ED] CRC32
13 100,0 [8EB765C6] [FBE2384A] CRC32
14 99,8 [C99FD190] [3A18D8E0] CRC32
15 98,8 [CB3E56FE] [26EAA902] CRC32
16 100,0 [41C0BD1A] [5C127483] CRC32


Musicians

Billy Gibbons – guitar, vocals
Dusty Hill - bass, keyboards, vocals
Frank Beard - drums, percussion

ZZ Top - Chrome Smoke & BBQ: The ZZ Top Box (2003) 4 CD

All thanks goes to the original releaser
=====