Zbigniew Preisner - Dekalog: Original Film Soundtrack (1991)

Posted By: Designol
Zbigniew Preisner - Dekalog: Original Film Soundtrack (1991)

Zbigniew Preisner - Dekalog: Original Film Soundtrack (1991)
EAC | FLAC | Tracks (Cue&Log) ~ 225 Mb (incl 5%) | Mp3 (CBR320) ~ 131 Mb (incl 5%) | Scans included
Soundtrack, Score, Classical | Label: Kompania Muzyczna Pomaton | # POM CD 018 | 00:52:39

The ten one-hour Dekalog films are set around the same modern Warsaw apartment building. Each film deals with a theme - love, marriage, infidelity, parenthood, guilt, faith, compassion - exploring the relevance of one of the Ten Commandments, showing how people deal with moral dilemma in their everyday lives. The soundtrack for nine of the ten Dekalog films marks the point where the creative relationship and friendship between Preisner and Kieslowski first flowered and contains the seeds of much of Preisner's later work. (Kieslowski and Preisner decided that Dekalog X would not require an original music score). The music was recorded by Zbigniew Malecki and Aleksander Dowsilas at Radiowy Dom Sztuki Studio, Katowice.

Polish film music, at its best, can be a transcendent experience, encompassing folk idioms, café-concert music, and their special take on jazz and the legacy of Chopin, Poland's postwar brand of avant-garde music, their distinct understanding of negative space, and many other appealing elements. Composer Zbigniew Preisner is one of the most celebrated figures in Poland's film music scene and has taken prestigious awards on an international scope, winning César Awards in France and Golden Globes in the U.S. Although Preisner's first film scoring job was in 1981, it was through his eighth film collaboration with director Krzysztof Kieslowski that made Preisner's name, including such iconic titles as The Double Life of Veronique (1991) and Blue (1993). The TV miniseries Dekalog (1989-1990) was Preisner's first collaboration with Kieslowski, an anthology series of stories based on one of the 10 commandments in the Holy Bible, though sometimes including allusions to two or three within one episode. Dekalog proved enormously popular in Poland and was released to repertory theaters abroad about a decade after it initially aired; it was released in a DVD edition in 2000.

This is the original soundtrack CD released on Pomaton and distributed by EMI Music Poland; despite its handsome design, it represents a challenge for users outside of Poland, as every word of explanatory notes within are in Polish. Concerns outside of Poland, including the French Amplitude and English Silva Screen labels, have issued versions of Dekalog – usually titled "The Decalogue" in English – but despite the popularity of Preisner soundtracks such as Blue, none of these export versions have stayed in the catalog very long. While an overall hushed, somber mood and properties of restraint do marry the 25 tracks on this album into a loosely coherent whole, Preisner was still looking for his voice in Dekalog and seems a little too easily satisfied with overly simple thematic ideas, arriving at typical more often than transcendent. Nevertheless, the listener with an especial interest in Preisner will doubtless want all of the scores he did with Kieslowski, and though the more easily accessible export editions of Dekalog have come and gone, this original Polish release of the soundtrack music has remained in print all along and should well satisfy the curiosity of those who are willing to seek it out.

Review by Uncle Dave Lewis, Allmusic.com

Zbigniew Preisner at Allmusic
Zbigniew Preisner Website
Zbigniew Preisner at Wiki

Film at IMDB
Film at Wiki

Katowice Symphony Orchestra
Conductor: Zdzisław Szostak
Soloists:
Elzbieta Towrnicka - soprano
Jacek Ostaszewski - flute
Konrad Mastylo - piano
Andrzej Modrzejewski - guitar
M. Półtorak - violin

Tracklist:

01. Dekalog I - Part 6 (02:14)
02. Dekalog I - Part 5 (03:43)
03. Dekalog II - Part 1 (01:20)
04. Dekalog II - Part 2 (04:01)
05. Dekalog III - Part 2 (02:30)
06. Dekalog III - Part 3 (02:38)
07. Dekalog IV - Part 1 (02:17)
08. Dekalog IV - Part 2 (02:29)
09. Dekalog V - Part 1 (01:43)
10. Dekalog V - Part 6 (01:40)
11. Dekalog V - Part 9 (01:12)
12. Dekalog V - Part 12 (01:27)
13. Dekalog VI - Part 1 (01:49)
14. Dekalog VI - Part 2 (01:37)
15. Dekalog VI - Part 3 (00:50)
16. Dekalog VI - Part 4 (03:07)
17. Dekalog VII - Part 6 (02:43)
18. Dekalog VII - Part 8 (01:54)
19. Dekalog VIII - Part 1 (01:09)
20. Dekalog VIII - Part 4 (03:36)
21. Dekalog VIII - Part 7 (01:52)
22. Dekalog IX - Part 3 (02:17)
23. Dekalog IX - Part 7 (01:04)
24. Dekalog IX - Part 12 (01:07)
25. Dekalog IX - Part 13 (02:09)


Exact Audio Copy V0.99 prebeta 4 from 23. January 2008

EAC extraction logfile from 10. December 2009, 10:38

Zbigniew Preisner / Dekalog

Used drive : HL-DT-STDVDRAM GSA-T20L Adapter: 3 ID: 0

Read mode : Secure
Utilize accurate stream : Yes
Defeat audio cache : Yes
Make use of C2 pointers : No

Read offset correction : 667
Overread into Lead-In and Lead-Out : No
Fill up missing offset samples with silence : Yes
Delete leading and trailing silent blocks : No
Null samples used in CRC calculations : Yes
Used interface : Native Win32 interface for Win NT & 2000
Gap handling : Appended to previous track

Used output format : User Defined Encoder
Selected bitrate : 128 kBit/s
Quality : High
Add ID3 tag : No
Command line compressor : C:\Program Files\FLAC\flac.exe
Additional command line options : -8 -V -T "ARTIST=%a" -T "TITLE=%t" -T "ALBUM=%g" -T "DATE=%y" -T "TRACKNUMBER=%n" -T "GENRE=%m" -T "COMMENT=EAC FLAC -8" %s


TOC of the extracted CD

Track | Start | Length | Start sector | End sector
––––––––––––––––––––––––––––-
1 | 0:00.33 | 2:14.22 | 33 | 10104
2 | 2:14.55 | 3:43.73 | 10105 | 26902
3 | 5:58.53 | 1:20.62 | 26903 | 32964
4 | 7:19.40 | 4:01.13 | 32965 | 51052
5 | 11:20.53 | 2:30.00 | 51053 | 62302
6 | 13:50.53 | 2:38.52 | 62303 | 74204
7 | 16:29.30 | 2:17.33 | 74205 | 84512
8 | 18:46.63 | 2:29.45 | 84513 | 95732
9 | 21:16.33 | 1:43.10 | 95733 | 103467
10 | 22:59.43 | 1:40.60 | 103468 | 111027
11 | 24:40.28 | 1:12.20 | 111028 | 116447
12 | 25:52.48 | 1:27.72 | 116448 | 123044
13 | 27:20.45 | 1:49.28 | 123045 | 131247
14 | 29:09.73 | 1:37.17 | 131248 | 138539
15 | 30:47.15 | 0:50.48 | 138540 | 142337
16 | 31:37.63 | 3:07.10 | 142338 | 156372
17 | 34:44.73 | 2:43.57 | 156373 | 168654
18 | 37:28.55 | 1:54.50 | 168655 | 177254
19 | 39:23.30 | 1:09.08 | 177255 | 182437
20 | 40:32.38 | 3:36.57 | 182438 | 198694
21 | 44:09.20 | 1:52.13 | 198695 | 207107
22 | 46:01.33 | 2:17.05 | 207108 | 217387
23 | 48:18.38 | 1:04.47 | 217388 | 222234
24 | 49:23.10 | 1:07.20 | 222235 | 227279
25 | 50:30.30 | 2:09.38 | 227280 | 236992


Track 1

Filename D:\muza\f i l m o w a\Preisner\Zbigniew Preisner - Dekalog (1989) [FLAC]\01 - Dekalog I - Czesc 6.wav

Pre-gap length 0:00:02.44

Peak level 44.4 %
Track quality 100.0 %
Test CRC C8EE20A8
Copy CRC C8EE20A8
Cannot be verified as accurate (confidence 4) [D064D65C], AccurateRip returned [0CB7F18F]
Copy OK

Track 2

Filename D:\muza\f i l m o w a\Preisner\Zbigniew Preisner - Dekalog (1989) [FLAC]\02 - Dekalog I - Czesc 5.wav

Pre-gap length 0:00:01.50

Peak level 91.4 %
Track quality 100.0 %
Test CRC 79E4E7FB
Copy CRC 79E4E7FB
Cannot be verified as accurate (confidence 4) [1A0C2EFD], AccurateRip returned [079A9C1C]
Copy OK

Track 3

Filename D:\muza\f i l m o w a\Preisner\Zbigniew Preisner - Dekalog (1989) [FLAC]\03 - Dekalog II - Czesc 1.wav

Pre-gap length 0:00:03.62

Peak level 70.9 %
Track quality 100.0 %
Test CRC 453AAC69
Copy CRC 453AAC69
Cannot be verified as accurate (confidence 4) [3236C083], AccurateRip returned [94D2476A]
Copy OK

Track 4

Filename D:\muza\f i l m o w a\Preisner\Zbigniew Preisner - Dekalog (1989) [FLAC]\04 - Dekalog II - Czesc 2.wav

Pre-gap length 0:00:01.77

Peak level 34.2 %
Track quality 100.0 %
Test CRC E952D0EB
Copy CRC E952D0EB
Cannot be verified as accurate (confidence 4) [BB719A9F], AccurateRip returned [6F5032D4]
Copy OK

Track 5

Filename D:\muza\f i l m o w a\Preisner\Zbigniew Preisner - Dekalog (1989) [FLAC]\05 - Dekalog III - Czesc 2.wav

Pre-gap length 0:00:03.40

Peak level 35.3 %
Track quality 100.0 %
Test CRC 396B6456
Copy CRC 396B6456
Cannot be verified as accurate (confidence 4) [42867869], AccurateRip returned [C349E316]
Copy OK

Track 6

Filename D:\muza\f i l m o w a\Preisner\Zbigniew Preisner - Dekalog (1989) [FLAC]\06 - Dekalog III - Czesc 3.wav

Pre-gap length 0:00:01.58

Peak level 23.8 %
Track quality 100.0 %
Test CRC CE1C8C23
Copy CRC CE1C8C23
Cannot be verified as accurate (confidence 3) [CA594489], AccurateRip returned [8BCD1F75]
Copy OK

Track 7

Filename D:\muza\f i l m o w a\Preisner\Zbigniew Preisner - Dekalog (1989) [FLAC]\07 - Dekalog IV - Czesc 1.wav

Pre-gap length 0:00:03.73

Peak level 49.9 %
Track quality 100.0 %
Test CRC C03CADC6
Copy CRC C03CADC6
Cannot be verified as accurate (confidence 3) [C71D65F9], AccurateRip returned [5408520F]
Copy OK

Track 8

Filename D:\muza\f i l m o w a\Preisner\Zbigniew Preisner - Dekalog (1989) [FLAC]\08 - Dekalog IV - Czesc 2.wav

Pre-gap length 0:00:01.98

Peak level 63.7 %
Track quality 100.0 %
Test CRC CBB12EF2
Copy CRC CBB12EF2
Cannot be verified as accurate (confidence 4) [78EB5EAE], AccurateRip returned [3D041CE6]
Copy OK

Track 9

Filename D:\muza\f i l m o w a\Preisner\Zbigniew Preisner - Dekalog (1989) [FLAC]\09 - Dekalog V - Czesc 1.wav

Pre-gap length 0:00:03.86

Peak level 89.5 %
Track quality 100.0 %
Test CRC 261104E8
Copy CRC 261104E8
Cannot be verified as accurate (confidence 4) [B843CAAB], AccurateRip returned [AE42E772]
Copy OK

Track 10

Filename D:\muza\f i l m o w a\Preisner\Zbigniew Preisner - Dekalog (1989) [FLAC]\10 - Dekalog V - Czesc 6.wav

Pre-gap length 0:00:01.77

Peak level 92.0 %
Track quality 100.0 %
Test CRC 817BA180
Copy CRC 817BA180
Cannot be verified as accurate (confidence 4) [F89A2302], AccurateRip returned [9DF66069]
Copy OK

Track 11

Filename D:\muza\f i l m o w a\Preisner\Zbigniew Preisner - Dekalog (1989) [FLAC]\11 - Dekalog V - Czesc 9.wav

Pre-gap length 0:00:01.92

Peak level 85.7 %
Track quality 100.0 %
Test CRC 9E58A5B0
Copy CRC 9E58A5B0
Cannot be verified as accurate (confidence 4) [AF09D953], AccurateRip returned [3310B544]
Copy OK

Track 12

Filename D:\muza\f i l m o w a\Preisner\Zbigniew Preisner - Dekalog (1989) [FLAC]\12 - Dekalog V - Czesc 12.wav

Pre-gap length 0:00:02.37

Peak level 29.7 %
Track quality 100.0 %
Test CRC 8D159F78
Copy CRC 8D159F78
Cannot be verified as accurate (confidence 3) [1425654F], AccurateRip returned [1A163456]
Copy OK

Track 13

Filename D:\muza\f i l m o w a\Preisner\Zbigniew Preisner - Dekalog (1989) [FLAC]\13 - Dekalog VI - Czesc 1.wav

Pre-gap length 0:00:03.86

Peak level 33.3 %
Track quality 100.0 %
Test CRC A1F202E7
Copy CRC A1F202E7
Cannot be verified as accurate (confidence 4) [8AF5B652], AccurateRip returned [7FB84505]
Copy OK

Track 14

Filename D:\muza\f i l m o w a\Preisner\Zbigniew Preisner - Dekalog (1989) [FLAC]\14 - Dekalog VI - Czesc 2.wav

Pre-gap length 0:00:01.82

Peak level 15.4 %
Track quality 100.0 %
Test CRC 66F6230B
Copy CRC 66F6230B
Cannot be verified as accurate (confidence 4) [AACC2405], AccurateRip returned [D5BE6572]
Copy OK

Track 15

Filename D:\muza\f i l m o w a\Preisner\Zbigniew Preisner - Dekalog (1989) [FLAC]\15 - Dekalog VI - Czesc 3.wav

Pre-gap length 0:00:01.96

Peak level 12.0 %
Track quality 100.0 %
Test CRC 7C940158
Copy CRC 7C940158
Cannot be verified as accurate (confidence 4) [43566387], AccurateRip returned [7071D996]
Copy OK

Track 16

Filename D:\muza\f i l m o w a\Preisner\Zbigniew Preisner - Dekalog (1989) [FLAC]\16 - Dekalog VI - Czesc 4.wav

Pre-gap length 0:00:02.62

Peak level 75.2 %
Track quality 100.0 %
Test CRC 9923FA1F
Copy CRC 9923FA1F
Cannot be verified as accurate (confidence 4) [D10A1609], AccurateRip returned [6BF0879D]
Copy OK

Track 17

Filename D:\muza\f i l m o w a\Preisner\Zbigniew Preisner - Dekalog (1989) [FLAC]\17 - Dekalog VII - Czesc 6.wav

Pre-gap length 0:00:04.01

Peak level 43.8 %
Track quality 100.0 %
Test CRC 551C387C
Copy CRC 551C387C
Cannot be verified as accurate (confidence 4) [46F390F7], AccurateRip returned [945EE3CA]
Copy OK

Track 18

Filename D:\muza\f i l m o w a\Preisner\Zbigniew Preisner - Dekalog (1989) [FLAC]\18 - Dekalog VII - Czesc 8.wav

Pre-gap length 0:00:01.89

Peak level 33.0 %
Track quality 100.0 %
Test CRC 705DE4BF
Copy CRC 705DE4BF
Cannot be verified as accurate (confidence 4) [5BB02768], AccurateRip returned [3AA26B05]
Copy OK

Track 19

Filename D:\muza\f i l m o w a\Preisner\Zbigniew Preisner - Dekalog (1989) [FLAC]\19 - Dekalog VIII - Czesc 1.wav

Pre-gap length 0:00:03.68

Peak level 44.4 %
Track quality 100.0 %
Test CRC 219D27B1
Copy CRC 219D27B1
Cannot be verified as accurate (confidence 4) [BE12F6F0], AccurateRip returned [187F1249]
Copy OK

Track 20

Filename D:\muza\f i l m o w a\Preisner\Zbigniew Preisner - Dekalog (1989) [FLAC]\20 - Dekalog VIII - Czesc 4.wav

Pre-gap length 0:00:02.24

Peak level 89.4 %
Track quality 100.0 %
Test CRC EFECF41F
Copy CRC EFECF41F
Cannot be verified as accurate (confidence 4) [459C23D8], AccurateRip returned [947B904F]
Copy OK

Track 21

Filename D:\muza\f i l m o w a\Preisner\Zbigniew Preisner - Dekalog (1989) [FLAC]\21 - Dekalog VIII - Czesc 7.wav

Pre-gap length 0:00:02.02

Peak level 90.8 %
Track quality 100.0 %
Test CRC 0B89BEDF
Copy CRC 0B89BEDF
Cannot be verified as accurate (confidence 4) [3E241A30], AccurateRip returned [A4EB1BA0]
Copy OK

Track 22

Filename D:\muza\f i l m o w a\Preisner\Zbigniew Preisner - Dekalog (1989) [FLAC]\22 - Dekalog IX - Czesc 3.wav

Pre-gap length 0:00:04.13

Peak level 69.9 %
Track quality 100.0 %
Test CRC 8314F90F
Copy CRC 8314F90F
Cannot be verified as accurate (confidence 4) [A51A35E1], AccurateRip returned [C79DE052]
Copy OK

Track 23

Filename D:\muza\f i l m o w a\Preisner\Zbigniew Preisner - Dekalog (1989) [FLAC]\23 - Dekalog IX - Czesc 7.wav

Pre-gap length 0:00:02.36

Peak level 43.1 %
Track quality 100.0 %
Test CRC FBE7F071
Copy CRC FBE7F071
Cannot be verified as accurate (confidence 4) [600B97A8], AccurateRip returned [F4885790]
Copy OK

Track 24

Filename D:\muza\f i l m o w a\Preisner\Zbigniew Preisner - Dekalog (1989) [FLAC]\24 - Dekalog IX - Czesc 12.wav

Pre-gap length 0:00:02.13

Peak level 25.4 %
Track quality 100.0 %
Test CRC A07D8643
Copy CRC A07D8643
Cannot be verified as accurate (confidence 4) [1E508279], AccurateRip returned [794F7CEE]
Copy OK

Track 25

Filename D:\muza\f i l m o w a\Preisner\Zbigniew Preisner - Dekalog (1989) [FLAC]\25 - Dekalog IX - Czesc 13.wav

Pre-gap length 0:00:02.33

Peak level 49.4 %
Track quality 99.9 %
Test CRC 043046D0
Copy CRC 043046D0
Cannot be verified as accurate (confidence 4) [0BC42991], AccurateRip returned [51BA2139]
Copy OK


No tracks could be verified as accurate
You may have a different pressing from the one(s) in the database

No errors occurred

End of status report

[CUETools log; Date: 18.01.2017 2:40:06; Version: 2.1.4]
Pregap length 00:00:33.
[CTDB TOCID: jRQf51O3_7DftXd7N5K47TSHBJY-] found.
Track | CTDB Status
1 | (7/7) Accurately ripped
2 | (7/7) Accurately ripped
3 | (7/7) Accurately ripped
4 | (7/7) Accurately ripped
5 | (7/7) Accurately ripped
6 | (7/7) Accurately ripped
7 | (7/7) Accurately ripped
8 | (7/7) Accurately ripped
9 | (7/7) Accurately ripped
10 | (7/7) Accurately ripped
11 | (7/7) Accurately ripped
12 | (7/7) Accurately ripped
13 | (7/7) Accurately ripped
14 | (7/7) Accurately ripped
15 | (7/7) Accurately ripped
16 | (7/7) Accurately ripped
17 | (7/7) Accurately ripped
18 | (7/7) Accurately ripped
19 | (7/7) Accurately ripped
20 | (7/7) Accurately ripped
21 | (7/7) Accurately ripped
22 | (7/7) Accurately ripped
23 | (7/7) Accurately ripped
24 | (7/7) Accurately ripped
25 | (7/7) Accurately ripped
[AccurateRip ID: 0032542c-0374bc61-630c5719] found.
Track [ CRC | V2 ] Status
01 [d064d65c|111706ff] (0+0/9) No match
02 [1a0c2efd|0f18eb1e] (0+0/9) No match
03 [3236c083|34e416d0] (0+0/9) No match
04 [bb719a9f|2bedbb3e] (0+0/9) No match
05 [42867869|c1709eab] (0+0/9) No match
06 [ca594489|4c4e3225] (0+0/6) No match
07 [c71d65f9|b0ad3027] (0+0/6) No match
08 [78eb5eae|74b6d626] (0+0/9) No match
09 [b843caab|5601f02a] (0+0/9) No match
10 [f89a2302|4a95e06e] (0+0/9) No match
11 [af09d953|871f2980] (0+0/9) No match
12 [1425654f|f78e96f9] (0+0/6) No match
13 [8af5b652|39814d59] (0+0/9) No match
14 [aacc2405|a35e8062] (0+0/9) No match
15 [43566387|d4548d47] (0+0/9) No match
16 [d10a1609|81679dc4] (0+0/9) No match
17 [46f390f7|63a242c4] (0+0/9) No match
18 [5bb02768|bc2e3007] (0+0/9) No match
19 [be12f6f0|b9b6f2f1] (0+0/9) No match
20 [459c23d8|bd1ff52f] (0+0/9) No match
21 [3e241a30|75250865] (0+0/9) No match
22 [a51a35e1|40400a4f] (0+0/7) No match
23 [600b97a8|ab6c37db] (0+0/7) No match
24 [1e508279|7055f860] (0+0/7) No match
25 [0bc42991|0a2cffcc] (0+0/7) No match
Offsetted by 628:
01 [0cb7f18f] (5/9) Accurately ripped
02 [079a9c1c] (5/9) Accurately ripped
03 [94d2476a] (5/9) Accurately ripped
04 [6f5032d4] (5/9) Accurately ripped
05 [c349e316] (5/9) Accurately ripped
06 [8bcd1f75] (4/6) Accurately ripped
07 [5408520f] (4/6) Accurately ripped
08 [3d041ce6] (5/9) Accurately ripped
09 [ae42e772] (5/9) Accurately ripped
10 [9df66069] (5/9) Accurately ripped
11 [3310b544] (5/9) Accurately ripped
12 [1a163456] (4/6) Accurately ripped
13 [7fb84505] (5/9) Accurately ripped
14 [d5be6572] (5/9) Accurately ripped
15 [7071d996] (5/9) Accurately ripped
16 [6bf0879d] (5/9) Accurately ripped
17 [945ee3ca] (5/9) Accurately ripped
18 [3aa26b05] (5/9) Accurately ripped
19 [187f1249] (5/9) Accurately ripped
20 [947b904f] (5/9) Accurately ripped
21 [a4eb1ba0] (5/9) Accurately ripped
22 [c79de052] (5/7) Accurately ripped
23 [f4885790] (5/7) Accurately ripped
24 [794f7cee] (5/7) Accurately ripped
25 [51ba2139] (5/7) Accurately ripped
Offsetted by 897:
01 [edde5b76] (2/9) Accurately ripped
02 [4c08d02b] (2/9) Accurately ripped
03 [ca7cc986] (2/9) Accurately ripped
04 [13ee212e] (2/9) Accurately ripped
05 [fc74e413] (2/9) Accurately ripped
06 [a31298f1] (0/6) No match (V2 was not tested)
07 [18498adc] (0/6) No match (V2 was not tested)
08 [8f684162] (2/9) Accurately ripped
09 [c53afe39] (2/9) Accurately ripped
10 [7f1b5dd2] (2/9) Accurately ripped
11 [ce9b6cd9] (2/9) Accurately ripped
12 [d1ab5583] (0/6) No match (V2 was not tested)
13 [6d5c6512] (2/9) Accurately ripped
14 [5b38ff0f] (2/9) Accurately ripped
15 [0b4eb7c1] (2/9) Accurately ripped
16 [59b2782b] (2/9) Accurately ripped
17 [e6379eb1] (2/9) Accurately ripped
18 [4d3f2e4a] (2/9) Accurately ripped
19 [63140317] (2/9) Accurately ripped
20 [1ec9eb6d] (2/9) Accurately ripped
21 [c6563ac0] (2/9) Accurately ripped
22 [08ae057d] (0/7) No match (V2 was not tested)
23 [d311ba2a] (0/7) No match (V2 was not tested)
24 [17fda130] (0/7) No match (V2 was not tested)
25 [15cf367f] (0/7) No match (V2 was not tested)

Track Peak [ CRC32 ] [W/O NULL] [ LOG ]
– 92,0 [9E726195] [A96613E7]
01 44,4 [C8EE20A8] [F7D65BDC] CRC32
02 91,4 [79E4E7FB] [7D33825C] CRC32
03 70,9 [453AAC69] [6BF336D9] CRC32
04 34,2 [E952D0EB] [3336EE78] CRC32
05 35,3 [396B6456] [89B19DF1] CRC32
06 23,8 [CE1C8C23] [B42AC644] CRC32
07 49,9 [C03CADC6] [0087FED7] CRC32
08 63,7 [CBB12EF2] [29DF605A] CRC32
09 89,5 [261104E8] [56160DA1] CRC32
10 92,0 [817BA180] [6C7795D0] CRC32
11 85,7 [9E58A5B0] [45ED6D80] CRC32
12 29,7 [8D159F78] [7076B178] CRC32
13 33,3 [A1F202E7] [8F918E54] CRC32
14 15,4 [66F6230B] [B1042AFE] CRC32
15 12,0 [7C940158] [78DE7C5C] CRC32
16 75,2 [9923FA1F] [0527408C] CRC32
17 43,8 [551C387C] [39F301E4] CRC32
18 33,0 [705DE4BF] [FA1AE85D] CRC32
19 44,4 [219D27B1] [5BD15258] CRC32
20 89,4 [EFECF41F] [181DE345] CRC32
21 90,8 [0B89BEDF] [0E5B6981] CRC32
22 69,9 [8314F90F] [80721A7F] CRC32
23 43,1 [FBE7F071] [5480B3AE] CRC32
24 25,4 [A07D8643] [1658BE35] CRC32
25 49,4 [043046D0] [0436D3BD] CRC32

foobar2000 1.2 / Dynamic Range Meter 1.1.1
log date: 2017-01-17 23:02:29

––––––––––––––––––––––––––––––––––––––––
Analyzed: Zbigniew Preisner / Dekalog
––––––––––––––––––––––––––––––––––––––––

DR Peak RMS Duration Track
––––––––––––––––––––––––––––––––––––––––
DR8 -7.04 dB -20.74 dB 2:14 01-Dekalog I - Czesc 6
DR10 -0.78 dB -16.52 dB 3:44 02-Dekalog I - Czesc 5
DR12 -2.98 dB -18.81 dB 1:21 03-Dekalog II - Czesc 1
DR11 -9.30 dB -26.66 dB 4:01 04-Dekalog II - Czesc 2
DR12 -9.04 dB -28.42 dB 2:30 05-Dekalog III - Czesc 2
DR10 -12.46 dB -30.50 dB 2:39 06-Dekalog III - Czesc 3
DR15 -6.03 dB -25.24 dB 2:17 07-Dekalog IV - Czesc 1
DR15 -3.91 dB -22.97 dB 2:30 08-Dekalog IV - Czesc 2
DR12 -0.96 dB -18.17 dB 1:43 09-Dekalog V - Czesc 1
DR11 -0.72 dB -18.35 dB 1:41 10-Dekalog V - Czesc 6
DR11 -1.34 dB -17.52 dB 1:12 11-Dekalog V - Czesc 9
DR12 -10.53 dB -27.58 dB 1:28 12-Dekalog V - Czesc 12
DR12 -9.55 dB -29.03 dB 1:49 13-Dekalog VI - Czesc 1
DR12 -16.22 dB -33.38 dB 1:37 14-Dekalog VI - Czesc 2
DR10 -18.39 dB -33.47 dB 0:51 15-Dekalog VI - Czesc 3
DR12 -2.47 dB -20.95 dB 3:07 16-Dekalog VI - Czesc 4
DR11 -7.16 dB -23.04 dB 2:44 17-Dekalog VII - Czesc 6
DR11 -9.63 dB -25.30 dB 1:55 18-Dekalog VII - Czesc 8
DR11 -7.03 dB -23.36 dB 1:09 19-Dekalog VIII - Czesc 1
DR12 -0.96 dB -19.54 dB 3:37 20-Dekalog VIII - Czesc 4
DR12 -0.84 dB -19.70 dB 1:52 21-Dekalog VIII - Czesc 7
DR12 -3.10 dB -20.31 dB 2:17 22-Dekalog IX - Czesc 3
DR13 -7.29 dB -28.47 dB 1:05 23-Dekalog IX - Czesc 7
DR13 -11.88 dB -31.22 dB 1:07 24-Dekalog IX - Czesc 12
DR14 -6.13 dB -27.72 dB 2:10 25-Dekalog IX - Czesc 13
––––––––––––––––––––––––––––––––––––––––

Number of tracks: 25
Official DR value: DR12

Samplerate: 44100 Hz
Channels: 2
Bits per sample: 16
Bitrate: 453 kbps
Codec: FLAC
================================================================================

Zbigniew Preisner - Dekalog: Original Film Soundtrack (1991)

All thanks to original releaser

More interesting music in My Blog


Password: designol