Subcategories

Zbigniew Preisner - Aberdeen: Original Film Soundtrack (2000)

Posted By: Designol
Zbigniew Preisner - Aberdeen: Original Film Soundtrack (2000)

Zbigniew Preisner - Aberdeen: Original Film Soundtrack (2000)
EAC | FLAC | Tracks (Cue&Log) ~ 213 Mb (incl 5%) | Mp3 (CBR320/Stereo) ~ 127 Mb (incl 5%) | Scans included
Genre: Soundtrack, Score | Label: Silva Screen | # SILKD 6028 | Time: 00:41:15

Preisner's scoring for films have been very successful with "The Double Life Of Veronika", and three albums of scores for "Three Colours Blue, White and Red", some reaching Platinum CD status by Poland's musical standards… another outstanding score was "The Last September", based on a novel by Elizabeth Bowen and brought to the screen by director Hector Babenco, beautiful and compelling music, and the unforgettable Agnieszka Holland's "Secret Garden".

Let us look at the soundtrack at hand–-"ABERDEEN", from writer/director Hans Petter Moland finds our characters on the road to Aberdeen in Scotland… storyline is between father and daughter regarding their reconciliation as the prepare to visit her dying mother… the big surprise is her father may not really be her father.

Preisner captures the tone and mood of Moland's screenplay, with piano solo (Leszek Mozdzer) of a lingering theme, interwoven at times with the voice of Stina Nordenstam… create feelings of dreamlike drifting…mesmerizing counter-melodies featuring John Parricelli (guitar)… completely enters your body and soul.

Review by J. Lovins, Amazon.com
Composer Biography
Composer at Wiki

Film at IMDB
Film at Wiki


Tracklist:

01. Aberdeen - Beginning Of The Story (02:54)
02. Return To The Past (02:50)
03. Road (04:15)
04. On The Deck (02:14)
05. Night Landscapes (00:58)
06. Memories From Childhood (00:29)
07. Lovers (02:15)
08. Crying For Help - Humiliation (04:05)
09. Border (00:57)
10. Aberdeen - Piano Version (02:03)
11. For You (02:54)
12. I Am Not Your Father (02:25)
13. Visit In Hospital (01:16)
14. Be Always Like That (01:32)
15. Wandering In Time And Space (06:01)
16. A Last Goodbye (01:06)
17. Aberdeen End Titles (02:53)


Exact Audio Copy V0.99 prebeta 4 from 23. January 2008

EAC extraction logfile from 14. September 2008, 20:41

Zbigniew Preisner / Aberdeen

Used drive : HL-DT-STDVDRAM GSA-H42L Adapter: 0 ID: 0

Read mode : Secure
Utilize accurate stream : Yes
Defeat audio cache : Yes
Make use of C2 pointers : No

Read offset correction : 667
Overread into Lead-In and Lead-Out : No
Fill up missing offset samples with silence : Yes
Delete leading and trailing silent blocks : No
Null samples used in CRC calculations : Yes
Used interface : Installed external ASPI interface
Gap handling : Appended to previous track

Used output format : User Defined Encoder
Selected bitrate : 768 kBit/s
Quality : High
Add ID3 tag : No
Command line compressor : Z:\Programs\Exact Audio Copy\Flac\flac.exe
Additional command line options : -V -8 -T "artist=%a" -T "title=%t" -T "album=%g" -T "date=%y" -T "tracknumber=%n" -T "genre=%m" %s


TOC of the extracted CD

Track | Start | Length | Start sector | End sector
––––––––––––––––––––––––––––-
1 | 0:00.00 | 2:54.44 | 0 | 13093
2 | 2:54.44 | 2:50.27 | 13094 | 25870
3 | 5:44.71 | 4:15.12 | 25871 | 45007
4 | 10:00.08 | 2:14.17 | 45008 | 55074
5 | 12:14.25 | 0:58.49 | 55075 | 59473
6 | 13:12.74 | 0:29.04 | 59474 | 61652
7 | 13:42.03 | 2:15.03 | 61653 | 71780
8 | 15:57.06 | 4:05.52 | 71781 | 90207
9 | 20:02.58 | 0:57.01 | 90208 | 94483
10 | 20:59.59 | 2:03.73 | 94484 | 103781
11 | 23:03.57 | 2:54.62 | 103782 | 116893
12 | 25:58.44 | 2:25.49 | 116894 | 127817
13 | 28:24.18 | 1:16.21 | 127818 | 133538
14 | 29:40.39 | 1:32.55 | 133539 | 140493
15 | 31:13.19 | 6:01.11 | 140494 | 167579
16 | 37:14.30 | 1:06.23 | 167580 | 172552
17 | 38:20.53 | 2:53.69 | 172553 | 185596


Track 1

Filename C:\EAC Rips\Zbigniew Preisner - Aberdeen - 2000\01 - Aberdeen - Beginning Of The Story.wav

Pre-gap length 0:00:02.00

Peak level 80.3 %
Track quality 100.0 %
Test CRC 541EA3E4
Copy CRC 541EA3E4
Track not present in AccurateRip database
Copy OK

Track 2

Filename C:\EAC Rips\Zbigniew Preisner - Aberdeen - 2000\02 - Return To The Past.wav

Pre-gap length 0:00:01.81

Peak level 58.8 %
Track quality 99.9 %
Test CRC ADE409CF
Copy CRC ADE409CF
Track not present in AccurateRip database
Copy OK

Track 3

Filename C:\EAC Rips\Zbigniew Preisner - Aberdeen - 2000\03 - Road.wav

Pre-gap length 0:00:02.02

Peak level 97.7 %
Track quality 100.0 %
Test CRC 09A0B2AA
Copy CRC 09A0B2AA
Track not present in AccurateRip database
Copy OK

Track 4

Filename C:\EAC Rips\Zbigniew Preisner - Aberdeen - 2000\04 - On The Deck.wav

Peak level 62.6 %
Track quality 100.0 %
Test CRC 75BFA15E
Copy CRC 75BFA15E
Track not present in AccurateRip database
Copy OK

Track 5

Filename C:\EAC Rips\Zbigniew Preisner - Aberdeen - 2000\05 - Night Landscapes.wav

Pre-gap length 0:00:00.80

Peak level 38.7 %
Track quality 100.0 %
Test CRC 396D0D73
Copy CRC 396D0D73
Track not present in AccurateRip database
Copy OK

Track 6

Filename C:\EAC Rips\Zbigniew Preisner - Aberdeen - 2000\06 - Memories From Childhood.wav

Pre-gap length 0:00:00.30

Peak level 25.3 %
Track quality 100.0 %
Test CRC 24E20019
Copy CRC 24E20019
Track not present in AccurateRip database
Copy OK

Track 7

Filename C:\EAC Rips\Zbigniew Preisner - Aberdeen - 2000\07 - Lovers.wav

Peak level 95.7 %
Track quality 100.0 %
Test CRC 4F2876B8
Copy CRC 4F2876B8
Track not present in AccurateRip database
Copy OK

Track 8

Filename C:\EAC Rips\Zbigniew Preisner - Aberdeen - 2000\08 - Crying For Help - Humiliation.wav

Peak level 56.6 %
Track quality 99.9 %
Test CRC E23A2520
Copy CRC E23A2520
Track not present in AccurateRip database
Copy OK

Track 9

Filename C:\EAC Rips\Zbigniew Preisner - Aberdeen - 2000\09 - Border.wav

Peak level 68.8 %
Track quality 100.0 %
Test CRC 291C55FA
Copy CRC 291C55FA
Track not present in AccurateRip database
Copy OK

Track 10

Filename C:\EAC Rips\Zbigniew Preisner - Aberdeen - 2000\10 - Aberdeen - Piano Version.wav

Peak level 72.5 %
Track quality 100.0 %
Test CRC 74590084
Copy CRC 74590084
Track not present in AccurateRip database
Copy OK

Track 11

Filename C:\EAC Rips\Zbigniew Preisner - Aberdeen - 2000\11 - For You.wav

Peak level 79.4 %
Track quality 100.0 %
Test CRC 523C646B
Copy CRC 523C646B
Track not present in AccurateRip database
Copy OK

Track 12

Filename C:\EAC Rips\Zbigniew Preisner - Aberdeen - 2000\12 - I Am Not Your Father.wav

Peak level 53.3 %
Track quality 100.0 %
Test CRC 8F1C25A1
Copy CRC 8F1C25A1
Track not present in AccurateRip database
Copy OK

Track 13

Filename C:\EAC Rips\Zbigniew Preisner - Aberdeen - 2000\13 - Visit In Hospital.wav

Peak level 48.9 %
Track quality 100.0 %
Test CRC 95F3C134
Copy CRC 95F3C134
Track not present in AccurateRip database
Copy OK

Track 14

Filename C:\EAC Rips\Zbigniew Preisner - Aberdeen - 2000\14 - Be Always Like That.wav

Peak level 33.3 %
Track quality 100.0 %
Test CRC 5B9DC44B
Copy CRC 5B9DC44B
Track not present in AccurateRip database
Copy OK

Track 15

Filename C:\EAC Rips\Zbigniew Preisner - Aberdeen - 2000\15 - Wandering In Time And Space.wav

Peak level 89.6 %
Track quality 100.0 %
Test CRC 33F5006C
Copy CRC 33F5006C
Track not present in AccurateRip database
Copy OK

Track 16

Filename C:\EAC Rips\Zbigniew Preisner - Aberdeen - 2000\16 - A Last Goodbye.wav

Pre-gap length 0:00:01.01

Peak level 58.3 %
Track quality 100.0 %
Test CRC 3771FD4C
Copy CRC 3771FD4C
Track not present in AccurateRip database
Copy OK

Track 17

Filename C:\EAC Rips\Zbigniew Preisner - Aberdeen - 2000\17 - Aberdeen End Titles.wav

Peak level 86.7 %
Track quality 100.0 %
Test CRC 025CBEB9
Copy CRC 025CBEB9
Track not present in AccurateRip database
Copy OK


None of the tracks are present in the AccurateRip database

No errors occurred

End of status report

foobar2000 1.2 / Dynamic Range Meter 1.1.1
log date: 2013-12-11 14:20:38

––––––––––––––––––––––––––––––––––––––––
Analyzed: Zbigniew Preisner / Aberdeen
––––––––––––––––––––––––––––––––––––––––

DR Peak RMS Duration Track
––––––––––––––––––––––––––––––––––––––––
DR13 -1.90 dB -21.04 dB 2:55 01-Aberdeen - Beginning Of The Story
DR13 -4.60 dB -23.69 dB 2:50 02-Return To The Past
DR14 -0.20 dB -18.68 dB 4:15 03-Road
DR12 -4.06 dB -21.14 dB 2:14 04-On The Deck
DR11 -8.24 dB -22.16 dB 0:59 05-Night Landscapes
DR13 -11.94 dB -30.92 dB 0:29 06-Memories From Childhood
DR14 -0.38 dB -20.01 dB 2:15 07-Lovers
DR11 -4.94 dB -21.80 dB 4:06 08-Crying For Help - Humiliation
DR12 -3.25 dB -19.90 dB 0:57 09-Border
DR14 -2.78 dB -22.96 dB 2:04 10-Aberdeen - Piano Version
DR13 -1.99 dB -19.99 dB 2:55 11-For You
DR12 -5.46 dB -22.15 dB 2:26 12-I Am Not Your Father
DR10 -6.21 dB -20.78 dB 1:16 13-Visit In Hospital
DR13 -9.55 dB -29.29 dB 1:33 14-Be Always Like That
DR13 -0.94 dB -18.67 dB 6:01 15-Wandering In Time And Space
DR12 -4.68 dB -20.98 dB 1:06 16-A Last Goodbye
DR13 -1.24 dB -19.18 dB 2:54 17-Aberdeen End Titles
––––––––––––––––––––––––––––––––––––––––

Number of tracks: 17
Official DR value: DR12

Samplerate: 44100 Hz
Channels: 2
Bits per sample: 16
Bitrate: 641 kbps
Codec: FLAC
================================================================================

Zbigniew Preisner - Aberdeen: Original Film Soundtrack (2000)

Zbigniew Preisner - Aberdeen: Original Film Soundtrack (2000)

All thanks to original releaser

More Soundtracks in My Blog

Film at Avaxhome: Aberdeen (2000) DVD5