Subcategories

Agustí Fernández, Evan Parker, Barry Guy, Paul Lytton - Topos (2007) {Maya Recordings MCD0701}

Posted By: ruskaval
Agustí Fernández, Evan Parker, Barry Guy, Paul Lytton - Topos (2007) {Maya Recordings MCD0701}

Agustí Fernández, Evan Parker, Barry Guy, Paul Lytton - Topos (2007) {Maya Recordings MCD0701}
EAC rip (secure mode) | FLAC (tracks)+CUE+LOG -> 283 Mb | MP3 @320 -> 116 Mb
Full Artwork @ 600 dpi (jpg) -> 30 Mb | 5% repair rar
© 2007 Maya Recordings | MCD0701
Jazz / Free Jazz

Nine pieces of impulsive, on-the-fly sounds from a core trio of British legends: the saxophonist Evan Parker, improv/contemporary classical bassist Barry Guy and drummer Paul Lytton - joined by Agusti Fernandez, the most accomplished Catalan jazz pianist since the postbopper Tete Montoliu. Fernandez joined the long-suspended British trio in Barcelona last year to add a seamless Cecil Taylor-like sound-stream to fast tailchasers such as Coalescence, darkly sinister or nimbly banjo-like plucked-strings noises here and there, and scary, door-slam chords.

Pieces such as Still Listening, true to its title, are long silences punctuated by bursts of activity. There are extended outings for the endlessly resourceful Guy (who both dramatises the music and hugely broadens the sound stage) and fast, chattering pieces, with Fernandez's and Parker's high, repeating figures doubling each other over Lytton's taut, tambourine-like drumming. It's full of selfless expertise, and (for an improv set) remarkably full of contrasts.

PERSONNEL:

AGUSTÍ FERNANDEZ, piano
EVAN PARKER, tenor & soprano sax
BARRY GUY, bass
PAUL LYTTON, drums

Recorded: March 26, 2006 at L'Auditori, Barcelona, Spain.

TRACKS:

01. Coalescence
02. Open Systems
03. In Praise Of Shadows
04. Air / Luft
05. Still Listening
06. Moon Over BCN
07. Smart Set
08. This One Is For Kowald
09. Inner Silence

Exact Audio Copy V1.0 beta 2 from 29. April 2011

EAC extraction logfile from 7. January 2012, 20:52

Agusti Fernandez, Evan Parker, Barry Gay, Paul Lytton / Topos

Used drive : PLEXTOR DVDR PX-810SA Adapter: 2 ID: 0

Read mode : Secure
Utilize accurate stream : Yes
Defeat audio cache : Yes
Make use of C2 pointers : No

Read offset correction : 48
Overread into Lead-In and Lead-Out : No
Fill up missing offset samples with silence : Yes
Delete leading and trailing silent blocks : No
Null samples used in CRC calculations : Yes
Used interface : Native Win32 interface for Win NT & 2000
Gap handling : Appended to previous track

Used output format : User Defined Encoder
Selected bitrate : 256 kBit/s
Quality : High
Add ID3 tag : No
Command line compressor : C:\Archivos de programa\Exact Audio Copy\Flac\flac.exe
Additional command line options : -8 -V -T "ARTIST=%artist%" -T "TITLE=%title%" -T "ALBUM=%albumtitle%" -T "DATE=%year%" -T "TRACKNUMBER=%tracknr%" -T "TOTALTRACKS=%numtracks%" -T "GENRE=%genre%" -T "ALBUMARTIST=%albumartist%" -T "ALBUM ARTIST=%albumartist%


TOC of the extracted CD

Track | Start | Length | Start sector | End sector
––––––––––––––––––––––––––––-
1 | 0:00.00 | 2:02.06 | 0 | 9155
2 | 2:02.06 | 9:48.72 | 9156 | 53327
3 | 11:51.03 | 5:24.21 | 53328 | 77648
4 | 17:15.24 | 4:34.24 | 77649 | 98222
5 | 21:49.48 | 6:47.69 | 98223 | 128816
6 | 28:37.42 | 6:32.51 | 128817 | 158267
7 | 35:10.18 | 3:50.42 | 158268 | 175559
8 | 39:00.60 | 6:35.41 | 175560 | 205225
9 | 45:36.26 | 3:51.33 | 205226 | 222583


Track 1

Filename C:\audio-rips\01 - Coalescence.wav

Pre-gap length 0:00:02.00

Peak level 94.4 %
Extraction speed 3.7 X
Track quality 100.0 %
Test CRC CD0B7224
Copy CRC CD0B7224
Track not present in AccurateRip database
Copy OK

Track 2

Filename C:\audio-rips\02 - Open Systems.wav

Pre-gap length 0:00:04.00

Peak level 94.4 %
Extraction speed 5.1 X
Track quality 99.9 %
Test CRC C726E1FB
Copy CRC C726E1FB
Track not present in AccurateRip database
Copy OK

Track 3

Filename C:\audio-rips\03 - In Praise of Shadows.wav

Pre-gap length 0:00:04.00

Peak level 94.4 %
Extraction speed 5.9 X
Track quality 100.0 %
Test CRC C6AF716D
Copy CRC C6AF716D
Track not present in AccurateRip database
Copy OK

Track 4

Filename C:\audio-rips\04 - Air , Luft.wav

Pre-gap length 0:00:04.00

Peak level 94.4 %
Extraction speed 6.2 X
Track quality 100.0 %
Test CRC D871E298
Copy CRC D871E298
Track not present in AccurateRip database
Copy OK

Track 5

Filename C:\audio-rips\05 - Still Listening.wav

Pre-gap length 0:00:04.00

Peak level 94.4 %
Extraction speed 6.9 X
Track quality 100.0 %
Test CRC 5A91E503
Copy CRC 5A91E503
Track not present in AccurateRip database
Copy OK

Track 6

Filename C:\audio-rips\06 - Moon over BCN.wav

Pre-gap length 0:00:04.00

Peak level 94.4 %
Extraction speed 7.5 X
Track quality 100.0 %
Test CRC 19F1FD3B
Copy CRC 19F1FD3B
Track not present in AccurateRip database
Copy OK

Track 7

Filename C:\audio-rips\07 - Smart Set.wav

Pre-gap length 0:00:04.00

Peak level 94.4 %
Extraction speed 7.3 X
Track quality 100.0 %
Test CRC 9E417C54
Copy CRC 9E417C54
Track not present in AccurateRip database
Copy OK

Track 8

Filename C:\audio-rips\08 - This One Is For Kowald.wav

Pre-gap length 0:00:04.00

Peak level 94.4 %
Extraction speed 8.1 X
Track quality 100.0 %
Test CRC CBE4B2ED
Copy CRC CBE4B2ED
Track not present in AccurateRip database
Copy OK

Track 9

Filename C:\audio-rips\09 - Inner Silence.wav

Pre-gap length 0:00:04.00

Peak level 94.4 %
Extraction speed 7.0 X
Track quality 99.9 %
Test CRC 378FAA03
Copy CRC 378FAA03
Track not present in AccurateRip database
Copy OK


None of the tracks are present in the AccurateRip database

No errors occurred

End of status report

==== Log checksum 2279B1F60C26F3263EDE77F03E66378AC668DCAC4D9697D3F9A938C62DC62DF1 ====


Agustí Fernández, Evan Parker, Barry Guy, Paul Lytton - Topos (2007) {Maya Recordings MCD0701}

Agustí Fernández, Evan Parker, Barry Guy, Paul Lytton - Topos (2007) {Maya Recordings MCD0701}



===