Subcategories

Al Hirt - 9 Albums (1987-2015)

Posted By: Domestos
Al Hirt - 9 Albums (1987-2015)

Al Hirt - 9 Albums (1987-2015)
EAC Rip | FLAC (tracks+.cue, log) ~ 2,30 Gb | 06:55:06 | Covers
Jazz, Dixieland | Country: USA

Alois Maxwell "Al" Hirt (November 7, 1922 – April 27, 1999) was an American trumpeter and bandleader. He is best remembered for his million-selling recordings of "Java" and the accompanying album Honey in the Horn (1963), and for the theme song to The Green Hornet. His nicknames included "Jumbo" and "The Round Mound of Sound". Colin Escott, an author of musician biographies, wrote that RCA Victor Records, for which Hirt had recorded most of his best-selling recordings and for which he had spent much of his professional recording career, had dubbed him with another moniker: "The King." Hirt was inducted into The Louisiana Music Hall of Fame in November 2009.

Hirt was born in New Orleans, Louisiana, the son of a police officer. At the age of six, he was given his first trumpet, which had been purchased at a local pawnshop. He would play in the Junior Police Band with the children of Alcide Nunez, and by the age of 16, Hirt was playing professionally, often with his friend Pete Fountain. During this time, he was hired to play at the local horse racing track, beginning a six-decade connection to the sport.

In 1940, Hirt went to Cincinnati, Ohio, to study at the Cincinnati Conservatory of Music with Dr. Frank Simon (a former soloist with the John Philip Sousa Orchestra). After a stint as a bugler in the United States Army during World War II, Hirt performed with various swing big bands, including those of Tommy Dorsey, Jimmy Dorsey, Benny Goodman, and Ina Ray Hutton.

In 1950, Hirt became first trumpet and featured soloist with Horace Heidt's Orchestra. After spending several years on the road with Heidt, Hirt returned to New Orleans working with various Dixieland groups and leading his own bands. Despite Hirt's statement years later "I'm not a jazz trumpeter and never was a jazz trumpeter", he made a few recordings where he demonstrated his ability to play in that style, during the 1950s with bandleader Monk Hazel, and a few other recordings on the local Southland Records label.

Hirt's virtuoso dexterity and fine tone on his instrument soon attracted the attention of major record labels and he signed with RCA Victor. Hirt posted twenty-two albums on the Billboard charts in the 1950s and 1960s. The albums Honey in the Horn and Cotton Candy were both in the Top 10 best sellers for 1964, the same year Hirt scored a hit single with his cover of Allen Toussaint's tune "Java" (Billboard No. 4), and later won a Grammy Award for the same recording. Both Honey in the Horn and "Java" sold over one million copies, and were awarded gold discs.

Hirt's Top 40 charted hit "Sugar Lips" in 1964 would be later used as the theme song for the NBC daytime game show Eye Guess, hosted by Bill Cullen and originally airing from January 1966 to September 1969.

Hirt was chosen to record the frenetic theme for the 1960s TV show The Green Hornet, by famed arranger and composer Billy May. Thematically reminiscent of Nikolai Rimsky-Korsakov's Flight of the Bumblebee, it showcased Hirt's technical prowess. The recording again gained public attention in 2003 when it was used in the film Kill Bill.

From the mid-1950s to early 1960s, Hirt and his band played nightly at Dan's Pier 600 at the corner of St. Louis and Bourbon Street. The club was owned by his business manager, Dan Levy, Sr.

In 1962 Hirt opened his own club on Bourbon Street in the French Quarter, which he ran until 1983. He also became a minority owner in the NFL expansion New Orleans Saints in 1967.

In 1962, in an effort to showcase him in a different musical setting, Hirt was teamed with arranger and composer Billy May and producer Steve Sholes to record an album titled Horn A Plenty that was a departure from the Dixieland material that he was generally associated with. Covering an eclectic variety of popular, standard and show tunes, it featured a big-band supplemented by timpani, French horns and harp. He also appeared opposite Troy Donahue and Suzanne Pleshette in the 1962 motion picture, "Rome Adventure."

In 1965, he hosted the hour-long television variety series Fanfare, which aired on CBS as a summer replacement for Jackie Gleason and the American Scene Magazine.

Hirt starred along with the University of Arizona marching band at the first Super Bowl halftime show in 1967.

On February 8, 1970, while performing in a Mardi Gras parade in New Orleans, Hirt was injured while riding on a float. It is popularly believed that he was struck in the mouth by a thrown piece of concrete or brick. Factual documentation of the details of the incident is sparse, consisting primarily of claims made by Hirt after the incident. Whatever the actual cause of his injuries, Hirt underwent surgery and made a return to the club scene. This incident was parodied in a Saturday Night Live skit from their second season Mardi Gras special, the "Let's Hit Al Hirt in the Mouth with a Brick Contest".

In 1987, Hirt played a solo rendition of "Ave Maria" for Pope John Paul II's visit to New Orleans. He is referred to in the 1987 film Good Morning, Vietnam, in a broadcast made by Lieutenant Hauk (Bruno Kirby).

Hirt died of liver failure at the age of 76, after having spent the previous year in a wheelchair due to edema in his leg. He was survived by his wife, Beverly Essel Hirt, and six children from a previous marriage.

Al Hirt - 9 Albums (1987-2015)

Ace Cannon & Al Hirt - For The Good Times (1987)
EAC Rip | FLAC (tracks+.cue, log) ~ 202.97 Mb | 33:44 | Cover
Jazz, Dixieland | Country: USA | Label: Project 3 Records

Track List:
01. « Make The World Go Away » ……… 02:54
02. « Secret Love » ……… 04:14
03. « Hey, Won't You Play Another Somebody Done Somebody Wrong Song » ……… 02:59
04. « I Can't Stop Loving You » ……… 03:59
05. « Gonna Travel On » ……… 02:31
06. « Always On My Mind » ……… 03:50
07. « Rocky Top » ……… 02:45
08. « Everything Is Beautiful » ……… 03:06
09. « Release Me » ……… 02:59
10. « For The Good Times » ……… 04:24

Exact Audio Copy V0.99 prebeta 5 from 4. May 2009

EAC extraction logfile from 16. May 2009, 16:56

Al Hirt & Ace Cannon / For The Good Times

Used drive : HL-DT-STRW/DVD GCC-4242N Adapter: 1 ID: 0

Read mode : Secure
Utilize accurate stream : Yes
Defeat audio cache : Yes
Make use of C2 pointers : No

Read offset correction : 102
Overread into Lead-In and Lead-Out : No
Fill up missing offset samples with silence : Yes
Delete leading and trailing silent blocks : No
Null samples used in CRC calculations : Yes
Used interface : Installed external ASPI interface
Gap handling : Appended to previous track

Used output format : User Defined Encoder
Selected bitrate : 128 kBit/s
Quality : High
Add ID3 tag : No
Command line compressor : C:\Program Files\Exact Audio Copy\Flac\flac.exe
Additional command line options : -V -8 -T "artist=%a" -T "title=%t" -T "album=%g" -T "date=%y" -T "tracknumber=%n" -T "genre=%m" %s

TOC of the extracted CD

Track | Start | Length | Start sector | End sector
––––––––––––––––––––––––––––-
1 | 0:00.00 | 2:58.20 | 0 | 13369
2 | 2:58.20 | 4:18.57 | 13370 | 32776
3 | 7:17.02 | 3:03.18 | 32777 | 46519
4 | 10:20.20 | 4:03.15 | 46520 | 64759
5 | 14:23.35 | 2:36.27 | 64760 | 76486
6 | 16:59.62 | 3:54.43 | 76487 | 94079
7 | 20:54.30 | 2:49.15 | 94080 | 106769
8 | 23:43.45 | 3:10.57 | 106770 | 121076
9 | 26:54.27 | 3:04.23 | 121077 | 134899
10 | 29:58.50 | 4:24.35 | 134900 | 154734

Track 1

Filename C:\Al Hirt & Ace Cannon - 1987 - For The Good Times\01 - Al Hirt & Ace Cannon - Make The World Go Away.wav

Pre-gap length 0:00:02.00

Peak level 93.7 %
Track quality 100.0 %
Test CRC F7F7BAAB
Copy CRC F7F7BAAB
Track not present in AccurateRip database
Copy OK

Track 2

Filename C:\Al Hirt & Ace Cannon - 1987 - For The Good Times\02 - Al Hirt & Ace Cannon - Secret Love.wav

Pre-gap length 0:00:04.18

Peak level 91.9 %
Track quality 100.0 %
Test CRC 7CEFDE9F
Copy CRC 7CEFDE9F
Track not present in AccurateRip database
Copy OK

Track 3

Filename C:\Al Hirt & Ace Cannon - 1987 - For The Good Times\03 - Al Hirt & Ace Cannon - Hey, Won't You Play Another Somebody Done Somebody Wrong Song.wav

Pre-gap length 0:00:04.02

Peak level 89.8 %
Track quality 100.0 %
Test CRC 65DD8592
Copy CRC 65DD8592
Track not present in AccurateRip database
Copy OK

Track 4

Filename C:\Al Hirt & Ace Cannon - 1987 - For The Good Times\04 - Al Hirt & Ace Cannon - I Can't Stop Loving You.wav

Pre-gap length 0:00:04.10

Peak level 95.3 %
Track quality 100.0 %
Test CRC 807D9587
Copy CRC 807D9587
Track not present in AccurateRip database
Copy OK

Track 5

Filename C:\Al Hirt & Ace Cannon - 1987 - For The Good Times\05 - Al Hirt & Ace Cannon - Gonna Travel On.wav

Pre-gap length 0:00:04.15

Peak level 92.0 %
Track quality 100.0 %
Test CRC 968DF560
Copy CRC 968DF560
Track not present in AccurateRip database
Copy OK

Track 6

Filename C:\Al Hirt & Ace Cannon - 1987 - For The Good Times\06 - Al Hirt & Ace Cannon - Always On My Mind.wav

Pre-gap length 0:00:04.70

Peak level 87.9 %
Track quality 100.0 %
Test CRC C7EB80FB
Copy CRC C7EB80FB
Track not present in AccurateRip database
Copy OK

Track 7

Filename C:\Al Hirt & Ace Cannon - 1987 - For The Good Times\07 - Al Hirt & Ace Cannon - Rocky Top.wav

Pre-gap length 0:00:04.20

Peak level 94.5 %
Track quality 100.0 %
Test CRC 24A718B2
Copy CRC 24A718B2
Track not present in AccurateRip database
Copy OK

Track 8

Filename C:\Al Hirt & Ace Cannon - 1987 - For The Good Times\08 - Al Hirt & Ace Cannon - Everything Is Beautiful.wav

Pre-gap length 0:00:03.58

Peak level 88.3 %
Track quality 100.0 %
Test CRC 50C6319F
Copy CRC 50C6319F
Track not present in AccurateRip database
Copy OK

Track 9

Filename C:\Al Hirt & Ace Cannon - 1987 - For The Good Times\09 - Al Hirt & Ace Cannon - Release Me.wav

Pre-gap length 0:00:04.37

Peak level 93.5 %
Track quality 99.9 %
Test CRC 4FB17A51
Copy CRC 4FB17A51
Track not present in AccurateRip database
Copy OK

Track 10

Filename C:\Al Hirt & Ace Cannon - 1987 - For The Good Times\10 - Al Hirt & Ace Cannon - For The Good Times.wav

Pre-gap length 0:00:04.33

Peak level 85.8 %
Track quality 100.0 %
Test CRC ED85F24B
Copy CRC ED85F24B
Track not present in AccurateRip database
Copy OK

None of the tracks are present in the AccurateRip database

No errors occurred

End of status report


Al Hirt - 9 Albums (1987-2015)

Al Hirt & Pete Fountain - Super Jazz 1 (1988)
EAC Rip | FLAC (tracks+.cue, log) ~ 420.87 Mb | 73:09 | Covers
Jazz, Dixieland | Country: USA | Label: CBS Special Products

This double LP features both the Al Hirt and Pete Fountain bands performing live during halftime at the 1976 Super Bowl. Trumpeter Hirt, heard on one of his best recordings in 15 years, leads a sextet featuring longtime clarinetist Pee Wee Spitelera on two lengthy numbers, plus a four-song "Salute to Satchmo" medley. Clarinetist Fountain (at the front of an octet that also stars tenor great Eddie Miller) romps on six swinging numbers, and the two bands jam together on "Perdido," "Basin Street Blues," and "Super Bowl Blues." Dixieland fans will want to pick up this often-overlooked gem. ~ AllMusic Review by Scott Yanow

Track List:
Al Hirt and His Band
01. South Rampart Street Parade (8:44)
02. Jazz Funeral (Oh, Didn't He Ramble) (10:04)
03. Salute to Satchmo: S-H-I-N-E/Coquette/C'est Si Bon/Mack the Knife/Beale Street Blues/Hello Dolly (9:00)

Pete Fountain and His Band
04. Tie a Yellow Ribbon Round the Ole Oak Tree (3:09)
05. Mood Indigo/It's Been a Long, Long Time (7:11)
06. When the Saints Go Marching In (6:03)
07. A Closer Walk (5:14)
08. Lazy River (4:37)

Al Hirt and Pete Fountain Bands Together
09. Perdido (6:10)
10. Basin Street Blues (5:05)
11. Super Bowl Blues (7:52)

Exact Audio Copy V1.3 from 2. September 2016

EAC extraction logfile from 19. August 2017, 12:27

Al Hirt & Pete Fountain / Super Jazz

Used drive : TSSTcorpCDDVDW SU-208DB Adapter: 1 ID: 0

Read mode : Secure
Utilize accurate stream : Yes
Defeat audio cache : Yes
Make use of C2 pointers : No

Read offset correction : 48
Overread into Lead-In and Lead-Out : No
Fill up missing offset samples with silence : Yes
Delete leading and trailing silent blocks : No
Null samples used in CRC calculations : Yes
Used interface : Native Win32 interface for Win NT & 2000
Gap handling : Appended to previous track

Used output format : User Defined Encoder
Selected bitrate : 128 kBit/s
Quality : High
Add ID3 tag : No
Command line compressor : C:\Program Files (x86)\Exact Audio Copy\Flac\flac.exe
Additional command line options : -8 -V -T "ARTIST=%artist%" -T "TITLE=%title%" -T "ALBUM=%albumtitle%" -T "DATE=%year%" -T "TRACKNUMBER=%tracknr%" -T "GENRE=%genre%" -T "PERFORMER=%albuminterpret%" -T "COMPOSER=%composer%" %haslyrics%–tag-from-file=LYRICS="%lyricsfile%"%haslyrics% -T "ALBUMARTIST=%albumartist%" -T "DISCNUMBER=%cdnumber%" -T "TOTALDISCS=%totalcds%" -T "TOTALTRACKS=%numtracks%" -T "COMMENT=%comment%" %source% -o %dest%

TOC of the extracted CD

Track | Start | Length | Start sector | End sector
––––––––––––––––––––––––––––-
1 | 0:00.00 | 8:44.37 | 0 | 39336
2 | 8:44.37 | 10:04.15 | 39337 | 84651
3 | 18:48.52 | 9:00.03 | 84652 | 125154
4 | 27:48.55 | 3:09.32 | 125155 | 139361
5 | 30:58.12 | 7:10.60 | 139362 | 171671
6 | 38:08.72 | 6:02.73 | 171672 | 198894
7 | 44:11.70 | 5:14.35 | 198895 | 222479
8 | 49:26.30 | 4:36.72 | 222480 | 243251
9 | 54:03.27 | 6:09.73 | 243252 | 270999
10 | 60:13.25 | 5:04.42 | 271000 | 293841
11 | 65:17.67 | 7:51.50 | 293842 | 329216

Track 1

Filename C:\EAC Rips\Al Hirt & Pete Fountain - Super Jazz (1975) [FLAC] {AK44359}\01. Al Hirt and His Band - South Rampart Street Parade.wav

Pre-gap length 0:00:02.00

Peak level 100.0 %
Extraction speed 3.3 X
Track quality 100.0 %
Test CRC 92CDB89F
Copy CRC 92CDB89F
Cannot be verified as accurate (confidence 2) [24966423], AccurateRip returned [01CF4B1E] (AR v2)
Copy OK

Track 2

Filename C:\EAC Rips\Al Hirt & Pete Fountain - Super Jazz (1975) [FLAC] {AK44359}\02. Al Hirt and His Band - Jazz Funeral (Oh, Didn't He Ramble).wav

Pre-gap length 0:00:00.02

Peak level 100.0 %
Extraction speed 4.0 X
Track quality 100.0 %
Test CRC 9F782C55
Copy CRC 9F782C55
Cannot be verified as accurate (confidence 2) [E44EC497], AccurateRip returned [7742A796] (AR v2)
Copy OK

Track 3

Filename C:\EAC Rips\Al Hirt & Pete Fountain - Super Jazz (1975) [FLAC] {AK44359}\03. Al Hirt and His Band - Salute to Satchmo Medley.wav

Pre-gap length 0:00:00.02

Peak level 100.0 %
Extraction speed 4.5 X
Track quality 100.0 %
Test CRC F965211C
Copy CRC F965211C
Cannot be verified as accurate (confidence 2) [4A951156], AccurateRip returned [FC907882] (AR v2)
Copy OK

Track 4

Filename C:\EAC Rips\Al Hirt & Pete Fountain - Super Jazz (1975) [FLAC] {AK44359}\04. Pete Fountain and His Band - Tie a Yellow Ribbon Round the Ole Oak Tree.wav

Pre-gap length 0:00:02.10

Peak level 95.5 %
Extraction speed 4.2 X
Track quality 100.0 %
Test CRC 84B825ED
Copy CRC 84B825ED
Cannot be verified as accurate (confidence 2) [38B54A14], AccurateRip returned [3917B6B8] (AR v2)
Copy OK

Track 5

Filename C:\EAC Rips\Al Hirt & Pete Fountain - Super Jazz (1975) [FLAC] {AK44359}\05. Pete Fountain and His Band - Mood Indigo,It's Been a Long, Long Time.wav

Pre-gap length 0:00:00.02

Peak level 82.5 %
Extraction speed 5.0 X
Track quality 100.0 %
Test CRC C832376A
Copy CRC C832376A
Cannot be verified as accurate (confidence 2) [9CACA7A5], AccurateRip returned [EFEB0156] (AR v2)
Copy OK

Track 6

Filename C:\EAC Rips\Al Hirt & Pete Fountain - Super Jazz (1975) [FLAC] {AK44359}\06. Pete Fountain and His Band - When the Saints Go Marching In.wav

Pre-gap length 0:00:00.02

Peak level 100.0 %
Extraction speed 5.2 X
Track quality 100.0 %
Test CRC 8880F361
Copy CRC 8880F361
Cannot be verified as accurate (confidence 2) [7ED3C934], AccurateRip returned [F9572013] (AR v2)
Copy OK

Track 7

Filename C:\EAC Rips\Al Hirt & Pete Fountain - Super Jazz (1975) [FLAC] {AK44359}\07. Pete Fountain and His Band - A Closer Walk.wav

Pre-gap length 0:00:00.03

Peak level 86.2 %
Extraction speed 5.3 X
Track quality 100.0 %
Test CRC EAEBEE63
Copy CRC EAEBEE63
Cannot be verified as accurate (confidence 2) [AC7B95AA], AccurateRip returned [AB635EC6] (AR v2)
Copy OK

Track 8

Filename C:\EAC Rips\Al Hirt & Pete Fountain - Super Jazz (1975) [FLAC] {AK44359}\08. Pete Fountain and His Band - Lazy River.wav

Pre-gap length 0:00:00.03

Peak level 96.4 %
Extraction speed 5.5 X
Track quality 100.0 %
Test CRC 07E0594E
Copy CRC 07E0594E
Cannot be verified as accurate (confidence 2) [AF812069], AccurateRip returned [65076C5D] (AR v2)
Copy OK

Track 9

Filename C:\EAC Rips\Al Hirt & Pete Fountain - Super Jazz (1975) [FLAC] {AK44359}\09. Al Hirt and and Pete Fountain Bands Together - Perdido.wav

Pre-gap length 0:00:00.02

Peak level 92.0 %
Extraction speed 5.8 X
Track quality 100.0 %
Test CRC F4525A2B
Copy CRC F4525A2B
Cannot be verified as accurate (confidence 2) [283C4156], AccurateRip returned [A4B7A9B0] (AR v2)
Copy OK

Track 10

Filename C:\EAC Rips\Al Hirt & Pete Fountain - Super Jazz (1975) [FLAC] {AK44359}\10. Al Hirt and and Pete Fountain Bands Together - Basin Street Blues.wav

Pre-gap length 0:00:00.03

Peak level 91.8 %
Extraction speed 6.0 X
Track quality 100.0 %
Test CRC 8D1DF179
Copy CRC 8D1DF179
Cannot be verified as accurate (confidence 2) [2A31815F], AccurateRip returned [E1BC2B0B] (AR v2)
Copy OK

Track 11

Filename C:\EAC Rips\Al Hirt & Pete Fountain - Super Jazz (1975) [FLAC] {AK44359}\11. Al Hirt and and Pete Fountain Bands Together - Super Bowl Blues.wav

Pre-gap length 0:00:00.02

Peak level 100.0 %
Extraction speed 6.4 X
Track quality 100.0 %
Test CRC 2E21E1CE
Copy CRC 2E21E1CE
Cannot be verified as accurate (confidence 2) [1E31C9B9], AccurateRip returned [1BD309BC] (AR v2)
Copy OK

No tracks could be verified as accurate
You may have a different pressing from the one(s) in the database

No errors occurred

End of status report

–– CUETools DB Plugin V2.1.6

[CTDB TOCID: 81YOJQBGAvVG6LszRIhQnHykXbY-] found
Submit result: 81YOJQBGAvVG6LszRIhQnHykXbY- has been confirmed
Track | CTDB Status
1 | (6/6) Accurately ripped
2 | (6/6) Accurately ripped
3 | (6/6) Accurately ripped
4 | (6/6) Accurately ripped
5 | (6/6) Accurately ripped
6 | (6/6) Accurately ripped
7 | (6/6) Accurately ripped
8 | (6/6) Accurately ripped
9 | (6/6) Accurately ripped
10 | (6/6) Accurately ripped
11 | (5/6) Accurately ripped

==== Log checksum 45FAA669FCE64CA39575F2C0919C721960AFDBFA48DE7356A72162A247037AC1 ====


Al Hirt - 9 Albums (1987-2015)

Al Hirt - All Time Greatest Hits (1989)
EAC Rip | FLAC (tracks+.cue, log) ~ 296.21 Mb | 50:57 | Covers
Jazz, Dixieland | Country: USA | Label: RCA

Once a virtuoso trumpet player for the Dorseys, Al Hirt, essentially a Dixieland genius on the horn, broke through to a mass audience with a string of joyous, energetic, and engaging instrumental hit singles in the 1960s, including infectious delights like "Java," "Cotton Candy," "Sugar Lips," "Up Above My Head," and "Fancy Pants," all of which are collected here in this fine 20-track, single-disc introduction to this one-of-a-kind horn player. ~ AllMusic Review by Steve Leggett

Track List:
01. Bourbon Street Parade (3:33)
02. I Can't Get Started (2:45)
03. Stranger in Paradise (from "Kismet") (2:46)
04. Java (1:59)
05. I Love Paris (from "Can-Can") (2:53)
06. Sleepy Lagoon (2:51)
07. Tansy (from the film "No, My Darling Daughter") (2:26)
08. Clarinet Marmalade (2:23)
09. Fly Me to the Moon (In Other Words) (2:40)
10. Alley Cat (2:33)
11. Up Above My Head (I Hear Music in the Air) (2:21)
12. Out of Nowhere (2:24)
13. Cotton Candy (2:17)
14. Three Little Words (2:48)
15. Poor Butterfly (2:29)
16. Fancy Pants (1:56)
17. When the Saints Go Marching In (1:59)
18. The Girl from Ipanema (3:16)
19. Sugar Lips (2:04)
20. Brotherhood of Man (from "How to Succeed in Business Without Really Trying") (2:34)

Exact Audio Copy V1.3 from 2. September 2016

EAC extraction logfile from 19. August 2017, 13:39

Al Hirt / All Time Greatest Hits

Used drive : TSSTcorpCDDVDW SU-208DB Adapter: 1 ID: 0

Read mode : Secure
Utilize accurate stream : Yes
Defeat audio cache : Yes
Make use of C2 pointers : No

Read offset correction : 48
Overread into Lead-In and Lead-Out : No
Fill up missing offset samples with silence : Yes
Delete leading and trailing silent blocks : No
Null samples used in CRC calculations : Yes
Used interface : Native Win32 interface for Win NT & 2000
Gap handling : Appended to previous track

Used output format : User Defined Encoder
Selected bitrate : 128 kBit/s
Quality : High
Add ID3 tag : No
Command line compressor : C:\Program Files (x86)\Exact Audio Copy\Flac\flac.exe
Additional command line options : -8 -V -T "ARTIST=%artist%" -T "TITLE=%title%" -T "ALBUM=%albumtitle%" -T "DATE=%year%" -T "TRACKNUMBER=%tracknr%" -T "GENRE=%genre%" -T "PERFORMER=%albuminterpret%" -T "COMPOSER=%composer%" %haslyrics%–tag-from-file=LYRICS="%lyricsfile%"%haslyrics% -T "ALBUMARTIST=%albumartist%" -T "DISCNUMBER=%cdnumber%" -T "TOTALDISCS=%totalcds%" -T "TOTALTRACKS=%numtracks%" -T "COMMENT=%comment%" %source% -o %dest%

TOC of the extracted CD

Track | Start | Length | Start sector | End sector
––––––––––––––––––––––––––––-
1 | 0:00.00 | 3:33.27 | 0 | 16001
2 | 3:33.27 | 2:45.23 | 16002 | 28399
3 | 6:18.50 | 2:45.52 | 28400 | 40826
4 | 9:04.27 | 1:58.53 | 40827 | 49729
5 | 11:03.05 | 2:53.15 | 49730 | 62719
6 | 13:56.20 | 2:51.15 | 62720 | 75559
7 | 16:47.35 | 2:25.47 | 75560 | 86481
8 | 19:13.07 | 2:23.13 | 86482 | 97219
9 | 21:36.20 | 2:40.35 | 97220 | 109254
10 | 24:16.55 | 2:33.32 | 109255 | 120761
11 | 26:50.12 | 2:21.15 | 120762 | 131351
12 | 29:11.27 | 2:24.25 | 131352 | 142176
13 | 31:35.52 | 2:16.45 | 142177 | 152421
14 | 33:52.22 | 2:47.50 | 152422 | 164996
15 | 36:39.72 | 2:28.38 | 164997 | 176134
16 | 39:08.35 | 1:56.17 | 176135 | 184851
17 | 41:04.52 | 1:58.73 | 184852 | 193774
18 | 43:03.50 | 3:15.57 | 193775 | 208456
19 | 46:19.32 | 2:04.00 | 208457 | 217756
20 | 48:23.32 | 2:33.58 | 217757 | 229289

Track 1

Filename C:\EAC Rips\Al Hirt - All Time Greatest Hits (1989) [FLAC]\01. Bourbon Street Parade.wav

Pre-gap length 0:00:02.00

Peak level 85.3 %
Extraction speed 1.1 X
Track quality 100.0 %
Test CRC 2DCE5BAA
Copy CRC 2DCE5BAA
Accurately ripped (confidence 5) [C77A1E24] (AR v2)
Copy OK

Track 2

Filename C:\EAC Rips\Al Hirt - All Time Greatest Hits (1989) [FLAC]\02. I Can't Get Started.wav

Pre-gap length 0:00:02.07

Peak level 74.0 %
Extraction speed 1.0 X
Track quality 99.9 %
Test CRC E6032BC4
Copy CRC E6032BC4
Accurately ripped (confidence 5) [780FC8F7] (AR v2)
Copy OK

Track 3

Filename C:\EAC Rips\Al Hirt - All Time Greatest Hits (1989) [FLAC]\03. Stranger in Paradise (from ''Kismet'').wav

Pre-gap length 0:00:02.05

Peak level 80.3 %
Extraction speed 1.0 X
Track quality 99.9 %
Test CRC 10CE3E70
Copy CRC 10CE3E70
Accurately ripped (confidence 5) [D43F9832] (AR v2)
Copy OK

Track 4

Filename C:\EAC Rips\Al Hirt - All Time Greatest Hits (1989) [FLAC]\04. Java.wav

Pre-gap length 0:00:02.10

Peak level 76.6 %
Extraction speed 1.2 X
Track quality 100.0 %
Test CRC 9C8B71B1
Copy CRC 9C8B71B1
Accurately ripped (confidence 5) [B0E8FE3A] (AR v2)
Copy OK

Track 5

Filename C:\EAC Rips\Al Hirt - All Time Greatest Hits (1989) [FLAC]\05. I Love Paris (from ''Can-Can'').wav

Pre-gap length 0:00:02.26

Peak level 75.5 %
Extraction speed 1.3 X
Track quality 100.0 %
Test CRC 75C7A0B7
Copy CRC 75C7A0B7
Accurately ripped (confidence 5) [33ED1775] (AR v2)
Copy OK

Track 6

Filename C:\EAC Rips\Al Hirt - All Time Greatest Hits (1989) [FLAC]\06. Sleepy Lagoon.wav

Pre-gap length 0:00:01.58

Peak level 72.3 %
Extraction speed 1.4 X
Track quality 100.0 %
Test CRC E50932FE
Copy CRC E50932FE
Accurately ripped (confidence 5) [97A9F904] (AR v2)
Copy OK

Track 7

Filename C:\EAC Rips\Al Hirt - All Time Greatest Hits (1989) [FLAC]\07. Tansy (from the film ''No, My Darling Daughter'').wav

Pre-gap length 0:00:01.68

Peak level 78.4 %
Extraction speed 1.4 X
Track quality 100.0 %
Test CRC 4AA12858
Copy CRC 4AA12858
Accurately ripped (confidence 5) [EFBB3979] (AR v2)
Copy OK

Track 8

Filename C:\EAC Rips\Al Hirt - All Time Greatest Hits (1989) [FLAC]\08. Clarinet Marmalade.wav

Pre-gap length 0:00:02.25

Peak level 87.1 %
Extraction speed 1.5 X
Track quality 100.0 %
Test CRC 740987EB
Copy CRC 740987EB
Accurately ripped (confidence 5) [96210B20] (AR v2)
Copy OK

Track 9

Filename C:\EAC Rips\Al Hirt - All Time Greatest Hits (1989) [FLAC]\09. Fly Me to the Moon (In Other Words).wav

Pre-gap length 0:00:02.30

Peak level 84.5 %
Extraction speed 1.6 X
Track quality 100.0 %
Test CRC EDF0B9D2
Copy CRC EDF0B9D2
Accurately ripped (confidence 5) [0A5DA07A] (AR v2)
Copy OK

Track 10

Filename C:\EAC Rips\Al Hirt - All Time Greatest Hits (1989) [FLAC]\10. Alley Cat.wav

Pre-gap length 0:00:01.48

Peak level 76.3 %
Extraction speed 1.6 X
Track quality 100.0 %
Test CRC 38C1A59A
Copy CRC 38C1A59A
Accurately ripped (confidence 5) [C1A3FDDC] (AR v2)
Copy OK

Track 11

Filename C:\EAC Rips\Al Hirt - All Time Greatest Hits (1989) [FLAC]\11. Up Above My Head (I Hear Music in the Air).wav

Pre-gap length 0:00:02.45

Peak level 78.7 %
Extraction speed 1.6 X
Track quality 100.0 %
Test CRC 9BF5E998
Copy CRC 9BF5E998
Accurately ripped (confidence 5) [980DCB52] (AR v2)
Copy OK

Track 12

Filename C:\EAC Rips\Al Hirt - All Time Greatest Hits (1989) [FLAC]\12. Out of Nowhere.wav

Pre-gap length 0:00:01.67

Peak level 76.4 %
Extraction speed 1.7 X
Track quality 100.0 %
Test CRC 4B37F23B
Copy CRC 4B37F23B
Accurately ripped (confidence 5) [FE713CE5] (AR v2)
Copy OK

Track 13

Filename C:\EAC Rips\Al Hirt - All Time Greatest Hits (1989) [FLAC]\13. Cotton Candy.wav

Pre-gap length 0:00:02.20

Peak level 79.6 %
Extraction speed 1.7 X
Track quality 100.0 %
Test CRC C613A09E
Copy CRC C613A09E
Accurately ripped (confidence 5) [7455F9D8] (AR v2)
Copy OK

Track 14

Filename C:\EAC Rips\Al Hirt - All Time Greatest Hits (1989) [FLAC]\14. Three Little Words.wav

Pre-gap length 0:00:02.30

Peak level 75.1 %
Extraction speed 1.5 X
Track quality 99.9 %
Test CRC 9C3DB1C9
Copy CRC 9C3DB1C9
Accurately ripped (confidence 5) [C00EBCA8] (AR v2)
Copy OK

Track 15

Filename C:\EAC Rips\Al Hirt - All Time Greatest Hits (1989) [FLAC]\15. Poor Butterfly.wav

Pre-gap length 0:00:02.20

Peak level 79.6 %
Extraction speed 1.8 X
Track quality 100.0 %
Test CRC AEF49888
Copy CRC AEF49888
Accurately ripped (confidence 5) [02E237F5] (AR v2)
Copy OK

Track 16

Filename C:\EAC Rips\Al Hirt - All Time Greatest Hits (1989) [FLAC]\16. Fancy Pants.wav

Pre-gap length 0:00:02.15

Peak level 79.4 %
Extraction speed 1.7 X
Track quality 100.0 %
Test CRC C1E54927
Copy CRC C1E54927
Accurately ripped (confidence 5) [4160F9D0] (AR v2)
Copy OK

Track 17

Filename C:\EAC Rips\Al Hirt - All Time Greatest Hits (1989) [FLAC]\17. When the Saints Go Marching In.wav

Pre-gap length 0:00:02.30

Peak level 82.3 %
Extraction speed 1.8 X
Track quality 100.0 %
Test CRC 6CA3DE0D
Copy CRC 6CA3DE0D
Accurately ripped (confidence 5) [6F667E69] (AR v2)
Copy OK

Track 18

Filename C:\EAC Rips\Al Hirt - All Time Greatest Hits (1989) [FLAC]\18. The Girl from Ipanema.wav

Pre-gap length 0:00:02.20

Peak level 81.7 %
Extraction speed 2.0 X
Track quality 100.0 %
Test CRC CEAD9520
Copy CRC CEAD9520
Accurately ripped (confidence 5) [F8D1592F] (AR v2)
Copy OK

Track 19

Filename C:\EAC Rips\Al Hirt - All Time Greatest Hits (1989) [FLAC]\19. Sugar Lips.wav

Pre-gap length 0:00:01.72

Peak level 78.9 %
Extraction speed 1.9 X
Track quality 100.0 %
Test CRC 9B24631D
Copy CRC 9B24631D
Accurately ripped (confidence 5) [53898842] (AR v2)
Copy OK

Track 20

Filename C:\EAC Rips\Al Hirt - All Time Greatest Hits (1989) [FLAC]\20. Brotherhood of Man (from ''How to Succeed in Business Without Really Trying'').wav

Pre-gap length 0:00:02.25

Peak level 88.9 %
Extraction speed 2.0 X
Track quality 100.0 %
Test CRC 951EDCD9
Copy CRC 951EDCD9
Accurately ripped (confidence 5) [FCCC7BF7] (AR v2)
Copy OK

All tracks accurately ripped

No errors occurred

End of status report

–– CUETools DB Plugin V2.1.6

[CTDB TOCID: caNSdSMIoPCgN1c_bSvFADqLnhw-] found
Submit result: caNSdSMIoPCgN1c_bSvFADqLnhw- has been confirmed
Track | CTDB Status
1 | (21/22) Accurately ripped
2 | (21/22) Accurately ripped
3 | (22/22) Accurately ripped
4 | (22/22) Accurately ripped
5 | (21/22) Accurately ripped
6 | (21/22) Accurately ripped
7 | (21/22) Accurately ripped
8 | (20/22) Accurately ripped
9 | (20/22) Accurately ripped
10 | (21/22) Accurately ripped
11 | (21/22) Accurately ripped
12 | (20/22) Accurately ripped
13 | (20/22) Accurately ripped
14 | (21/22) Accurately ripped
15 | (20/22) Accurately ripped
16 | (21/22) Accurately ripped
17 | (21/22) Accurately ripped
18 | (20/22) Accurately ripped
19 | (20/22) Accurately ripped
20 | (21/22) Accurately ripped

==== Log checksum 5FF0A65F864B5941D4A0A726B680BAE804FCB75CD91467A5483BD924AA4B2023 ====


Al Hirt - 9 Albums (1987-2015)

Al Hirt - At the Mardi Gras (2000)
EAC Rip | FLAC (tracks+.cue, log) ~ 283.37 Mb | 47:36 | Covers
Jazz, Dixieland | Country: USA | Label: RCA Victor (09026-63627-2)

Recorded live at Dan's Pier 600 in New Orleans, At the Mardi Gras is Al Hirt on his home turf, running through a set of stage staples like "Basin Street Blues," "Perdido," "Diga Diga Doo," "That's A-Plenty," and "Yellow Dog Blues." Personnel varies from track to track, giving some of the songs a far more modern feel than what's required and spoiling the mood in spots, but this is still a nice portrait of the trumpeter playing for the hometown faithful. ~ AllMusic Review by Cub Koda

Al Hirt - trumpet
Bill Kelsey - tenor saxophone, baritone saxophone
Pee Wee Spitelera, David Winstein - tenor saxophone, clarinet
Angelo Castigliola, Richard Nelson - trombone
Lowell Miller - tuba, bass
Ronnie DuPont - piano
Edward Huntington - guitar
Frank Hudec - drums

Recorded live at Dan's Pier, New Orleans, LA on January 26-28, 1962.

Track List:
01. Opening Announcement & Bourbon Street Parade (3:32)
02. Basin Street Blues (3:27)
03. Perdido (2:38)
04. Show Me the Way to Go Home (3:17)
05. (Do You Know What It Means to Miss) New Orleans? (3:06)
06. Diga Diga Doo (2:02)
07. That's A-Plenty (3:14)
08. Yellow Dog Blues (4:14)
09. Oh, Johnny! Oh, Johnny! Oh! (2:01)
10. While We Danced at the Mardi Gras (2:13)
11. Frankie and Johnny (4:44)
12. Brotherhood of Man (2:37)
13. Oh! Dem Golden Slippers (2:06)
14. When It's Sleepy Time Down South (2:22)
15. Old Man River (3:13)
16. New Orleans (2:50)

Exact Audio Copy V1.3 from 2. September 2016

EAC extraction logfile from 13. July 2017, 13:10

Al Hirt / At The Mardi Gras

Used drive : HL-DT-STBDDVDRW UH12NS30 Adapter: 1 ID: 1

Read mode : Secure
Utilize accurate stream : Yes
Defeat audio cache : Yes
Make use of C2 pointers : No

Read offset correction : 6
Overread into Lead-In and Lead-Out : No
Fill up missing offset samples with silence : Yes
Delete leading and trailing silent blocks : No
Null samples used in CRC calculations : Yes
Used interface : Native Win32 interface for Win NT & 2000
Gap handling : Appended to previous track

Used output format : User Defined Encoder
Selected bitrate : 1024 kBit/s
Quality : High
Add ID3 tag : No
Command line compressor : C:\Program Files (x86)\Exact Audio Copy\Flac\flac.exe
Additional command line options : -8 -e -p -V -T "ARTIST=%artist%" -T "TITLE=%title%" -T "ALBUM=%albumtitle%" -T "DATE=%year%" -T "TRACKNUMBER=%tracknr%" -T "GENRE=%genre%" -T "PERFORMER=%albuminterpret%" -T "COMPOSER=%composer%" %haslyrics%–tag-from-file=LYRICS="%lyricsfile%"%haslyrics% -T "ALBUMARTIST=%albumartist%" -T "DISCNUMBER=%cdnumber%" -T "TOTALDISCS=%totalcds%" -T "TOTALTRACKS=%numtracks%" -T "COMMENT=%comment%" %source% -o %dest%

TOC of the extracted CD

Track | Start | Length | Start sector | End sector
––––––––––––––––––––––––––––-
1 | 0:00.00 | 3:32.05 | 0 | 15904
2 | 3:32.05 | 3:27.10 | 15905 | 31439
3 | 6:59.15 | 2:38.20 | 31440 | 43309
4 | 9:37.35 | 3:17.22 | 43310 | 58106
5 | 12:54.57 | 3:05.63 | 58107 | 72044
6 | 16:00.45 | 2:02.35 | 72045 | 81229
7 | 18:03.05 | 3:14.20 | 81230 | 95799
8 | 21:17.25 | 4:13.70 | 95800 | 114844
9 | 25:31.20 | 2:01.25 | 114845 | 123944
10 | 27:32.45 | 2:13.30 | 123945 | 133949
11 | 29:46.00 | 4:43.57 | 133950 | 155231
12 | 34:29.57 | 2:37.25 | 155232 | 167031
13 | 37:07.07 | 2:05.40 | 167032 | 176446
14 | 39:12.47 | 2:21.55 | 176447 | 187076
15 | 41:34.27 | 3:12.38 | 187077 | 201514
16 | 44:46.65 | 2:50.12 | 201515 | 214276

Track 1

Filename G:\Audio\Drive2\01 - Opening Announcement & Bourbon Street Parade.wav

Pre-gap length 0:00:02.00

Peak level 84.1 %
Extraction speed 2.9 X
Track quality 100.0 %
Test CRC 92271892
Copy CRC 92271892
Accurately ripped (confidence 3) [582E3FC1] (AR v2)
Copy OK

Track 2

Filename G:\Audio\Drive2\02 - Basin Street Blues.wav

Peak level 86.2 %
Extraction speed 0.9 X
Track quality 99.9 %
Test CRC 4C5F2D23
Copy CRC 4C5F2D23
Accurately ripped (confidence 3) [DB916AA1] (AR v2)
Copy OK

Track 3

Filename G:\Audio\Drive2\03 - Perdido.wav

Peak level 85.3 %
Extraction speed 1.1 X
Track quality 100.0 %
Test CRC A5410E26
Copy CRC A5410E26
Accurately ripped (confidence 3) [209087F5] (AR v2)
Copy OK

Track 4

Filename G:\Audio\Drive2\04 - Show Me The Way To Go Home.wav

Peak level 79.8 %
Extraction speed 1.2 X
Track quality 100.0 %
Test CRC 2474D706
Copy CRC 2474D706
Accurately ripped (confidence 3) [22A4FE07] (AR v2)
Copy OK

Track 5

Filename G:\Audio\Drive2\05 - (Do You Know What It Means To Miss) New Orleans.wav

Peak level 73.1 %
Extraction speed 1.3 X
Track quality 100.0 %
Test CRC FC86B3C0
Copy CRC FC86B3C0
Accurately ripped (confidence 3) [9FCA3423] (AR v2)
Copy OK

Track 6

Filename G:\Audio\Drive2\06 - Diga Diga Doo.wav

Peak level 83.9 %
Extraction speed 1.0 X
Track quality 99.9 %
Test CRC DA395CD7
Copy CRC DA395CD7
Accurately ripped (confidence 3) [F4C1BAB6] (AR v2)
Copy OK

Track 7

Filename G:\Audio\Drive2\07 - That's A-Plenty.wav

Peak level 82.8 %
Extraction speed 1.4 X
Track quality 100.0 %
Test CRC 3A8305CA
Copy CRC 3A8305CA
Accurately ripped (confidence 3) [F75E15EF] (AR v2)
Copy OK

Track 8

Filename G:\Audio\Drive2\08 - Yellow Dog Blues.wav

Peak level 81.7 %
Extraction speed 1.3 X
Track quality 99.9 %
Test CRC 317F4495
Copy CRC 317F4495
Accurately ripped (confidence 3) [84852C6D] (AR v2)
Copy OK

Track 9

Filename G:\Audio\Drive2\09 - Oh, Johnny! Oh, Johnny! Oh!.wav

Peak level 84.4 %
Extraction speed 1.4 X
Track quality 100.0 %
Test CRC 845EC75F
Copy CRC 845EC75F
Accurately ripped (confidence 3) [C6FF226F] (AR v2)
Copy OK

Track 10

Filename G:\Audio\Drive2\10 - While We Danced At The Mardi Gras.wav

Peak level 69.1 %
Extraction speed 1.5 X
Track quality 100.0 %
Test CRC 873347A3
Copy CRC 873347A3
Accurately ripped (confidence 3) [4871149A] (AR v2)
Copy OK

Track 11

Filename G:\Audio\Drive2\11 - Frankie And Johnny.wav

Peak level 83.8 %
Extraction speed 1.7 X
Track quality 100.0 %
Test CRC 387AC7D5
Copy CRC 387AC7D5
Accurately ripped (confidence 3) [767CD3B3] (AR v2)
Copy OK

Track 12

Filename G:\Audio\Drive2\12 - Brotherhood Of Man.wav

Peak level 76.9 %
Extraction speed 1.3 X
Track quality 99.9 %
Test CRC 2D9645AF
Copy CRC 2D9645AF
Accurately ripped (confidence 3) [0104FCC9] (AR v2)
Copy OK

Track 13

Filename G:\Audio\Drive2\13 - Oh! Dem Golden Slippers.wav

Peak level 90.3 %
Extraction speed 1.6 X
Track quality 100.0 %
Test CRC 7516B240
Copy CRC 7516B240
Accurately ripped (confidence 3) [9B863A2E] (AR v2)
Copy OK

Track 14

Filename G:\Audio\Drive2\14 - When It's Sleepy Time Down South.wav

Peak level 61.8 %
Extraction speed 1.3 X
Track quality 99.9 %
Test CRC 42A15FFD
Copy CRC 42A15FFD
Accurately ripped (confidence 3) [E74CDB12] (AR v2)
Copy OK

Track 15

Filename G:\Audio\Drive2\15 - Old Man River.wav

Peak level 97.7 %
Extraction speed 1.8 X
Track quality 100.0 %
Test CRC C9962973
Copy CRC C9962973
Accurately ripped (confidence 3) [07C04C45] (AR v2)
Copy OK

Track 16

Filename G:\Audio\Drive2\16 - New Orleans.wav

Peak level 55.1 %
Extraction speed 1.8 X
Track quality 100.0 %
Test CRC 1CB18FAC
Copy CRC 1CB18FAC
Accurately ripped (confidence 3) [4AF21CBD] (AR v2)
Copy OK

All tracks accurately ripped

No errors occurred

End of status report

–– CUETools DB Plugin V2.1.6

[CTDB TOCID: Dk.B7wQPsmS3Mf5aW_B0EbjuOy0-] found
Submit result: Dk.B7wQPsmS3Mf5aW_B0EbjuOy0- has been confirmed
Track | CTDB Status
1 | (3/3) Accurately ripped
2 | (3/3) Accurately ripped
3 | (3/3) Accurately ripped
4 | (3/3) Accurately ripped
5 | (3/3) Accurately ripped
6 | (3/3) Accurately ripped
7 | (3/3) Accurately ripped
8 | (3/3) Accurately ripped
9 | (3/3) Accurately ripped
10 | (3/3) Accurately ripped
11 | (3/3) Accurately ripped
12 | (3/3) Accurately ripped
13 | (3/3) Accurately ripped
14 | (3/3) Accurately ripped
15 | (3/3) Accurately ripped
16 | (3/3) Accurately ripped

==== Log checksum 98FD954E45E5F76FE24F760D3D5C8BD300AC7A0468299FBCF70507D055CB476A ====


Al Hirt - 9 Albums (1987-2015)

Al Hirt - Pete Fountain Presents The Best Of Dixieland (2001)
EAC Rip | FLAC (tracks+.cue, log) ~ 144.34 Mb | 46:50 | Scans included
Jazz, Dixieland | Country: USA | Label: Verve (5168161)

A straight CD reissue of Al Hirt's Jazz Band Ball from 1956, this is one of the finest recordings ever of trumpeter Al Hirt and clarinetist Pete Fountain. A classic Dixieland set, it finds Hirt and Fountain in their early prime quite inspired by each other's ideas. With the assistance of a fine rhythm section and the underrated trombonist Bob Havens, Hirt and Fountain romp through such numbers as "The Original Dixieland One-Step," "Royal Garden Blues," "Jazz Me Blues," and "South Rampart Street Parade." A special bonus is that Fountain takes very rare tenor solos on two songs, being showcased (and sounding like Eddie Miller) on "Washington and Lee Swing." Essential music for Dixieland fans. ~ Review by Scott Yanow

Al Hirt - trumpet
Pete Fountain - clarinet, tenor saxophone
Bob Havens - trombone
Roy Zimmerman - piano
Bob Coquille - bass
Paul Edwards - drums

Recorded in New Orleans in 1956.

Track List:
01. The Original Dixieland One-Step (4:11)
02. Tin Roof Blues (4:37)
03. Royal Garden Blues (2:50)
04. Panama (3:28)
05. Blue and Broken-Hearted (2:54)
06. Wolverine Blues (5:19)
07. Washington and Lee Swing (3:10)
08. I'm Going Home (4:25)
09. Jazz Me Blues (3:37)
10. Night and Day (3:08)
11. South Rampart Street Parade (5:33)
12. Sugar (3:38)

Exact Audio Copy V1.0 beta 3 from 29. August 2011

EAC extraction logfile from 22. December 2013, 15:45

Al Hirt / The Best of Dixieland

Used drive : MATSHITADVD+-RW UJ8C2 Adapter: 1 ID: 0

Read mode : Secure
Utilize accurate stream : Yes
Defeat audio cache : Yes
Make use of C2 pointers : No

Read offset correction : 103
Overread into Lead-In and Lead-Out : No
Fill up missing offset samples with silence : Yes
Delete leading and trailing silent blocks : No
Null samples used in CRC calculations : Yes
Used interface : Native Win32 interface for Win NT & 2000
Gap handling : Appended to previous track

Used output format : Internal WAV Routines
Sample format : 44.100 Hz; 16 Bit; Stereo

TOC of the extracted CD

Track | Start | Length | Start sector | End sector
––––––––––––––––––––––––––––-
1 | 0:00.00 | 4:10.55 | 0 | 18804
2 | 4:10.55 | 4:36.70 | 18805 | 39574
3 | 8:47.50 | 2:50.17 | 39575 | 52341
4 | 11:37.67 | 3:28.15 | 52342 | 67956
5 | 15:06.07 | 2:54.20 | 67957 | 81026
6 | 18:00.27 | 5:18.45 | 81027 | 104921
7 | 23:18.72 | 3:09.53 | 104922 | 119149
8 | 26:28.50 | 4:24.57 | 119150 | 139006
9 | 30:53.32 | 3:36.55 | 139007 | 155261
10 | 34:30.12 | 3:07.68 | 155262 | 169354
11 | 37:38.05 | 5:33.15 | 169355 | 194344
12 | 43:11.20 | 3:38.10 | 194345 | 210704

Track 1

Filename C:\Al Hirt Pete Fountain Presents the Best of Dixieland - Al Hirt (2001 Reissue Verve 5168161)\01 The Original Dixieland One-step.wav

Pre-gap length 0:00:02.00

Peak level 98.1 %
Extraction speed 2.4 X
Track quality 100.0 %
Test CRC EE5BAFE3
Copy CRC EE5BAFE3
Cannot be verified as accurate (confidence 4) [CC0DFE1C], AccurateRip returned [4EA87D5E] (AR v2)
Copy OK

Track 2

Filename C:\Al Hirt Pete Fountain Presents the Best of Dixieland - Al Hirt (2001 Reissue Verve 5168161)\02 Tin Roof Blues.wav

Pre-gap length 0:00:04.20

Peak level 87.2 %
Extraction speed 2.8 X
Track quality 100.0 %
Test CRC 6E13331E
Copy CRC 6E13331E
Cannot be verified as accurate (confidence 4) [EFF5E357], AccurateRip returned [B2B0AB79] (AR v2)
Copy OK

Track 3

Filename C:\Al Hirt Pete Fountain Presents the Best of Dixieland - Al Hirt (2001 Reissue Verve 5168161)\03 Royal Garden Blues.wav

Pre-gap length 0:00:03.10

Peak level 99.6 %
Extraction speed 2.8 X
Track quality 100.0 %
Test CRC C675D70E
Copy CRC C675D70E
Cannot be verified as accurate (confidence 4) [30D630D2], AccurateRip returned [E923E63D] (AR v2)
Copy OK

Track 4

Filename C:\Al Hirt Pete Fountain Presents the Best of Dixieland - Al Hirt (2001 Reissue Verve 5168161)\04 Panama.wav

Pre-gap length 0:00:02.86

Peak level 97.8 %
Extraction speed 3.1 X
Track quality 100.0 %
Test CRC 2DC88B94
Copy CRC 2DC88B94
Cannot be verified as accurate (confidence 4) [F74D3162], AccurateRip returned [44E47A9E] (AR v2)
Copy OK

Track 5

Filename C:\Al Hirt Pete Fountain Presents the Best of Dixieland - Al Hirt (2001 Reissue Verve 5168161)\05 Blue and Broken-Hearted.wav

Pre-gap length 0:00:03.36

Peak level 60.4 %
Extraction speed 2.1 X
Track quality 99.9 %
Test CRC DA79345A
Copy CRC DA79345A
Cannot be verified as accurate (confidence 4) [0226A62D], AccurateRip returned [628F0670] (AR v2)
Copy OK

Track 6

Filename C:\Al Hirt Pete Fountain Presents the Best of Dixieland - Al Hirt (2001 Reissue Verve 5168161)\06 Wolverine Blues.wav

Pre-gap length 0:00:03.13

Peak level 91.8 %
Extraction speed 3.6 X
Track quality 100.0 %
Test CRC CA256E9F
Copy CRC CA256E9F
Cannot be verified as accurate (confidence 4) [663533BA], AccurateRip returned [F5FCC83B] (AR v2)
Copy OK

Track 7

Filename C:\Al Hirt Pete Fountain Presents the Best of Dixieland - Al Hirt (2001 Reissue Verve 5168161)\07 Washington and Lee Swing.wav

Pre-gap length 0:00:02.42

Peak level 91.8 %
Extraction speed 3.5 X
Track quality 100.0 %
Test CRC F950ECF1
Copy CRC F950ECF1
Cannot be verified as accurate (confidence 4) [61BC86C8], AccurateRip returned [779596C3] (AR v2)
Copy OK

Track 8

Filename C:\Al Hirt Pete Fountain Presents the Best of Dixieland - Al Hirt (2001 Reissue Verve 5168161)\08 I'm Going Home.wav

Pre-gap length 0:00:02.13

Peak level 99.6 %
Extraction speed 3.9 X
Track quality 100.0 %
Test CRC 5776E55F
Copy CRC 5776E55F
Cannot be verified as accurate (confidence 4) [9C537975], AccurateRip returned [2400FF9F] (AR v2)
Copy OK

Track 9

Filename C:\Al Hirt Pete Fountain Presents the Best of Dixieland - Al Hirt (2001 Reissue Verve 5168161)\09 Jazz Me Blues.wav

Pre-gap length 0:00:02.42

Peak level 93.0 %
Extraction speed 3.9 X
Track quality 100.0 %
Test CRC D612E9B8
Copy CRC D612E9B8
Cannot be verified as accurate (confidence 4) [B289F89D], AccurateRip returned [18946118] (AR v2)
Copy OK

Track 10

Filename C:\Al Hirt Pete Fountain Presents the Best of Dixieland - Al Hirt (2001 Reissue Verve 5168161)\10 Night and Day.wav

Pre-gap length 0:00:03.09

Peak level 84.4 %
Extraction speed 2.7 X
Track quality 99.9 %
Test CRC 08BD54AE
Copy CRC 08BD54AE
Cannot be verified as accurate (confidence 4) [49A05A87], AccurateRip returned [85999235] (AR v2)
Copy OK

Track 11

Filename C:\Al Hirt Pete Fountain Presents the Best of Dixieland - Al Hirt (2001 Reissue Verve 5168161)\11 South Rampart Street Parade.wav

Pre-gap length 0:00:03.10

Peak level 99.6 %
Extraction speed 4.4 X
Track quality 100.0 %
Test CRC 0745D889
Copy CRC 0745D889
Cannot be verified as accurate (confidence 4) [A5EA80E3], AccurateRip returned [D836B86F] (AR v2)
Copy OK

Track 12

Filename C:\Al Hirt Pete Fountain Presents the Best of Dixieland - Al Hirt (2001 Reissue Verve 5168161)\12 Sugar.wav

Pre-gap length 0:00:02.57

Peak level 90.8 %
Extraction speed 3.2 X
Track quality 99.9 %
Test CRC 29E50B48
Copy CRC 29E50B48
Cannot be verified as accurate (confidence 4) [CBB2AB10], AccurateRip returned [C644A7CE] (AR v2)
Copy OK

No tracks could be verified as accurate
You may have a different pressing from the one(s) in the database

No errors occurred

End of status report

==== Log checksum 07DE1F4F3AC889F5247F2FF943CB31B7B9E3663EBDAE7CF280A73B1ED27B1FB6 ====


Al Hirt - 9 Albums (1987-2015)

Al Hirt - Latin In The Horn (2002)
EAC Rip | FLAC (image+.cue, log) ~ 192.75 Mb + 50.14 Mb (Scans) | 31:21
Jazz, Dixieland | Country: USA | Label: BMG Music Spain (74321938552)

Track List:
01. Baia (2:38)
02. Frenesi (2:50)
03. Taboo (2:28)
04. Angelitos Negros (2:39)
05. Meditation (Meditaçao) (2:57)
06. A Sky Without Stars (Un Cielo Sin Estrellas) (2:36)
07. Gringo A-Go-Go (2:19)
08. Manhã De Carnaval (3:11)
09. Margarita (2:56)
10. What A Diff'rence A Day Made (2:04)
11. Be True To Me (Sabor A Mi) (2:00)
12. Desafinado (2:45)

Exact Audio Copy V1.0 beta 2 from 29. April 2011

EAC extraction logfile from 26. May 2014, 10:52

Al Hirt / Latin In The Horn [2002 BMG Music Spain Remaster]

Used drive : HL-DT-STBD-RE BH14NS40 Adapter: 0 ID: 2

Read mode : Secure
Utilize accurate stream : Yes
Defeat audio cache : Yes
Make use of C2 pointers : No

Read offset correction : 6
Overread into Lead-In and Lead-Out : No
Fill up missing offset samples with silence : Yes
Delete leading and trailing silent blocks : No
Null samples used in CRC calculations : Yes
Used interface : Native Win32 interface for Win NT & 2000

Used output format : User Defined Encoder
Selected bitrate : 1024 kBit/s
Quality : High
Add ID3 tag : No
Command line compressor : C:\Program Files (x86)\Exact Audio Copy\Flac\flac.exe
Additional command line options : -V -5 -T "artist=%albumartist%" -T "title=%title%" -T "album=%albumtitle%" -T "date=%year%" -T "genre=%genre%" -T "tracknumber=%tracknr%" %source%

TOC of the extracted CD

Track | Start | Length | Start sector | End sector
––––––––––––––––––––––––––––-
1 | 0:00.00 | 2:37.49 | 0 | 11823
2 | 2:37.49 | 2:50.24 | 11824 | 24597
3 | 5:27.73 | 2:27.46 | 24598 | 35668
4 | 7:55.44 | 2:38.41 | 35669 | 47559
5 | 10:34.10 | 2:57.20 | 47560 | 60854
6 | 13:31.30 | 2:35.45 | 60855 | 72524
7 | 16:07.00 | 2:18.42 | 72525 | 82916
8 | 18:25.42 | 3:10.73 | 82917 | 97239
9 | 21:36.40 | 2:56.26 | 97240 | 110465
10 | 24:32.66 | 2:03.47 | 110466 | 119737
11 | 26:36.38 | 1:59.38 | 119738 | 128700
12 | 28:36.01 | 2:44.74 | 128701 | 141074

Range status and errors

Selected range

Filename C:\EAC\Al Hirt - (1966) Latin In The Horn [2002 BMG Music Spain Remaster]\Al Hirt - Latin In The Horn [2002 BMG Music Spain Remaster].wav

Peak level 100.0 %
Extraction speed 2.7 X
Range quality 100.0 %
Test CRC 237D70A3
Copy CRC 237D70A3
Copy OK

No errors occurred

AccurateRip summary

Track 1 not present in database
Track 2 not present in database
Track 3 not present in database
Track 4 not present in database
Track 5 not present in database
Track 6 not present in database
Track 7 not present in database
Track 8 not present in database
Track 9 not present in database
Track 10 not present in database
Track 11 not present in database
Track 12 not present in database

None of the tracks are present in the AccurateRip database

End of status report

==== Log checksum DAEB417E7BD8054E8D3F3E75FEF4C1BE2B277789708FED4EF059FA5E6C4453F3 ====


Al Hirt - 9 Albums (1987-2015)

Al Hirt - Swingin' Dixie! (At Dan's Pier 600 In New Orleans) (2010)
EAC Rip | APE (image+.cue, log) ~ 302.11 Mb | 52:03 | Scans included
Jazz, Dixieland | Country: USA | Label: Audio Fidelity

The first of four Al Hirt Audiophile albums recorded during the same year, this LP finds the trumpeter in prime form before he started making commercial hit records. With trombonist Bob Havens and clarinetist Harold Cooper completing the frontline, Hirt runs through an exciting set of Dixieland. This version of "Saints" is quite unusual, for Hirt and his fellow horn players start off trading four-bar phrases and gradually cut it in half again and again until they are trading off every beat. Other highlights include "Tiger Rag," "Fidgety Feet" and "Hindustan." An excellent example of Hirt's Dixieland playing, but unfortunately, all of his Audiofidelity releases are long out of print. ~ AllMusic Review by Scott Yanow

Track List:
01. Caravan
02. Tiger Rag
03. Fidgety Feet
04. Tailgate Ramble
05. St. Louis Blues
06. Saints
07. Floatin' Down To Cottontown
08. Mississippi Mud
09. And The Angels Sing
10.New Orleans
11.Hindustan
12.I Want A Big Butter & Egg Man

Exact Audio Copy V1.0 beta 3 from 29. August 2011

Отчёт EAC об извлечении, выполненном 28. октября 2011, 14:45

Al Hirt / Swingin' Dixie!

Дисковод: Optiarc DVD RW AD-5200A Adapter: 0 ID: 1

Режим чтения : Достоверность
Использование точного потока : Да
Отключение кэша аудио : Да
Использование указателей C2 : Нет

Коррекция смещения при чтении : 48
Способность читать области Lead-in и Lead-out : Нет
Заполнение пропущенных сэмплов тишиной : Да
Удаление блоков с тишиной в начале и конце : Нет
При вычислениях CRC использовались нулевые сэмплы : Да
Интерфейс : Установленный внешний ASPI-интерфейс

Выходной формат : Пользовательский кодировщик
Выбранный битрейт : 128 kBit/s
Качество : Высокий
Добавление ID3-тега : Нет
Утилита сжатия : C:\Program Files\Monkey's Audio\MAC.exe
Дополнительные параметры : %source% %dest% -c3000

TOC извлечённого CD

Трек | Старт | Длительность | Начальный сектор | Конечный сектор
––––––––––––––––––––––––––––––––––-
1 | 0:00.00 | 6:32.35 | 0 | 29434
2 | 6:32.35 | 3:32.32 | 29435 | 45366
3 | 10:04.67 | 4:53.33 | 45367 | 67374
4 | 14:58.25 | 3:51.05 | 67375 | 84704
5 | 18:49.30 | 4:20.52 | 84705 | 104256
6 | 23:10.07 | 6:49.65 | 104257 | 134996
7 | 29:59.72 | 3:30.35 | 134997 | 150781
8 | 33:30.32 | 3:17.60 | 150782 | 165616
9 | 36:48.17 | 2:33.13 | 165617 | 177104
10 | 39:21.30 | 4:07.50 | 177105 | 195679
11 | 43:29.05 | 5:19.62 | 195680 | 219666
12 | 48:48.67 | 3:15.05 | 219667 | 234296

Характеристики диапазона извлечения и сообщения об ошибках

Выбранный диапазон

Имя файла F:\2010.Al Hirt - Swingin' Dixie!\Al Hirt - Swingin' Dixie!.wav

Пиковый уровень 94.7 %
Скорость извлечения 3.6 X
Качество диапазона 100.0 %
CRC теста 1546AACB
CRC копии 1546AACB
Копирование… OK

Ошибок не произошло

Конец отчёта

==== Контрольная сумма отчёта AC4C6E2BC4E9D8020736599FFC52C53F82F367DF60EC1F41DA24DEE927B53EA7 ====


Al Hirt - 9 Albums (1987-2015)

Al Hirt - The Sound of Christmas (2013)
XLD Rip | FLAC (tracks+.cue, log) ~ 275.74 Mb | 46:13 | Cover
Jazz, Dixieland | Country: USA | Label: Relayer Records

Back in the 1960's it was almost impossible not to see New Orleans music legend Al "He's The King" Hirt on some weekly television variety show, or hear one of his latest hit songs on the radio, or hear his music in movies and hit TV programs like the Green Hornet. In 1965, Al Hirt and producer Jim Fogelsong went into the RCA Studios in Nashville and cut these 14 seasonal holiday favorites for the album The Sound Of Christmas. Out of circulation for many decades until now, the CD reissue features two bonus tracks all available for the first time ever on Compact Disc!

Track List:
01. Nutty Jingle Bells (2:14)
02. Medley: I Saw Mommy Kissing Santa Claus/Here Comes Santa Claus (Right Down Santa Claus Lane) (2:18)
03. Rudolph The Red-Nosed Reindeer (2:12)
04. Sleigh Ride (2:12)
05. Silver Bells (2:38)
06. The Christmas Song (Merry Christmas to You) (3:09)
07. Santa Claus Is Comin' to Town (2:27)
08. Medley: Deck the Halls/Good King Wenceslas/We Wish You a Merry Christmas (2:35)
09. Ave Maria (4:13)
10. Medley: What Child Is This?/Oh Little Town of Bethlehem/It Came Upon a Midnight Clear (4:25)
11. O Holy Night (3:43)
12. Silent Night (3:35)
13. Medley: Hark! The Herald Angels Sing/Joy to the World/O Come, All Ye Faithful (3:12)
14. Medley: We Three Kings of Orient Are/The First Noel (2:30)
15. Hooray for Santa Claus (2:03)
16. White Christmas (2:47)

X Lossless Decoder version 20151214 (149.1)

XLD extraction logfile from 2016-07-27 22:56:09 -0400

Al Hirt / The Sound of Christmas

Used drive : MATSHITA DVD-R UJ-8A8 (revision HB14)
Media type : Pressed CD

Ripper mode : XLD Secure Ripper
Disable audio cache : OK for the drive with a cache less than 1375KiB
Make use of C2 pointers : NO
Read offset correction : 102
Max retry count : 20
Gap status : Analyzed, Appended (except HTOA)

TOC of the extracted CD
Track | Start | Length | Start sector | End sector
––––––––––––––––––––––––––––-
1 | 00:00:00 | 02:13:46 | 0 | 10020
2 | 02:13:46 | 02:17:49 | 10021 | 20344
3 | 04:31:20 | 02:11:69 | 20345 | 30238
4 | 06:43:14 | 02:12:19 | 30239 | 40157
5 | 08:55:33 | 02:37:43 | 40158 | 51975
6 | 11:33:01 | 03:08:58 | 51976 | 66133
7 | 14:41:59 | 02:27:29 | 66134 | 77187
8 | 17:09:13 | 02:35:13 | 77188 | 88825
9 | 19:44:26 | 04:13:11 | 88826 | 107811
10 | 23:57:37 | 04:24:61 | 107812 | 127672
11 | 28:22:23 | 03:43:33 | 127673 | 144430
12 | 32:05:56 | 03:34:52 | 144431 | 160532
13 | 35:40:33 | 03:11:67 | 160533 | 174924
14 | 38:52:25 | 02:29:50 | 174925 | 186149
15 | 41:22:00 | 02:02:61 | 186150 | 195360
16 | 43:24:61 | 02:46:49 | 195361 | 207859

AccurateRip Summary (DiscID: 0019c820-013d5950-d00ad310)
Track 01 : OK (v2, confidence 1/1)
Track 02 : OK (v2, confidence 1/1)
Track 03 : OK (v2, confidence 1/1)
Track 04 : OK (v2, confidence 1/1)
Track 05 : OK (v2, confidence 1/1)
Track 06 : OK (v2, confidence 1/1)
Track 07 : OK (v2, confidence 1/1)
Track 08 : OK (v2, confidence 1/1)
Track 09 : OK (v2, confidence 1/1)
Track 10 : OK (v2, confidence 1/1)
Track 11 : OK (v2, confidence 1/1)
Track 12 : OK (v2, confidence 1/1)
Track 13 : OK (v2, confidence 1/1)
Track 14 : OK (v2, confidence 1/1)
Track 15 : OK (v2, confidence 1/1)
Track 16 : OK (v2, confidence 1/1)
->All tracks accurately ripped.

All Tracks
Album gain : -7.63 dB
Peak : 0.996094
Statistics
Read error : 0
Jitter error (maybe fixed) : 0
Retry sector count : 0
Damaged sector count : 0

Track 01
Filename : /Users/brad/Downloads/rips/Al Hirt - The Sound of Christmas (2013) [FLAC]/01 Nutty Jingle Bells.flac
/Users/brad/Downloads/rips/Al Hirt - The Sound of Christmas (2013) [320]/01 Nutty Jingle Bells.mp3
Pre-gap length : 00:02:00

Track gain : -9.05 dB
Peak : 0.987640
CRC32 hash (test run) : 7516A4D3
CRC32 hash : 7516A4D3
CRC32 hash (skip zero) : 99BBD9C8
AccurateRip v1 signature : D031EBE1
AccurateRip v2 signature : 38910B9C
->Accurately ripped (v2, confidence 1/1)
Statistics
Read error : 0
Jitter error (maybe fixed) : 0
Retry sector count : 0
Damaged sector count : 0

Track 02
Filename : /Users/brad/Downloads/rips/Al Hirt - The Sound of Christmas (2013) [FLAC]/02 Medley_ I Saw Mommy Kissing Santa Claus - Here Comes Santa Claus.flac
/Users/brad/Downloads/rips/Al Hirt - The Sound of Christmas (2013) [320]/02 Medley_ I Saw Mommy Kissing Santa Claus - Here Comes Santa Claus.mp3

Track gain : -8.12 dB
Peak : 0.995392
CRC32 hash (test run) : A5B466DA
CRC32 hash : A5B466DA
CRC32 hash (skip zero) : BE805C39
AccurateRip v1 signature : F5AAE340
AccurateRip v2 signature : 5C2D7104
->Accurately ripped (v2, confidence 1/1)
Statistics
Read error : 0
Jitter error (maybe fixed) : 0
Retry sector count : 0
Damaged sector count : 0

Track 03
Filename : /Users/brad/Downloads/rips/Al Hirt - The Sound of Christmas (2013) [FLAC]/03 Rudolph The Red-Nosed Reindeer.flac
/Users/brad/Downloads/rips/Al Hirt - The Sound of Christmas (2013) [320]/03 Rudolph The Red-Nosed Reindeer.mp3

Track gain : -8.44 dB
Peak : 0.996094
CRC32 hash (test run) : 8A63B68C
CRC32 hash : 8A63B68C
CRC32 hash (skip zero) : 550AAB14
AccurateRip v1 signature : 1FBD20E1
AccurateRip v2 signature : FC31B1C7
->Accurately ripped (v2, confidence 1/1)
Statistics
Read error : 0
Jitter error (maybe fixed) : 0
Retry sector count : 0
Damaged sector count : 0

Track 04
Filename : /Users/brad/Downloads/rips/Al Hirt - The Sound of Christmas (2013) [FLAC]/04 Sleigh Ride.flac
/Users/brad/Downloads/rips/Al Hirt - The Sound of Christmas (2013) [320]/04 Sleigh Ride.mp3

Track gain : -8.73 dB
Peak : 0.996033
CRC32 hash (test run) : F0527E31
CRC32 hash : F0527E31
CRC32 hash (skip zero) : E3725D65
AccurateRip v1 signature : DA08F59E
AccurateRip v2 signature : 92742F7E
->Accurately ripped (v2, confidence 1/1)
Statistics
Read error : 0
Jitter error (maybe fixed) : 0
Retry sector count : 0
Damaged sector count : 0

Track 05
Filename : /Users/brad/Downloads/rips/Al Hirt - The Sound of Christmas (2013) [FLAC]/05 Silver Bells.flac
/Users/brad/Downloads/rips/Al Hirt - The Sound of Christmas (2013) [320]/05 Silver Bells.mp3

Track gain : -8.17 dB
Peak : 0.930328
CRC32 hash (test run) : 5EF95861
CRC32 hash : 5EF95861
CRC32 hash (skip zero) : 5E5A5529
AccurateRip v1 signature : 1B5451A6
AccurateRip v2 signature : 946590FA
->Accurately ripped (v2, confidence 1/1)
Statistics
Read error : 0
Jitter error (maybe fixed) : 0
Retry sector count : 0
Damaged sector count : 0

Track 06
Filename : /Users/brad/Downloads/rips/Al Hirt - The Sound of Christmas (2013) [FLAC]/06 The Christmas Song (Merry Christmas To You).flac
/Users/brad/Downloads/rips/Al Hirt - The Sound of Christmas (2013) [320]/06 The Christmas Song (Merry Christmas To You).mp3

Track gain : -7.25 dB
Peak : 0.922943
CRC32 hash (test run) : DA9D1A44
CRC32 hash : DA9D1A44
CRC32 hash (skip zero) : 7E311554
AccurateRip v1 signature : 8A1B83A9
AccurateRip v2 signature : AA9D512D
->Accurately ripped (v2, confidence 1/1)
Statistics
Read error : 0
Jitter error (maybe fixed) : 0
Retry sector count : 0
Damaged sector count : 0

Track 07
Filename : /Users/brad/Downloads/rips/Al Hirt - The Sound of Christmas (2013) [FLAC]/07 Santa Claus Is Comin' To Town.flac
/Users/brad/Downloads/rips/Al Hirt - The Sound of Christmas (2013) [320]/07 Santa Claus Is Comin' To Town.mp3

Track gain : -9.14 dB
Peak : 0.988831
CRC32 hash (test run) : 4FAED621
CRC32 hash : 4FAED621
CRC32 hash (skip zero) : BE1A707C
AccurateRip v1 signature : F1A95D7D
AccurateRip v2 signature : EAB81E35
->Accurately ripped (v2, confidence 1/1)
Statistics
Read error : 0
Jitter error (maybe fixed) : 0
Retry sector count : 0
Damaged sector count : 0

Track 08
Filename : /Users/brad/Downloads/rips/Al Hirt - The Sound of Christmas (2013) [FLAC]/08 Medley_ Deck The Halls - Good King Wenceslas - We Wish You A Merry Christmas.flac
/Users/brad/Downloads/rips/Al Hirt - The Sound of Christmas (2013) [320]/08 Medley_ Deck The Halls - Good King Wenceslas - We Wish You A Merry Christmas.mp3

Track gain : -7.07 dB
Peak : 0.905457
CRC32 hash (test run) : D593C024
CRC32 hash : D593C024
CRC32 hash (skip zero) : 4AD66A39
AccurateRip v1 signature : EB727CDF
AccurateRip v2 signature : CAAB881F
->Accurately ripped (v2, confidence 1/1)
Statistics
Read error : 0
Jitter error (maybe fixed) : 0
Retry sector count : 0
Damaged sector count : 0

Track 09
Filename : /Users/brad/Downloads/rips/Al Hirt - The Sound of Christmas (2013) [FLAC]/09 Ave Maria.flac
/Users/brad/Downloads/rips/Al Hirt - The Sound of Christmas (2013) [320]/09 Ave Maria.mp3

Track gain : -5.20 dB
Peak : 0.847565
CRC32 hash (test run) : 44012116
CRC32 hash : 44012116
CRC32 hash (skip zero) : F9130900
AccurateRip v1 signature : 25F8ABCA
AccurateRip v2 signature : FE86F81A
->Accurately ripped (v2, confidence 1/1)
Statistics
Read error : 0
Jitter error (maybe fixed) : 0
Retry sector count : 0
Damaged sector count : 0

Track 10
Filename : /Users/brad/Downloads/rips/Al Hirt - The Sound of Christmas (2013) [FLAC]/10 Medley_ What Child Is This_ - Oh Little Town of Bethlehem - It Came Upon A Midnight Clear.flac
/Users/brad/Downloads/rips/Al Hirt - The Sound of Christmas (2013) [320]/10 Medley_ What Child Is This_ - Oh Little Town of Bethlehem - It Came Upon A Midnight Clear.mp3

Track gain : -4.18 dB
Peak : 0.854156
CRC32 hash (test run) : DCC47EB7
CRC32 hash : DCC47EB7
CRC32 hash (skip zero) : 2D1F8495
AccurateRip v1 signature : 1686E986
AccurateRip v2 signature : A374A2DD
->Accurately ripped (v2, confidence 1/1)
Statistics
Read error : 0
Jitter error (maybe fixed) : 0
Retry sector count : 0
Damaged sector count : 0

Track 11
Filename : /Users/brad/Downloads/rips/Al Hirt - The Sound of Christmas (2013) [FLAC]/11 O Holy Night.flac
/Users/brad/Downloads/rips/Al Hirt - The Sound of Christmas (2013) [320]/11 O Holy Night.mp3

Track gain : -7.83 dB
Peak : 0.907104
CRC32 hash (test run) : 26403E35
CRC32 hash : 26403E35
CRC32 hash (skip zero) : E28A6C3F
AccurateRip v1 signature : 0F754E93
AccurateRip v2 signature : 00FAE64C
->Accurately ripped (v2, confidence 1/1)
Statistics
Read error : 0
Jitter error (maybe fixed) : 0
Retry sector count : 0
Damaged sector count : 0

Track 12
Filename : /Users/brad/Downloads/rips/Al Hirt - The Sound of Christmas (2013) [FLAC]/12 Silent Night.flac
/Users/brad/Downloads/rips/Al Hirt - The Sound of Christmas (2013) [320]/12 Silent Night.mp3

Track gain : -4.94 dB
Peak : 0.881073
CRC32 hash (test run) : ACE47D67
CRC32 hash : ACE47D67
CRC32 hash (skip zero) : 90F85DD7
AccurateRip v1 signature : A6A2FA7B
AccurateRip v2 signature : 63F01340
->Accurately ripped (v2, confidence 1/1)
Statistics
Read error : 0
Jitter error (maybe fixed) : 0
Retry sector count : 0
Damaged sector count : 0

Track 13
Filename : /Users/brad/Downloads/rips/Al Hirt - The Sound of Christmas (2013) [FLAC]/13 Medley_ Hark_ The Herald Angels Sing - Joy to the World - O Come, All Ye Faithful.flac
/Users/brad/Downloads/rips/Al Hirt - The Sound of Christmas (2013) [320]/13 Medley_ Hark_ The Herald Angels Sing - Joy to the World - O Come, All Ye Faithful.mp3

Track gain : -7.02 dB
Peak : 0.911194
CRC32 hash (test run) : 6F319ED9
CRC32 hash : 6F319ED9
CRC32 hash (skip zero) : CEB51045
AccurateRip v1 signature : 85A84F56
AccurateRip v2 signature : 4C9B6126
->Accurately ripped (v2, confidence 1/1)
Statistics
Read error : 0
Jitter error (maybe fixed) : 0
Retry sector count : 0
Damaged sector count : 0

Track 14
Filename : /Users/brad/Downloads/rips/Al Hirt - The Sound of Christmas (2013) [FLAC]/14 Medley_ We Three Kings of Orient Are - The First NoГ«l.flac
/Users/brad/Downloads/rips/Al Hirt - The Sound of Christmas (2013) [320]/14 Medley_ We Three Kings of Orient Are - The First NoГ«l.mp3

Track gain : -7.00 dB
Peak : 0.912170
CRC32 hash (test run) : 58535664
CRC32 hash : 58535664
CRC32 hash (skip zero) : CD47B7EF
AccurateRip v1 signature : 7CFCD384
AccurateRip v2 signature : 014D895C
->Accurately ripped (v2, confidence 1/1)
Statistics
Read error : 0
Jitter error (maybe fixed) : 0
Retry sector count : 0
Damaged sector count : 0

Track 15
Filename : /Users/brad/Downloads/rips/Al Hirt - The Sound of Christmas (2013) [FLAC]/15 Hooray For Santa Claus.flac
/Users/brad/Downloads/rips/Al Hirt - The Sound of Christmas (2013) [320]/15 Hooray For Santa Claus.mp3

Track gain : -6.05 dB
Peak : 0.990692
CRC32 hash (test run) : 332D6E5F
CRC32 hash : 332D6E5F
CRC32 hash (skip zero) : E06A16C7
AccurateRip v1 signature : B59926AE
AccurateRip v2 signature : F2AB1733
->Accurately ripped (v2, confidence 1/1)
Statistics
Read error : 0
Jitter error (maybe fixed) : 0
Retry sector count : 0
Damaged sector count : 0

Track 16
Filename : /Users/brad/Downloads/rips/Al Hirt - The Sound of Christmas (2013) [FLAC]/16 White Christmas.flac
/Users/brad/Downloads/rips/Al Hirt - The Sound of Christmas (2013) [320]/16 White Christmas.mp3

Track gain : -5.95 dB
Peak : 0.922394
CRC32 hash (test run) : C330FF71
CRC32 hash : C330FF71
CRC32 hash (skip zero) : 43F3E391
AccurateRip v1 signature : 5E6B99ED
AccurateRip v2 signature : 902DF61D
->Accurately ripped (v2, confidence 1/1)
Statistics
Read error : 0
Jitter error (maybe fixed) : 0
Retry sector count : 0
Damaged sector count : 0

No errors occurred

End of status report

––-BEGIN XLD SIGNATURE––-
Ji_LdJiUKpSqpZKi4arzHS9r7B.Le5KAb6lXKn4hbs2TEDm1dRgXy9OHECzjJPZ8OVSeB2qkiZnS2J8lvNG9jat7t__Y2alB2ZY58gu
––-END XLD SIGNATURE––-


Al Hirt - 9 Albums (1987-2015)

Al Hirt - They're Playing Our Song (2015)
WEB FLAC (tracks) ~ 196.11 Mb | 32:34 | Cover
Jazz, Dixieland | Country: USA | Label: RCA Victor - Legacy

Track List:
01. I Had The Craziest Dream (2:52)
02. Paper Doll (2:39)
03. You'll Never Know (2:53)
04. It's Been A Long, Long Time (2:38)
05. The Song From Moulin Rouge (Where Is Your Heart) (2:40)
06. Autumn Leaves (2:34)
07. There, I've Said It Again (2:33)
08. I've Heard That Song Before (2:38)
09. I'll Get By (3:18)
10. Deep Purple (2:20)
11. Cherry Pink And Apple Blossom White (2:30)
12. I'll Be Seeing You (2:59)

AUDIOCHECKER v2.0 beta (build 457) - by Dester - opdester@freemail.hu
~~~~~~~~~~~~~~~~~~~~~~~~~~~~~~~~~~
-=== DO NOT EDIT THIS FILE! ===-

Path: …\1965. Ai Hirt - They're Playing Our Song (2015)

01 -=- 01. I Had The Craziest Dream.flac -=- CDDA (100%)
02 -=- 02. Paper Doll.flac -=- CDDA (100%)
03 -=- 03. You'll Never Know.flac -=- CDDA (100%)
04 -=- 04. It's Been A Long, Long Time.flac -=- CDDA (100%)
05 -=- 05. The Song From Moulin Rouge (Where Is Your Heart).flac -=- CDDA (99%)
06 -=- 06. Autumn Leaves.flac -=- CDDA (100%)
07 -=- 07. There, I've Said It Again.flac -=- CDDA (100%)
08 -=- 08. I've Heard That Song Before.flac -=- CDDA (99%)
09 -=- 09. I'll Get By.flac -=- CDDA (99%)
10 -=- 10. Deep Purple.flac -=- CDDA (100%)
11 -=- 11. Cherry Pink And Apple Blossom White.flac -=- CDDA (100%)
12 -=- 12. I'll Be Seeing You.flac -=- CDDA (100%)

Summary 99,75% CDDA

181451940


All thanks go to the Kambiz, freeplay, OVerLoRDI, lyzibang (what), flac jacket, ssagwebster, What.CD and deep000!

More Music in My Blog
Follow My RSS Channel