Subcategories

Alban Berg Quartett - Beethoven: The Late String Quartets Opp. 127, 130-133 & 135 (1989) (3CD Box Set)

Posted By: shamanicus
Alban Berg Quartett - Beethoven: The Late String Quartets Opp. 127, 130-133 & 135 (1989) (3CD Box Set)

Alban Berg Quartett - Beethoven: The Late String Quartets Opp. 127, 130-133 & 135 (1989) (3CD Box Set)
EAC Rip | FLAC (tracks+.cue, log) | Artwork (300dpi, jng) | 838 mb | MP3 CBR 320kbps | RAR | 440 mb
Classical | Label: EMI Classics / 7243 4 76820 2 5

If you don't already have any recordings of Beethoven's late string quartets, by all means get this one by the Alban Berg Quartet. There hasn't been a set to equal it since it was originally released in a different configuration in the early '90s - the Emerson's overly enthusiastic but not especially insightful set? oh, come on! - and there hadn't been many to equal it before the '90s, only the Quartetto Italiano's wonderfully balanced and incredibly lovely set, the Quatuor Végh's supremely intense and transcendentally sublime set, and the Berg's own earlier, extremely concentrated and austerely passionate studio set.

Alban Berg Quartett - Beethoven: The Late String Quartets Opp. 127, 130-133 & 135 (1989) (3CD Box Set)


"And even the Italiano, the Végh, and the earlier Berg could only equal what the latter Berg achieves in this set. Recorded live in Vienna in 1989, the second Berg set is even more concentrated - listen to the Fugue that opens the C sharp minor quartet - and even more passionate - listen to the Cavatina at the center of the B flat major quartet. Better yet, the tone is more beautiful - listen to the Lento assai e cantante tranquillo in the F major quartet. And, best of all, the interpretations are more luminous - listen to the coda of the Molto adagio of the A minor quartet.

"While you can never have too many great recordings of Beethoven's late quartets, if you can only have one, get this one. The live digital sound is palpably real."
Classics Today


Tracklist:

Disc 1
01 I. Maestoso - Allegro: String Quartet No.12 in E Flat, Op.127
02 II. Adagio ma non troppo, molto cantabile: String Quartet No.12 in E Flat, Op.127
03 III. Scherzando vivace: String Quartet No.12 in E Flat, Op.127
04 IV. Finale: String Quartet No.12 in E Flat, Op.127
05 I. Adagio ma non troppo - Allegro: String Quartet No. 13 in B Flat Major, Op.130
06 II. Presto: String Quartet No. 13 in B Flat Major, Op.130
07 III. Andante con moto, ma non troppo: String Quartet No. 13 in B Flat Major, Op.130
08 IV. Alla danza tedesca (Allegro assai): String Quartet No. 13 in B Flat Major, Op.130
09 V. Cavatina (Adagio molto espressivo): String Quartet No. 13 in B Flat Major, Op.130
10 VI. Finale (Allegro): String Quartet No. 13 in B Flat Major, Op.130

Disc 2
01 Grosse Fuge in B Flat Major, Op.133
02 I. Adagio ma non troppo e molto espressivo: String Quartet No.14 in C Sharp Minor, Op.131
03 II. Allegro molto vivace: String Quartet No.14 in C Sharp Minor, Op.131
04 III. Andante moderato: String Quartet No.14 in C Sharp Minor, Op.131
05 IV. Andante ma non troppo e molto cantabile: String Quartet No.14 in C Sharp Minor, Op.131
06 V. Presto: String Quartet No.14 in C Sharp Minor, Op.131
07 VI. Adagio quasi un poco andante: String Quartet No.14 in C Sharp Minor, Op.131
08 VII. Allegro: String Quartet No.14 in C Sharp Minor, Op.131

Disc 3
01 I. Assai sostenuto - Allegro: String Quartet No.15 in A Minor, Op.132
02 II. Allegro ma non tanto: String Quartet No.15 in A Minor, Op.132
03 III. Molto adagio: String Quartet No.15 in A Minor, Op.132
04 IV. Alla marcia, assai vivace: String Quartet No.15 in A Minor, Op.132
05 V. Allegro appasionato: String Quartet No.15 in A Minor, Op.132
06 I. Allegretto: String Quartet No. 16 in F Major, Op.135
07 II. Vivace: String Quartet No. 16 in F Major, Op.135
08 III. Lento assai e cantante tranquillo: String Quartet No. 16 in F Major, Op.135
09 IV. Grave ma non troppo tratto - Allegro: String Quartet No. 16 in F Major, Op.135
Recorded live, Mozart Hall, Konzerthaus, Vienna, Austria 6/1989

Alban Berg Quartett - Beethoven: The Late String Quartets Opp. 127, 130-133 & 135 (1989) (3CD Box Set)



Exact Audio Copy V1.3 from 2. September 2016

EAC extraction logfile from 16. December 2017, 8:53

Alban Berg Quartett / The Late String Quartets

Used drive : HL-DT-STDVDRAM GP57EB40 Adapter: 1 ID: 0

Read mode : Secure
Utilize accurate stream : Yes
Defeat audio cache : Yes
Make use of C2 pointers : No

Read offset correction : 6
Overread into Lead-In and Lead-Out : No
Fill up missing offset samples with silence : Yes
Delete leading and trailing silent blocks : No
Null samples used in CRC calculations : Yes
Used interface : Native Win32 interface for Win NT & 2000
Gap handling : Appended to previous track

Used output format : User Defined Encoder
Selected bitrate : 1024 kBit/s
Quality : High
Add ID3 tag : No
Command line compressor : C:\Program Files (x86)\Exact Audio Copy\Flac\flac.exe
Additional command line options : -8 -e -V -T "ARTIST=%artist%" -T "TITLE=%title%" -T "ALBUM=%albumtitle%" -T "DATE=%year%" -T "TRACKNUMBER=%tracknr%" -T "GENRE=%genre%" -T "PERFORMER=%albuminterpret%" -T "COMPOSER=%composer%" %haslyrics%–tag-from-file=LYRICS="%lyricsfile%"%haslyrics% -T "ALBUMARTIST=%albumartist%" -T "DISCNUMBER=%cdnumber%" -T "TOTALDISCS=%totalcds%" -T "TOTALTRACKS=%numtracks%" -T "COMMENT=%comment%" %source% -o %dest%


TOC of the extracted CD

Track | Start | Length | Start sector | End sector
––––––––––––––––––––––––––––-
1 | 0:00.00 | 6:46.60 | 0 | 30509
2 | 6:46.60 | 16:03.60 | 30510 | 102794
3 | 22:50.45 | 7:10.72 | 102795 | 135116
4 | 30:01.42 | 7:01.73 | 135117 | 166764
5 | 37:03.40 | 9:36.06 | 166765 | 209970
6 | 46:39.46 | 1:59.29 | 209971 | 218924
7 | 48:39.00 | 6:36.46 | 218925 | 248670
8 | 55:15.46 | 2:57.48 | 248671 | 261993
9 | 58:13.19 | 6:34.57 | 261994 | 291600
10 | 64:48.01 | 7:59.03 | 291601 | 327528


Track 1

Filename C:\elemental5\Beethoven - Alban Berg Quartett - The Late String Quartets\CD1\01 - Beethoven, Ludwig Van- Qt No 12 in E flat, Op 127 - 001 Maestuoso- Allegro.wav

Pre-gap length 0:00:02.00

Peak level 75.0 %
Extraction speed 3.1 X
Track quality 100.0 %
Test CRC C797490C
Copy CRC C797490C
Accurately ripped (confidence 9) [CD8FBDEA] (AR v2)
Copy OK

Track 2

Filename C:\elemental5\Beethoven - Alban Berg Quartett - The Late String Quartets\CD1\02 - Beethoven, Ludwig Van- Qt No 12 in E flat, Op 127 - 002 Adagio ma non troppo e molto cantabile.wav

Peak level 35.8 %
Extraction speed 3.8 X
Track quality 99.9 %
Test CRC 700270F2
Copy CRC 700270F2
Accurately ripped (confidence 9) [9260596F] (AR v2)
Copy OK

Track 3

Filename C:\elemental5\Beethoven - Alban Berg Quartett - The Late String Quartets\CD1\03 - Beethoven, Ludwig Van- Qt No 12 in E flat, Op 127 - 003 Scherzando vivace.wav

Peak level 81.0 %
Extraction speed 4.0 X
Track quality 99.9 %
Test CRC 834BFF84
Copy CRC 834BFF84
Accurately ripped (confidence 9) [490489E6] (AR v2)
Copy OK

Track 4

Filename C:\elemental5\Beethoven - Alban Berg Quartett - The Late String Quartets\CD1\04 - Beethoven, Ludwig Van- Qt No 12 in E flat, Op 127 - 004 Finale.wav

Peak level 66.0 %
Extraction speed 4.2 X
Track quality 99.9 %
Test CRC 343BE1CE
Copy CRC 343BE1CE
Accurately ripped (confidence 9) [46ABEB61] (AR v2)
Copy OK

Track 5

Filename C:\elemental5\Beethoven - Alban Berg Quartett - The Late String Quartets\CD1\05 - Beethoven, Ludwig Van- Qt No 13 in B flat, Op 130 - 001 Adagio ma non troppo- Allegro.wav

Pre-gap length 0:00:04.65

Peak level 94.3 %
Extraction speed 5.1 X
Track quality 100.0 %
Test CRC E68EB2A8
Copy CRC E68EB2A8
Accurately ripped (confidence 9) [2480FBFE] (AR v2)
Copy OK

Track 6

Filename C:\elemental5\Beethoven - Alban Berg Quartett - The Late String Quartets\CD1\06 - Beethoven, Ludwig Van- Qt No 13 in B flat, Op 130 - 002 Presto.wav

Peak level 58.4 %
Extraction speed 4.4 X
Track quality 100.0 %
Test CRC 6921F684
Copy CRC 6921F684
Accurately ripped (confidence 9) [75FD8DA6] (AR v2)
Copy OK

Track 7

Filename C:\elemental5\Beethoven - Alban Berg Quartett - The Late String Quartets\CD1\07 - Beethoven, Ludwig Van- Qt No 13 in B flat, Op 130 - 003 Andante con moto, ma non troppo.wav

Peak level 44.6 %
Extraction speed 5.4 X
Track quality 100.0 %
Test CRC 628B5C21
Copy CRC 628B5C21
Accurately ripped (confidence 9) [0D687D96] (AR v2)
Copy OK

Track 8

Filename C:\elemental5\Beethoven - Alban Berg Quartett - The Late String Quartets\CD1\08 - Beethoven, Ludwig Van- Qt No 13 in B flat, Op 130 - 004 Alla danza tedesca- Allegro assai.wav

Peak level 32.3 %
Extraction speed 4.1 X
Track quality 99.9 %
Test CRC 1479FC85
Copy CRC 1479FC85
Accurately ripped (confidence 9) [8EB644AE] (AR v2)
Copy OK

Track 9

Filename C:\elemental5\Beethoven - Alban Berg Quartett - The Late String Quartets\CD1\09 - Beethoven, Ludwig Van- Qt No 13 in B flat, Op 130 - 005 Cavatina- Adagio molto espressivo.wav

Peak level 24.5 %
Extraction speed 5.1 X
Track quality 99.9 %
Test CRC C73171A7
Copy CRC C73171A7
Accurately ripped (confidence 9) [829998B4] (AR v2)
Copy OK

Track 10

Filename C:\elemental5\Beethoven - Alban Berg Quartett - The Late String Quartets\CD1\10 - Beethoven, Ludwig Van- Qt No 13 in B flat, Op 130 - 006 Finale- Allegro.wav

Peak level 96.2 %
Extraction speed 5.5 X
Track quality 99.9 %
Test CRC AE8AECFF
Copy CRC AE8AECFF
Accurately ripped (confidence 9) [87F12523] (AR v2)
Copy OK


All tracks accurately ripped

No errors occurred

End of status report

–– CUETools DB Plugin V2.1.6

[CTDB TOCID: lwTEld8.tsjangPWuy8FpT4DsSc-] found
Submit result: lwTEld8.tsjangPWuy8FpT4DsSc- has been confirmed
Track | CTDB Status
1 | (26/26) Accurately ripped
2 | (26/26) Accurately ripped
3 | (26/26) Accurately ripped
4 | (26/26) Accurately ripped
5 | (26/26) Accurately ripped
6 | (26/26) Accurately ripped
7 | (26/26) Accurately ripped
8 | (26/26) Accurately ripped
9 | (26/26) Accurately ripped
10 | (26/26) Accurately ripped


==== Log checksum A3591DA78DE112CE14F089114DFBA5DAF253FE424E4774EDC1E74F19CA4D7236 ====

Exact Audio Copy V1.3 from 2. September 2016

EAC extraction logfile from 17. December 2017, 6:58

Alban Berg Quartett / Beethoven - The Late String Quartetts 2

Used drive : HL-DT-STDVDRAM GP57EB40 Adapter: 1 ID: 0

Read mode : Secure
Utilize accurate stream : Yes
Defeat audio cache : Yes
Make use of C2 pointers : No

Read offset correction : 6
Overread into Lead-In and Lead-Out : No
Fill up missing offset samples with silence : Yes
Delete leading and trailing silent blocks : No
Null samples used in CRC calculations : Yes
Used interface : Native Win32 interface for Win NT & 2000
Gap handling : Appended to previous track

Used output format : User Defined Encoder
Selected bitrate : 1024 kBit/s
Quality : High
Add ID3 tag : No
Command line compressor : C:\Program Files (x86)\Exact Audio Copy\Flac\flac.exe
Additional command line options : -8 -e -V -T "ARTIST=%artist%" -T "TITLE=%title%" -T "ALBUM=%albumtitle%" -T "DATE=%year%" -T "TRACKNUMBER=%tracknr%" -T "GENRE=%genre%" -T "PERFORMER=%albuminterpret%" -T "COMPOSER=%composer%" %haslyrics%–tag-from-file=LYRICS="%lyricsfile%"%haslyrics% -T "ALBUMARTIST=%albumartist%" -T "DISCNUMBER=%cdnumber%" -T "TOTALDISCS=%totalcds%" -T "TOTALTRACKS=%numtracks%" -T "COMMENT=%comment%" %source% -o %dest%


TOC of the extracted CD

Track | Start | Length | Start sector | End sector
––––––––––––––––––––––––––––-
1 | 0:00.00 | 15:32.68 | 0 | 69967
2 | 15:32.68 | 6:36.70 | 69968 | 99737
3 | 22:09.63 | 3:00.59 | 99738 | 113296
4 | 25:10.47 | 0:51.45 | 113297 | 117166
5 | 26:02.17 | 12:47.68 | 117167 | 174759
6 | 38:50.10 | 5:25.31 | 174760 | 199165
7 | 44:15.41 | 1:23.59 | 199166 | 205449
8 | 45:39.25 | 6:33.49 | 205450 | 234973


Track 1

Filename C:\elemental5\Beethoven - Alban Berg Quartett - The Late String Quartets\CD2\01. Große Fuge in B Dur - Op.133.wav

Pre-gap length 0:00:02.00

Peak level 93.1 %
Extraction speed 2.2 X
Track quality 99.9 %
Test CRC 1B401518
Copy CRC 1B401518
Accurately ripped (confidence 4) [90768163] (AR v2)
Copy OK

Track 2

Filename C:\elemental5\Beethoven - Alban Berg Quartett - The Late String Quartets\CD2\02. String Quartet No.14 in C sharp minor - Op.131 - I. Adagio ma non troppo e motto espressivo.wav

Pre-gap length 0:00:04.56

Peak level 44.7 %
Extraction speed 3.4 X
Track quality 100.0 %
Test CRC 8EC6D190
Copy CRC 8EC6D190
Accurately ripped (confidence 4) [4BCE465C] (AR v2)
Copy OK

Track 3

Filename C:\elemental5\Beethoven - Alban Berg Quartett - The Late String Quartets\CD2\03. String Quartet No.14 in C sharp minor - Op.131 - II. Allegro molto vivace.wav

Peak level 65.5 %
Extraction speed 3.5 X
Track quality 100.0 %
Test CRC 4093A037
Copy CRC 4093A037
Accurately ripped (confidence 4) [06905B7C] (AR v2)
Copy OK

Track 4

Filename C:\elemental5\Beethoven - Alban Berg Quartett - The Late String Quartets\CD2\04. String Quartet No.14 in C sharp minor - Op.131 - III. Allegro mderato.wav

Peak level 56.0 %
Extraction speed 2.5 X
Track quality 100.0 %
Test CRC 5869C501
Copy CRC 5869C501
Accurately ripped (confidence 4) [14B896A7] (AR v2)
Copy OK

Track 5

Filename C:\elemental5\Beethoven - Alban Berg Quartett - The Late String Quartets\CD2\05. String Quartet No.14 in C sharp minor - Op.131 - IV. Andante ma non troppo e molto cantabile.wav

Peak level 62.0 %
Extraction speed 4.4 X
Track quality 99.9 %
Test CRC BE06BC61
Copy CRC BE06BC61
Accurately ripped (confidence 4) [7FCC7F5D] (AR v2)
Copy OK

Track 6

Filename C:\elemental5\Beethoven - Alban Berg Quartett - The Late String Quartets\CD2\06. String Quartet No.14 in C sharp minor - Op.131 - V. Presto.wav

Peak level 74.0 %
Extraction speed 4.8 X
Track quality 100.0 %
Test CRC CC2DC44F
Copy CRC CC2DC44F
Accurately ripped (confidence 4) [DF65E51D] (AR v2)
Copy OK

Track 7

Filename C:\elemental5\Beethoven - Alban Berg Quartett - The Late String Quartets\CD2\07. String Quartet No.14 in C sharp minor - Op.131 - Vi. Adagio quasi un poco andante.wav

Peak level 38.4 %
Extraction speed 3.8 X
Track quality 100.0 %
Test CRC 1B6C83F1
Copy CRC 1B6C83F1
Accurately ripped (confidence 4) [27C088F8] (AR v2)
Copy OK

Track 8

Filename C:\elemental5\Beethoven - Alban Berg Quartett - The Late String Quartets\CD2\08. String Quartet No.14 in C sharp minor - Op.131 - VII. Allegro.wav

Peak level 95.2 %
Extraction speed 5.1 X
Track quality 100.0 %
Test CRC 05ADDC37
Copy CRC 05ADDC37
Accurately ripped (confidence 4) [E227E120] (AR v2)
Copy OK


All tracks accurately ripped

No errors occurred

End of status report

–– CUETools DB Plugin V2.1.6

[CTDB TOCID: pK1kD.jxA0plPJ8uAw1U0STm7qg-] found
Submit result: pK1kD.jxA0plPJ8uAw1U0STm7qg- has been confirmed
Track | CTDB Status
1 | (23/23) Accurately ripped
2 | (23/23) Accurately ripped
3 | (23/23) Accurately ripped
4 | (23/23) Accurately ripped
5 | (23/23) Accurately ripped
6 | (23/23) Accurately ripped
7 | (23/23) Accurately ripped
8 | (23/23) Accurately ripped


==== Log checksum 0AC03DA8AB82088C61504122C098F117A89C91513268C29A68D9179A026CEA32 ====

Exact Audio Copy V1.3 from 2. September 2016

EAC extraction logfile from 17. December 2017, 8:08

Beethoven, Ludwig Van / Beethoven: Late Str Qts; Alban Berg Qt

Used drive : HL-DT-STDVDRAM GP57EB40 Adapter: 1 ID: 0

Read mode : Secure
Utilize accurate stream : Yes
Defeat audio cache : Yes
Make use of C2 pointers : No

Read offset correction : 6
Overread into Lead-In and Lead-Out : No
Fill up missing offset samples with silence : Yes
Delete leading and trailing silent blocks : No
Null samples used in CRC calculations : Yes
Used interface : Native Win32 interface for Win NT & 2000
Gap handling : Appended to previous track

Used output format : User Defined Encoder
Selected bitrate : 1024 kBit/s
Quality : High
Add ID3 tag : No
Command line compressor : C:\Program Files (x86)\Exact Audio Copy\Flac\flac.exe
Additional command line options : -8 -e -V -T "ARTIST=%artist%" -T "TITLE=%title%" -T "ALBUM=%albumtitle%" -T "DATE=%year%" -T "TRACKNUMBER=%tracknr%" -T "GENRE=%genre%" -T "PERFORMER=%albuminterpret%" -T "COMPOSER=%composer%" %haslyrics%–tag-from-file=LYRICS="%lyricsfile%"%haslyrics% -T "ALBUMARTIST=%albumartist%" -T "DISCNUMBER=%cdnumber%" -T "TOTALDISCS=%totalcds%" -T "TOTALTRACKS=%numtracks%" -T "COMMENT=%comment%" %source% -o %dest%


TOC of the extracted CD

Track | Start | Length | Start sector | End sector
––––––––––––––––––––––––––––-
1 | 0:00.00 | 9:31.65 | 0 | 42889
2 | 9:31.65 | 8:29.62 | 42890 | 81126
3 | 18:01.52 | 15:21.67 | 81127 | 150268
4 | 33:23.44 | 2:08.56 | 150269 | 159924
5 | 35:32.25 | 6:47.17 | 159925 | 190466
6 | 42:19.42 | 6:19.69 | 190467 | 218960
7 | 48:39.36 | 3:20.00 | 218961 | 233960
8 | 51:59.36 | 8:27.60 | 233961 | 272045
9 | 60:27.21 | 7:02.38 | 272046 | 303733


Track 1

Filename C:\elemental5\Beethoven - Alban Berg Quartett - The Late String Quartets\CD3\01 - Beethoven, Ludwig Van- Qt No 15 in A minor, Op 132 - 001 Assai sostenuto- Allegro.wav

Pre-gap length 0:00:02.00

Peak level 67.5 %
Extraction speed 1.3 X
Track quality 99.9 %
Test CRC 97134DAE
Copy CRC 97134DAE
Accurately ripped (confidence 3) [D13222F9] (AR v2)
Copy OK

Track 2

Filename C:\elemental5\Beethoven - Alban Berg Quartett - The Late String Quartets\CD3\02 - Beethoven, Ludwig Van- Qt No 15 in A minor, Op 132 - 002 Allegro ma non tanto.wav

Peak level 46.4 %
Extraction speed 1.6 X
Track quality 100.0 %
Test CRC 18A167FD
Copy CRC 18A167FD
Accurately ripped (confidence 3) [B4641BD3] (AR v2)
Copy OK

Track 3

Filename C:\elemental5\Beethoven - Alban Berg Quartett - The Late String Quartets\CD3\03 - Beethoven, Ludwig Van- Qt No 15 in A minor, Op 132 - 003 Molto adagio.wav

Peak level 70.6 %
Extraction speed 2.0 X
Track quality 100.0 %
Test CRC A5DADD1A
Copy CRC A5DADD1A
Accurately ripped (confidence 3) [9E2918AD] (AR v2)
Copy OK

Track 4

Filename C:\elemental5\Beethoven - Alban Berg Quartett - The Late String Quartets\CD3\04 - Beethoven, Ludwig Van- Qt No 15 in A minor, Op 132 - 004 Alla marcia, assai vivace.wav

Peak level 67.0 %
Extraction speed 1.8 X
Track quality 100.0 %
Test CRC 08653990
Copy CRC 08653990
Accurately ripped (confidence 3) [C8302721] (AR v2)
Copy OK

Track 5

Filename C:\elemental5\Beethoven - Alban Berg Quartett - The Late String Quartets\CD3\05 - Beethoven, Ludwig Van- Qt No 15 in A minor, Op 132 - 005 Allegro appassionato.wav

Peak level 65.7 %
Extraction speed 2.2 X
Track quality 100.0 %
Test CRC 8EC87228
Copy CRC 8EC87228
Accurately ripped (confidence 3) [B5F4DF5B] (AR v2)
Copy OK

Track 6

Filename C:\elemental5\Beethoven - Alban Berg Quartett - The Late String Quartets\CD3\06 - Beethoven, Ludwig Van- Qt No 16 in F major, Op 135 - 001 Allegretto.wav

Pre-gap length 0:00:04.98

Peak level 61.1 %
Extraction speed 2.3 X
Track quality 100.0 %
Test CRC 4C1638EA
Copy CRC 4C1638EA
Accurately ripped (confidence 3) [AB0A9C3C] (AR v2)
Copy OK

Track 7

Filename C:\elemental5\Beethoven - Alban Berg Quartett - The Late String Quartets\CD3\07 - Beethoven, Ludwig Van- Qt No 16 in F major, Op 135 - 002 Vivace.wav

Peak level 46.0 %
Extraction speed 2.2 X
Track quality 100.0 %
Test CRC 5334AE28
Copy CRC 5334AE28
Accurately ripped (confidence 3) [B269C528] (AR v2)
Copy OK

Track 8

Filename C:\elemental5\Beethoven - Alban Berg Quartett - The Late String Quartets\CD3\08 - Beethoven, Ludwig Van- Qt No 16 in F major, Op 135 - 003 Lento assai e cantate tranquillo.wav

Peak level 30.8 %
Extraction speed 2.5 X
Track quality 100.0 %
Test CRC E645C992
Copy CRC E645C992
Accurately ripped (confidence 3) [A5DEF69C] (AR v2)
Copy OK

Track 9

Filename C:\elemental5\Beethoven - Alban Berg Quartett - The Late String Quartets\CD3\09 - Beethoven, Ludwig Van- Qt No 16 in F major, Op 135 - 004 Grave, ma non troppo tratto- Allegro.wav

Peak level 91.3 %
Extraction speed 2.6 X
Track quality 100.0 %
Test CRC DC5FB0F0
Copy CRC DC5FB0F0
Accurately ripped (confidence 2) [B41E4371] (AR v2)
Copy OK


All tracks accurately ripped

No errors occurred

End of status report

–– CUETools DB Plugin V2.1.6

[CTDB TOCID: c.syZU3I_UtFMscIZCyamUBaDcw-] found
Submit result: c.syZU3I_UtFMscIZCyamUBaDcw- has been confirmed
Track | CTDB Status
1 | (23/23) Accurately ripped
2 | (23/23) Accurately ripped
3 | (23/23) Accurately ripped
4 | (23/23) Accurately ripped
5 | (23/23) Accurately ripped
6 | (23/23) Accurately ripped
7 | (23/23) Accurately ripped
8 | (23/23) Accurately ripped
9 | (23/23) Accurately ripped


==== Log checksum D036BCD310528C719C52EB819A1015B573D4B895533AC8769CF4833FB9897030 ====



Thanks to the Original customer.