Subcategories

Alexei Lubimov - Carl Philipp Emanuel Bach: Tangere (2017) {ECM New Series}

Posted By: shamanicus
Alexei Lubimov - Carl Philipp Emanuel Bach: Tangere (2017) {ECM New Series}

Alexei Lubimov - Carl Philipp Emanuel Bach: Tangere (2017)
EAC Rip | FLAC (tracks+.cue, log) | Cover - front, d.booklet | 312 mb | MP3 CBR 320kbps | RAR | 161 mb
Classical, Keyboard | Label: ECM Records - ECM 2112

Are you ready for extreme 18th century keyboard? The typically sparse packaging graphics of this ECM release may indicate only to German speakers what's contained inside: a "Tangentenflügel" is a tangent piano, a rare keyboard instrument of Mozart's time that used hammers, striking the strings at a tangent, but no dampers. The sound combines qualities of a clavichord (its nearest relative, but the tangent piano is louder), a fortepiano, and a harpsichord.

Occasional recordings using the instrument exist, but this one by Russian keyboardist Alexei Lubimov may be the first one to really show what it can do. Lubimov states that the tangent piano is especially well suited to the music of Carl Philipp Emanuel Bach, with its "affects, diversity of rhetoric, melancholy humor, paradoxical harmonic effects, idiosyncratic rhythms." There's no evidence that these particular pieces were played on a tangent piano, but Bach is known to have had access to one at the court of Frederick the Great, and the results here are nothing short of spectacular. You could start with the Freye Fantasie in F sharp minor Wq 67, where Lubimov lays out most of the instrument's capabilities of dynamic and coloristic contrast. The two keyboard sonatas included are hardly less extreme in their musical language or in the interpretation here. Elsewhere, Lubimov offers some pretty obscure pieces: a two-movement, one-handed piano work, some short pieces called Fantasie or Solfeggio that consist of single little rhetorical gestures and last between 30 seconds and a minute each, two energetic rondos, and a second full-length fantasy for a rousing conclusion. Whether or not this reading is historically "accurate," Lubimov seems to achieve a kind of insight into the mind of this notoriously troublesome composer that no one else has quite managed before, and the end result is often gripping.
James Manheim


Tracklist:

01. Freye Fantasie fis-Moll Wq 67 (11:14)
Sonate II d-Moll Wq 57 (3. Sammlung, 1781)
02. Allegro Moderato (6:20)
03. Cantabile E Mesto (3:17)
04. Allegro (2:32)
05. Rondo II c-Moll Wq 59/4 (5. Sammlung, 1785) (5:15)
06. Fantasie d-Moll Wq 117/12 (0:28)
07. Fantasie G-Dur Wq 117/11 (0:34)
08. Fantasie D-Dur Wq 117/8 (0:32)
09. Fantasie B-Dur Wq 112/8 (1:02)

Clavierstück Für Die Rechte Oder Linke Hand Allein A-Dur Wq 117/1
10. I (1:31)
11. II (1:04)
12. Solfeggio C-Dur Wq 112/10 (0:54)
13. Solfeggio A-Dur Wq 117/4 (0:31)
14. Solfeggio Es-Dur Wq 117/3 (0:48)
15. Solfeggio c-Moll Wq 117/2 (0:54)
16. Solfeggio d-Moll Wq 64/1 (6. Sammlung, 1787) (4:34)

Sonate VI G-Dur Wq 55 (1. Sammlung, 1779)
17. Allegro Moderato (8:16)
18. Andante (3:29)
19. Allegro Di Molto (6:12)
20. Fantasie II C-Dur Wq 59/6 (5. Sammlung) (7:27)

Exact Audio Copy V1.3 from 2. September 2016

EAC extraction logfile from 17. November 2017, 12:29

Alexei Lubimov / Tangere

Used drive : MITSUMI CR-48X9TE Adapter: 1 ID: 0

Read mode : Secure
Utilize accurate stream : Yes
Defeat audio cache : Yes
Make use of C2 pointers : No

Read offset correction : 733
Overread into Lead-In and Lead-Out : No
Fill up missing offset samples with silence : Yes
Delete leading and trailing silent blocks : No
Null samples used in CRC calculations : Yes
Used interface : Native Win32 interface for Win NT & 2000
Gap handling : Appended to previous track

Used output format : User Defined Encoder
Selected bitrate : 1024 kBit/s
Quality : High
Add ID3 tag : No
Command line compressor : C:\Program Files (x86)\Exact Audio Copy\Flac\flac.exe
Additional command line options : -8 -e -p -V -T "ARTIST=%artist%" -T "TITLE=%title%" -T "ALBUM=%albumtitle%" -T "DATE=%year%" -T "TRACKNUMBER=%tracknr%" -T "GENRE=%genre%" -T "PERFORMER=%albuminterpret%" -T "COMPOSER=%composer%" %haslyrics%–tag-from-file=LYRICS="%lyricsfile%"%haslyrics% -T "ALBUMARTIST=%albumartist%" -T "DISCNUMBER=%cdnumber%" -T "TOTALDISCS=%totalcds%" -T "TOTALTRACKS=%numtracks%" -T "COMMENT=%comment%" %source% -o %dest%


TOC of the extracted CD

Track | Start | Length | Start sector | End sector
––––––––––––––––––––––––––––-
1 | 0:00.00 | 11:18.43 | 0 | 50892
2 | 11:18.43 | 6:20.67 | 50893 | 79459
3 | 17:39.35 | 3:17.48 | 79460 | 94282
4 | 20:57.08 | 2:37.65 | 94283 | 106122
5 | 23:34.73 | 5:20.23 | 106123 | 130145
6 | 28:55.21 | 0:28.30 | 130146 | 132275
7 | 29:23.51 | 0:34.20 | 132276 | 134845
8 | 29:57.71 | 0:32.22 | 134846 | 137267
9 | 30:30.18 | 1:02.33 | 137268 | 141950
10 | 31:32.51 | 1:31.37 | 141951 | 148812
11 | 33:04.13 | 1:04.45 | 148813 | 153657
12 | 34:08.58 | 0:54.06 | 153658 | 157713
13 | 35:02.64 | 0:31.28 | 157714 | 160066
14 | 35:34.17 | 0:48.19 | 160067 | 163685
15 | 36:22.36 | 0:59.47 | 163686 | 168157
16 | 37:22.08 | 4:38.37 | 168158 | 189044
17 | 42:00.45 | 8:16.67 | 189045 | 226311
18 | 50:17.37 | 3:29.52 | 226312 | 242038
19 | 53:47.14 | 6:15.60 | 242039 | 270223
20 | 60:02.74 | 7:27.18 | 270224 | 303766


Track 1

Filename C:\rip\Alexei Lubimov - Carl Philipp Emanuel Bach - Tangere (2017) { ECM 2112} [FLAC-CD]\01 - Freye Fantasie fis-Moll, Wq. 67.wav

Pre-gap length 0:00:02.00

Peak level 98.2 %
Extraction speed 3.1 X
Track quality 99.9 %
Test CRC 450FFA88
Copy CRC 450FFA88
Accurately ripped (confidence 3) [77EC1BA5] (AR v2)
Copy OK

Track 2

Filename C:\rip\Alexei Lubimov - Carl Philipp Emanuel Bach - Tangere (2017) { ECM 2112} [FLAC-CD]\02 - Sonate II d-Moll, Wq. 57-4 - 1. Allegro moderato.wav

Pre-gap length 0:00:04.09

Peak level 63.3 %
Extraction speed 3.6 X
Track quality 100.0 %
Test CRC 338BADA8
Copy CRC 338BADA8
Accurately ripped (confidence 3) [8C8A393D] (AR v2)
Copy OK

Track 3

Filename C:\rip\Alexei Lubimov - Carl Philipp Emanuel Bach - Tangere (2017) { ECM 2112} [FLAC-CD]\03 - Sonate II d-Moll, Wq. 57-4 - 2. Cantabile e mesto.wav

Peak level 51.6 %
Extraction speed 3.6 X
Track quality 100.0 %
Test CRC CB54FC8E
Copy CRC CB54FC8E
Accurately ripped (confidence 3) [3F2043C4] (AR v2)
Copy OK

Track 4

Filename C:\rip\Alexei Lubimov - Carl Philipp Emanuel Bach - Tangere (2017) { ECM 2112} [FLAC-CD]\04 - Sonate II d-Moll, Wq. 57-4 - 3. Allegro.wav

Peak level 58.0 %
Extraction speed 3.6 X
Track quality 100.0 %
Test CRC 57F9EC1A
Copy CRC 57F9EC1A
Accurately ripped (confidence 3) [E395D67F] (AR v2)
Copy OK

Track 5

Filename C:\rip\Alexei Lubimov - Carl Philipp Emanuel Bach - Tangere (2017) { ECM 2112} [FLAC-CD]\05 - Rondo II c-Moll, Wq. 59-4.wav

Pre-gap length 0:00:04.82

Peak level 68.7 %
Extraction speed 4.1 X
Track quality 100.0 %
Test CRC 60AEE5C3
Copy CRC 60AEE5C3
Accurately ripped (confidence 3) [4C27300F] (AR v2)
Copy OK

Track 6

Filename C:\rip\Alexei Lubimov - Carl Philipp Emanuel Bach - Tangere (2017) { ECM 2112} [FLAC-CD]\06 - Fantasie d-Moll, Wq. 117-12.wav

Pre-gap length 0:00:04.78

Peak level 66.7 %
Extraction speed 2.0 X
Track quality 100.0 %
Test CRC BCE4AEDD
Copy CRC BCE4AEDD
Accurately ripped (confidence 3) [96E9EE6B] (AR v2)
Copy OK

Track 7

Filename C:\rip\Alexei Lubimov - Carl Philipp Emanuel Bach - Tangere (2017) { ECM 2112} [FLAC-CD]\07 - Fantasie G-Dur, Wq. 117-11.wav

Peak level 67.6 %
Extraction speed 2.2 X
Track quality 100.0 %
Test CRC C876FA3B
Copy CRC C876FA3B
Accurately ripped (confidence 3) [57419D24] (AR v2)
Copy OK

Track 8

Filename C:\rip\Alexei Lubimov - Carl Philipp Emanuel Bach - Tangere (2017) { ECM 2112} [FLAC-CD]\08 - Fantasie D-Dur, Wq. 117-8.wav

Peak level 62.3 %
Extraction speed 2.2 X
Track quality 100.0 %
Test CRC 7ADCB436
Copy CRC 7ADCB436
Accurately ripped (confidence 3) [FBC72AE1] (AR v2)
Copy OK

Track 9

Filename C:\rip\Alexei Lubimov - Carl Philipp Emanuel Bach - Tangere (2017) { ECM 2112} [FLAC-CD]\09 - Fantasie B-Dur, Wq. 112-8.wav

Peak level 46.3 %
Extraction speed 3.0 X
Track quality 100.0 %
Test CRC F4DE7C97
Copy CRC F4DE7C97
Accurately ripped (confidence 3) [269BBD56] (AR v2)
Copy OK

Track 10

Filename C:\rip\Alexei Lubimov - Carl Philipp Emanuel Bach - Tangere (2017) { ECM 2112} [FLAC-CD]\10 - Clavierstuck fur die rechte oder linke Hand allein A-Dur, Wq. 117-1 - 1. Rechte Hand.wav

Peak level 16.7 %
Extraction speed 3.5 X
Track quality 100.0 %
Test CRC ED04F8D4
Copy CRC ED04F8D4
Accurately ripped (confidence 3) [952EA856] (AR v2)
Copy OK

Track 11

Filename C:\rip\Alexei Lubimov - Carl Philipp Emanuel Bach - Tangere (2017) { ECM 2112} [FLAC-CD]\11 - Clavierstuck fur die rechte oder linke Hand allein A-Dur, Wq. 117-1 - 2. Linke Hand.wav

Peak level 33.2 %
Extraction speed 3.1 X
Track quality 100.0 %
Test CRC B7AC12C9
Copy CRC B7AC12C9
Accurately ripped (confidence 3) [0D8421B0] (AR v2)
Copy OK

Track 12

Filename C:\rip\Alexei Lubimov - Carl Philipp Emanuel Bach - Tangere (2017) { ECM 2112} [FLAC-CD]\12 - Solfeggio C-Dur, Wq. 112-10.wav

Peak level 81.6 %
Extraction speed 2.1 X
Track quality 99.8 %
Test CRC A6F07120
Copy CRC A6F07120
Accurately ripped (confidence 3) [1A0AED02] (AR v2)
Copy OK

Track 13

Filename C:\rip\Alexei Lubimov - Carl Philipp Emanuel Bach - Tangere (2017) { ECM 2112} [FLAC-CD]\13 - Solfeggio A-Dur, Wq. 117-4.wav

Peak level 57.6 %
Extraction speed 2.3 X
Track quality 100.0 %
Test CRC 79EEE01E
Copy CRC 79EEE01E
Accurately ripped (confidence 3) [D73E1CE2] (AR v2)
Copy OK

Track 14

Filename C:\rip\Alexei Lubimov - Carl Philipp Emanuel Bach - Tangere (2017) { ECM 2112} [FLAC-CD]\14 - Solfeggio Es-Dur, Wq. 117-3.wav

Peak level 25.9 %
Extraction speed 2.8 X
Track quality 100.0 %
Test CRC 13E23619
Copy CRC 13E23619
Accurately ripped (confidence 3) [993E79D0] (AR v2)
Copy OK

Track 15

Filename C:\rip\Alexei Lubimov - Carl Philipp Emanuel Bach - Tangere (2017) { ECM 2112} [FLAC-CD]\15 - Solfeggio c-Moll, Wq. 117-2.wav

Peak level 56.6 %
Extraction speed 3.2 X
Track quality 100.0 %
Test CRC E7D097B8
Copy CRC E7D097B8
Accurately ripped (confidence 3) [991EAE19] (AR v2)
Copy OK

Track 16

Filename C:\rip\Alexei Lubimov - Carl Philipp Emanuel Bach - Tangere (2017) { ECM 2112} [FLAC-CD]\16 - Rondo II d-Moll, Wq. 61-4.wav

Pre-gap length 0:00:05.21

Peak level 73.4 %
Extraction speed 4.6 X
Track quality 100.0 %
Test CRC 30E8D6D6
Copy CRC 30E8D6D6
Accurately ripped (confidence 3) [51FA1D2B] (AR v2)
Copy OK

Track 17

Filename C:\rip\Alexei Lubimov - Carl Philipp Emanuel Bach - Tangere (2017) { ECM 2112} [FLAC-CD]\17 - Sonate VI G-Dur, Wq. 55-6 - 1. Allegro moderato.wav

Pre-gap length 0:00:03.96

Peak level 97.3 %
Extraction speed 5.1 X
Track quality 100.0 %
Test CRC 9002E112
Copy CRC 9002E112
Accurately ripped (confidence 3) [E8C561F3] (AR v2)
Copy OK

Track 18

Filename C:\rip\Alexei Lubimov - Carl Philipp Emanuel Bach - Tangere (2017) { ECM 2112} [FLAC-CD]\18 - Sonate VI G-Dur, Wq. 55-6 - 2. Andante.wav

Peak level 26.4 %
Extraction speed 4.9 X
Track quality 100.0 %
Test CRC C8923BC1
Copy CRC C8923BC1
Accurately ripped (confidence 3) [B2AFA20B] (AR v2)
Copy OK

Track 19

Filename C:\rip\Alexei Lubimov - Carl Philipp Emanuel Bach - Tangere (2017) { ECM 2112} [FLAC-CD]\19 - Sonate VI G-Dur, Wq. 55-6 - 3. Allegro di molto.wav

Peak level 98.7 %
Extraction speed 4.9 X
Track quality 99.9 %
Test CRC 3D385D0D
Copy CRC 3D385D0D
Accurately ripped (confidence 3) [5E73D539] (AR v2)
Copy OK

Track 20

Filename C:\rip\Alexei Lubimov - Carl Philipp Emanuel Bach - Tangere (2017) { ECM 2112} [FLAC-CD]\20 - Fantasie II C-Dur, Wq. 59-6.wav

Pre-gap length 0:00:03.02

Peak level 79.5 %
Extraction speed 5.2 X
Track quality 99.9 %
Test CRC 8FC9CA44
Copy CRC 8FC9CA44
Accurately ripped (confidence 3) [D3F2DBBD] (AR v2)
Copy OK


All tracks accurately ripped

No errors occurred

End of status report

–– CUETools DB Plugin V2.1.6

[CTDB TOCID: _nrcUoKvMfVcjxfdJQHBZtuPjbQ-] found
Submit result: The operation has timed out
Track | CTDB Status
1 | (13/13) Accurately ripped
2 | (13/13) Accurately ripped
3 | (13/13) Accurately ripped
4 | (13/13) Accurately ripped
5 | (13/13) Accurately ripped
6 | (13/13) Accurately ripped
7 | (13/13) Accurately ripped
8 | (13/13) Accurately ripped
9 | (13/13) Accurately ripped
10 | (13/13) Accurately ripped
11 | (13/13) Accurately ripped
12 | (13/13) Accurately ripped
13 | (13/13) Accurately ripped
14 | (13/13) Accurately ripped
15 | (13/13) Accurately ripped
16 | (13/13) Accurately ripped
17 | (13/13) Accurately ripped
18 | (13/13) Accurately ripped
19 | (13/13) Accurately ripped
20 | (13/13) Accurately ripped


==== Log checksum A92D54AD4A9FC35A1C447C5C49FD8CB2743374F77B97C939CE72C5F23D87ADE9 ====