Subcategories

Allan Taylor - Songs for the Road [Stockfisch Records SFR 357.9010.2] (2010)

Posted By: luckburz
Allan Taylor - Songs for the Road [Stockfisch Records SFR 357.9010.2] (2010)

Allan Taylor - Songs for the Road
EAC+LOG+CUE | FLAC (tracks): 138 MB + Enhanced Video Clip: 219 MB | Artwork | 5% Recovery Info
Label/Cat#: Stockfisch Records # SFR 357.9010.2 | Country/Year: Germany 2010
Genre: Folk, Rock | Style: Acoustic, Singer/Songwriter[

MD5 [X] CUE [X] LOG [X] INFO TEXT [X] ARTWORK [X]

selfrip [] not my rip [X]

Exact Audio Copy V1.0 beta 2 from 29. April 2011

EAC extraction logfile from 7. July 2011, 15:42

Allan Taylor / Songs For The Road

Used drive : HL-DT-STDVDRAM GSA-H42N Adapter: 0 ID: 1

Read mode : Secure
Utilize accurate stream : Yes
Defeat audio cache : Yes
Make use of C2 pointers : No

Read offset correction : 667
Overread into Lead-In and Lead-Out : No
Fill up missing offset samples with silence : Yes
Delete leading and trailing silent blocks : No
Null samples used in CRC calculations : Yes
Used interface : Installed external ASPI interface
Gap handling : Appended to previous track

Used output format : User Defined Encoder
Selected bitrate : 1024 kBit/s
Quality : High
Add ID3 tag : No
Command line compressor : C:\Program Files\Exact Audio Copy\Flac\flac.exe
Additional command line options : -V -0 -T "artist=%artist%" -T "title=%title%" -T "album=%albumtitle%" -T "date=%year%" -T "tracknumber=%tracknr%" -T "genre=%genre%" -T "COMMENT=Released by: AVLossless Főnixek Rendje" %source%


TOC of the extracted CD

Track | Start | Length | Start sector | End sector
––––––––––––––––––––––––––––-
1 | 0:00.00 | 5:20.69 | 0 | 24068
2 | 5:20.69 | 4:39.43 | 24069 | 45036
3 | 10:00.37 | 4:38.45 | 45037 | 65931
4 | 14:39.07 | 3:19.40 | 65932 | 80896
5 | 17:58.47 | 4:19.18 | 80897 | 100339
6 | 24:49.65 | 48:01.62 | 111740 | 327876


Track 1

Filename D:\TorrentDown\Allan Taylor - Songs for the Road(2010)(FLAC)-AFR\01 Dedicated to ….wav

Pre-gap length 0:00:02.00

Peak level 94.4 %
Extraction speed 2.9 X
Track quality 100.0 %
Test CRC 519C44C3
Copy CRC 519C44C3
Accurately ripped (confidence 2) [CA63E071] (AR v2)
Copy OK

Track 2

Filename D:\TorrentDown\Allan Taylor - Songs for the Road(2010)(FLAC)-AFR\02 A Promise and a Porsche.wav

Peak level 94.4 %
Extraction speed 3.2 X
Track quality 100.0 %
Test CRC 5F0230FA
Copy CRC 5F0230FA
Accurately ripped (confidence 2) [5165C508] (AR v2)
Copy OK

Track 3

Filename D:\TorrentDown\Allan Taylor - Songs for the Road(2010)(FLAC)-AFR\03 Let the Music flow.wav

Peak level 94.4 %
Extraction speed 3.5 X
Track quality 100.0 %
Test CRC D0DF4F4B
Copy CRC D0DF4F4B
Accurately ripped (confidence 2) [933007C9] (AR v2)
Copy OK

Track 4

Filename D:\TorrentDown\Allan Taylor - Songs for the Road(2010)(FLAC)-AFR\04 Dancing on a Saturday Night.wav

Peak level 94.4 %
Extraction speed 2.6 X
Track quality 99.9 %
Test CRC FD7C3F21
Copy CRC FD7C3F21
Accurately ripped (confidence 2) [DEF414EA] (AR v2)
Copy OK

Track 5

Filename D:\TorrentDown\Allan Taylor - Songs for the Road(2010)(FLAC)-AFR\05 Midnight Call.wav

Peak level 94.4 %
Extraction speed 3.9 X
Track quality 100.0 %
Test CRC 1D2D7305
Copy CRC 1D2D7305
Accurately ripped (confidence 2) [10C9721A] (AR v2)
Copy OK


All tracks accurately ripped

No errors occurred

End of status report

==== Log checksum 85431E32F4FA0DCDDFC9898483BB72A0FEDDE7BBD84A7EB95951267750987D36 ====

auCDtect: CD records authenticity detector, version 0.8.2
Copyright © 2004 Oleg Berngardt. All rights reserved.
Copyright © 2004 Alexander Djourik. All rights reserved.

Detect mode (0..40 with 0 = most accurate): 8 (default)


––––––––––––––––––––––––––––––
[Allan Taylor - Songs For The Road.wav]
Detected average hi-boundary frequency: 2.056194e+004 Hz
Detected average lo-boundary frequency: 1.497290e+004 Hz
Detected average hi-cut frequency: 2.190189e+004 Hz
Detected average lo-cut frequency: 1.539229e+004 Hz
Maximum probablis boundary frequency: 2.189100e+004 Hz
Coefficient of nonlinearity of a phase: 8.145515e-002
First order smothness: 4.609619e-001
Second order smothness: 7.120550e-001
––––––––––––––––––––––––––––––
This track looks like CDDA with probability 100%.

foobar2000 1.1.15 / Dynamic Range Meter 1.1.1
log date: 2013-06-18 15:37:34

––––––––––––––––––––––––––––––––––––––––
Analyzed: Allan Taylor / Songs For The Road
––––––––––––––––––––––––––––––––––––––––

DR Peak RMS Duration Track
––––––––––––––––––––––––––––––––––––––––
DR7 -0.50 dB -9.36 dB 5:21 01-Dedicated to …
DR7 -0.50 dB -8.89 dB 4:40 02-A Promise and a Porsche
DR7 -0.50 dB -9.31 dB 4:39 03-Let the Music flow
DR7 -0.50 dB -9.26 dB 3:20 04-Dancing on a Saturday Night
DR7 -0.50 dB -8.87 dB 4:19 05-Midnight Call
––––––––––––––––––––––––––––––––––––––––

Number of tracks: 5
Official DR value: DR7

Samplerate: 44100 Hz
Channels: 2
Bits per sample: 16
Bitrate: 866 kbps
Codec: FLAC
================================================================================



CD Info:

Allan Taylor - Songs For The Road

Label: Stockfisch Records
Catalog#: SFR 357.9010.2
Format: Hybrid-SACD, Album
Country: Germany
Released: 2010
Genre: Rock, Acoustic
Style: Singer/Songwriter

Tracklist:

Allan Taylor - [Songs For The Road #01] Dedicated to …
Allan Taylor - [Songs For The Road #02] A Promise and a Porsche
Allan Taylor - [Songs For The Road #03] Let the Music flow
Allan Taylor - [Songs For The Road #04] Dancing on a Saturday Night
Allan Taylor - [Songs For The Road #05] Midnight Call

Allan Taylor – guitar, vocals
Michael Koschorrek – guitar, lap steel guitar, tremolo guitar, dobro, electric guitar
Ralf Gustke – drums, percussion
Hans-Jorg Maucksch – fretless bass, electric bass
Dieter Burmester – electric bass
Michael Kleinhans – tuba

Allan Taylor - Songs for the Road [Stockfisch Records SFR 357.9010.2] (2010)


Allan Taylor burst onto the English music scene forty years ago. Highly respected by his peers as a talented songwriter, he would become a staple of the emergent British folk scene, recording with members of Fairport Convention. With a highly developed sense of perception, his material has been covered on both sides of the Atlantic. Despite critical acclaim, commercial success would be elusive. He continued to record, and pursued a doctorate degree from the University in Belfast. His musical journey remains constant and aesthetic.

On Songs For The Road, Taylor offers introspective sketches of everyday life. Common themes are explored in five tightly arranged folk arrangements. ”Dedicated To…” has a laconic bluesy feel as the singer ponders the quiet desperation of love. With a straightforward guitar line, the song has a stripped down tone that has become resurgent in the industry (John Mellencamp employed a similar discipline on his latest release.). What stands out is the singing/talking baritone, recalling Johnny Cash or Mark Knopfler. The unique timbre of his voice underscores the pathos of the narratives. Reflections on rediscovering teenage romance are given a sentimental treatment on “Dancing On A Saturday Night”. The heartfelt aura of optimism is framed perfectly in a medium paced rockabilly waltz. Despite the mature vocal, the emotional angst of youth is echoed in the words (“I will steal a kiss under the pale moonlight…”). As the track draws to a close, a portion of the second verse is repeated in a dramatically slower manner. The simplicity of the message is accentuated with a nimble elegance.

Inspired by personal recollections of his father, “A Promise Is A Promise” recounts the complicated relationship between father and son. The mixture of redemption and closure is exemplified by the symbolism of a “real fast car”. A strained vocal conveys the fragility of the human spirit. The band is cohesive, subtle in context and expression, propelled by the fluid guitar licks. The minimalist production of “Midnight Call” takes a straightforward love story and creates an aural poem.

Stockfish continues to shine with its groundbreaking SACD technology. The precision and clarity of the stringed instrumentation is flawless, augmenting the acoustics without compromising the intended starkness. The Hybrid SACD Disc contains a CD audio layer playable on any standard machine. Additional video material on a data partition, (excerpted from the Stockfisch Blu-Ray Disc/DVD “The Endless Highway”) details various aspects of Taylor’s life and creative processes as a musician.

Songs For The Road is an engaging album. However at a sparse twenty-two minutes, the project could have benefited from more tracks. (Hopefully the price reflects the EP length…Ed.) -Robbie Gerson audiophile audition

Thanks to Rascal_!



Allan Taylor - Colour To The Moon (2000)
Allan Taylor - Hotels & Dreamers (2003)
Allan Taylor - Leaving At Dawn (2009) [CD Rip]
Allan Taylor - Leaving At Dawn (2009) [SACD Rip]

Beoga - Live At Stockfisch Studio (2010) [SACD/CD Rip]

Carl Cleves & Parissa Bouas - Out Of Australia (2010) [SACD/CD Rip]

Chris Jones - Moonstruck & No Looking Back (2000)

Christian Willisohn - Hold On (2005) [SACD Rip]
Christian Willisohn - Hold On (2005) [EAC Rip]

David Munyon - More Songs For Planet Earth (2004)

David Roth - More Pearls (2006)

David Qualey - Blue House (1995)

Dennis Kolen - Northeim ! Goldmine (2010) [CD Rip]
Dennis Kolen - Northeim ! Goldmine (2010) [SACD Rip]

Duo Balance - Bunter Fleck (1993)

Gergely Boganyi - Frederic Chopin - The Complete Nocturnes (2008) [CD Rip]
Gergely Boganyi - Frederic Chopin - The Complete Nocturnes (2008) [SACD Rip]

Katja Maria Werker - Mitten Im Sturm (2011)

Liederjan - Wie im Paradies (1993)

Louis Capart & Duo Balance - Voyage (2008) [SACD/CD Rip]

Paul O'Brien - Walk Back Home (2009) [CD Rip]
Paul O'Brien - Walk Back Home (2009) [SACD Rip]

Paul Stephenson - These Days (2004)

Peter Ratzenbeck - Peter's Fancy (2000)

Sara K. & Chris Jones - Live In Concert (2003)
Sara K. - Hell Or High Water (2006) [XRCD]
Sara K. - Made In The Shade (2009) [Pure Audio BluRay Rip]

Werner Lämmerhirt - SaitenZauber (1999)

VA - B&W Very Audiophile New Recordings Vol. 4 (2004)
VA - Sennheiser HD 800 - Klang Von Meisterhand (2010) [SACD/CD Rip]

Stockfisch related:

Katja Maria Werker - Contact Myself (2000)
Allan Taylor - The American Album & Cajun Moon
Darren Spalding - They Just Don´t Give A Damn (2000)
The Bates - intraVenus (1998)
Werner Lämmerhirt - Harte Zeiten (2007)


Allan Taylor - Songs for the Road [Stockfisch Records SFR 357.9010.2] (2010)


all of my uploads in my blog
________________

Download:

Music
Artwork
________________