Subcategories

VA - 20 All Time Greatest Hits (2000)

Posted By: L@ter
VA - 20 All Time Greatest Hits (2000)

VA - 20 All Time Greatest Hits (2000)
EAC Rip | FLAC, IMG+CUE, LOG | 294 MB | 51,41 min. | Scans
Label: Happy Days | Rock, Pop, Oldies | Compilation | RAR 3% Rec.


Tracklist

01. Sam Sham & The Pharaohs - Wooly Booly
02. Everly Brothers - Bye Bye Love
03. John Fred & His Playboyband - Judy In Disguise
04. Ritchie Valens - La Bamba
05. Kingsmen - Louie Louie
06. Pat Boone - Speedy Gonzales
07. Shanana - The Bird & The Bees
08. Chris Montez - Let's Dance
09. The Crystals - Da doo Ron Ron
10. Ray Stevens - Everything Is Beautiful
11. Lesley Gore - It's My Party
12. Everly Brothers - Till I Kissed You
13. Joey Dee & Starliters - Peppermint Twist
14. The Sensations - Let Me In
15. Jan & Dean - Help me Rhonda
16. Lovin Spoonful - Summer in the City
17. Mary Wells - My Guy
18. Boxtops - The Letter
19. Status Quo - Pictures Of Matchstick Men
20. George Mc Crae - Rock Your Baby


Exact Audio Copy V0.99 prebeta 5 from 4. May 2009

EAC extraction logfile from 19. February 2010, 19:48

Various / 20 All Time Greatest Hits

Used drive : HL-DT-STDVD-RAM GH22NP20 Adapter: 0 ID: 0

Read mode : Secure
Utilize accurate stream : Yes
Defeat audio cache : Yes
Make use of C2 pointers : No

Read offset correction : 102
Overread into Lead-In and Lead-Out : No
Fill up missing offset samples with silence : Yes
Delete leading and trailing silent blocks : No
Null samples used in CRC calculations : Yes
Used interface : Native Win32 interface for Win NT & 2000

Used output format : User Defined Encoder
Selected bitrate : 768 kBit/s
Quality : High
Add ID3 tag : No
Command line compressor : C:\Program Files\Exact Audio Copy\FLAC\FLAC.EXE
Additional command line options : -6 -V -T "ARTIST=%a" -T "TITLE=%t" -T "ALBUM=%g" -T "DATE=%y" -T "TRACKNUMBER=%n" -T "GENRE=%m" -T "COMMENT=%e" %s -o %d


TOC of the extracted CD

Track | Start | Length | Start sector | End sector
––––––––––––––––––––––––––––-
1 | 0:00.32 | 2:21.28 | 32 | 10634
2 | 2:21.60 | 2:21.37 | 10635 | 21246
3 | 4:43.22 | 2:54.20 | 21247 | 34316
4 | 7:37.42 | 2:03.58 | 34317 | 43599
5 | 9:41.25 | 2:45.15 | 43600 | 55989
6 | 12:26.40 | 2:37.25 | 55990 | 67789
7 | 15:03.65 | 2:07.47 | 67790 | 77361
8 | 17:11.37 | 2:14.18 | 77362 | 87429
9 | 19:25.55 | 2:19.50 | 87430 | 97904
10 | 21:45.30 | 3:31.65 | 97905 | 113794
11 | 25:17.20 | 2:16.00 | 113795 | 123994
12 | 27:33.20 | 2:23.15 | 123995 | 134734
13 | 29:56.35 | 2:04.25 | 134735 | 144059
14 | 32:00.60 | 3:03.45 | 144060 | 157829
15 | 35:04.30 | 2:54.35 | 157830 | 170914
16 | 37:58.65 | 2:39.52 | 170915 | 182891
17 | 40:38.42 | 2:42.63 | 182892 | 195104
18 | 43:21.30 | 1:51.42 | 195105 | 203471
19 | 45:12.72 | 3:09.48 | 203472 | 217694
20 | 48:22.45 | 3:18.70 | 217695 | 232614


Range status and errors

Selected range

Filename C:\Various - 20 All Time Greatest Hits.wav

Peak level 98.7 %
Range quality 100.0 %
Copy CRC 982CB69A
Copy OK

No errors occurred

AccurateRip summary

Track 1 not present in database
Track 2 not present in database
Track 3 not present in database
Track 4 not present in database
Track 5 not present in database
Track 6 not present in database
Track 7 not present in database
Track 8 not present in database
Track 9 not present in database
Track 10 not present in database
Track 11 not present in database
Track 12 not present in database
Track 13 not present in database
Track 14 not present in database
Track 15 not present in database
Track 16 not present in database
Track 17 not present in database
Track 18 not present in database
Track 19 not present in database
Track 20 not present in database

None of the tracks are present in the AccurateRip database

End of status report


REM GENRE Rock
REM DATE 2000
REM DISCID 0D0C1D14
REM COMMENT "ExactAudioCopy v0.99pb5"
PERFORMER "Various"
TITLE "20 All Time Greatest Hits"
FILE "Various - 20 All Time Greatest Hits.flac" WAVE
TRACK 01 AUDIO
TITLE "Wooly Booly"
PERFORMER "Sam deSham & The Pharaos"
INDEX 00 00:00:00
INDEX 01 00:00:32
TRACK 02 AUDIO
TITLE "Bye Bye Love"
PERFORMER "Everly Brothers"
INDEX 00 02:20:70
INDEX 01 02:21:60
TRACK 03 AUDIO
TITLE "Judy In Disguise"
PERFORMER "John Fred & his Playboyband"
INDEX 00 04:42:70
INDEX 01 04:43:22
TRACK 04 AUDIO
TITLE "La Bamba"
PERFORMER "Ritchie Valens"
INDEX 00 07:36:45
INDEX 01 07:37:42
TRACK 05 AUDIO
TITLE "Louie Louie"
PERFORMER "Kingsman"
INDEX 00 09:40:47
INDEX 01 09:41:25
TRACK 06 AUDIO
TITLE "Speedy Gonzales"
PERFORMER "Pat Boone"
INDEX 00 12:26:17
INDEX 01 12:26:40
TRACK 07 AUDIO
TITLE "The Bird & The Bees"
PERFORMER "Shanana"
INDEX 00 15:03:07
INDEX 01 15:03:65
TRACK 08 AUDIO
TITLE "Let's Dance"
PERFORMER "Chris Montez"
INDEX 00 17:10:37
INDEX 01 17:11:37
TRACK 09 AUDIO
TITLE "Da doo Ron Ron"
PERFORMER "The Crystals"
INDEX 00 19:24:65
INDEX 01 19:25:55
TRACK 10 AUDIO
TITLE "Everything is Beautiful"
PERFORMER "Ray Stevens"
INDEX 00 21:44:47
INDEX 01 21:45:30
TRACK 11 AUDIO
TITLE "It's My Party"
PERFORMER "Lesly gore"
INDEX 00 25:16:15
INDEX 01 25:17:20
TRACK 12 AUDIO
TITLE "Till I Kissed You"
PERFORMER "Everly Brothers"
INDEX 00 27:32:40
INDEX 01 27:33:20
TRACK 13 AUDIO
TITLE "Peppermint Twist"
PERFORMER "Joey Dee & Starliters"
INDEX 00 29:55:20
INDEX 01 29:56:35
TRACK 14 AUDIO
TITLE "Let Me In"
PERFORMER "The Sensations"
INDEX 00 32:00:22
INDEX 01 32:00:60
TRACK 15 AUDIO
TITLE "Help me Rhonda"
PERFORMER "Jan & Dean"
INDEX 00 35:03:25
INDEX 01 35:04:30
TRACK 16 AUDIO
TITLE "Summer in the City"
PERFORMER "Lovin Spoonful"
INDEX 00 37:57:65
INDEX 01 37:58:65
TRACK 17 AUDIO
TITLE "My Guy"
PERFORMER "mary Wells"
INDEX 00 40:37:42
INDEX 01 40:38:42
TRACK 18 AUDIO
TITLE "The Letter"
PERFORMER "Boxtops"
INDEX 00 43:20:52
INDEX 01 43:21:30
TRACK 19 AUDIO
TITLE "Picturs of Matchstick Men"
PERFORMER "Status Quo"
INDEX 00 45:11:72
INDEX 01 45:12:72
TRACK 20 AUDIO
TITLE "Rock Your Baby"
PERFORMER "George Mc Crae"
INDEX 00 48:21:45
INDEX 01 48:22:45