Subcategories

VA - 41 Original Hits From The Soundtrack Of American Graffiti (1973, DCD 1993) RESTORED

Posted By: Rehabilly
VA - 41 Original Hits From The Soundtrack Of American Graffiti (1973, DCD 1993) RESTORED

VA - American Graffiti Original Soundtrack
2 CD | WV+CUE+LOG or MP3 CBR 320 | 100:40 min | 516 or 220 MB
Classic Rock & Roll of '50s and early '60s shine in this album!

For those of us who grew up in the '70s, this drive-in compilation of '50s and '60s rock and doo-wop, complete with Wolfman Jack introductions, was our introduction to this music. There are 41 jukebox hits here, and every one of them is a classic of its time (although two tracks–"At the Hop" and "She's so Fine" are covers by the revival band Flash Cadillac & the Continental Kids). In his 1973 movie, director George Lucas used the music (and the presence of mysterious deejay Wolfman) as the AM-radio soundtrack to one night in suburban California, 1962. The idea was to capture and sustain an end-of-summer, end-of-innocence mood that's in the air throughout the picture – not as a shortcut to establishing a period (as in Robert Zemeckis' Forrest Gump). There's an awful lot of spontaneous energy in these tunes–from Chuck Berry and Buddy Holly, to the Platters and the Clovers and the Del-Vikings, to the Crests and the Beach Boys – and also just a hint of melancholy that goes down very nicely with a burger, shake, and fries.

~ Jim Emerson, amazon-com

VA - 41 Original Hits From The Soundtrack Of American Graffiti (1973, DCD 1993) RESTORED

The soundtrack to the George Lucas film about teenage life in a small California town in the early '60s was probably the best thing about the movie, featuring several dozen outstanding early Rock & Roll hits. There's nothing terribly obscure here – in fact, most of these were big smashes – but it's a good survey of rock's early days, ranging from superstars like Buddy Holly, Chuck Berry, Fats Domino, and the Beach Boys to great one-shots like the Monotones, the Tempos, and Buster Brown. Drawbacks: Wolfman Jack talks over the intros of a few songs, and there are a couple tracks by early-'70s Sha Na Na-type revivalists Flash Cadillac.

~ Richie Unterberger, all media guide
Disc 1:

01. Bill Haley And The Comets – (We're Gonna) Rock Around The Clock
02. The Crests – Sixteen Candles
03. Del Shannon – Runaway
04. Frankie Lymon & The Teenagers – Why Do Fools Fall In Love
05. Buddy Holly – That'll Be The Day
06. Buster Brown – Fanny Mae
07. Flash Cadillac & The Continental Kids – At The Hop
08. Flash Cadillac & The Continental Kids – She's So Fine
09. The Diamonds – The Stroll
10. The Tempos – See You In September
11. The Beach Boys – Surfin' Safari
12. The Fleetwoods – He's The Great Imposter
13. Chuck Berry – Almost Grown
14. The Platters – Smoke Gets In Your Eyes
15. The Diamonds – Little Darlin'
16. Joey Dee & The Starlighters – Peppermint Twist
17. The Regents – Barbara Ann
18. The Monotones – Book Of Love
19. Buddy Holly – Maybe Baby
20. Lee Dorsey – Ya Ya
21. The Platters – The Great Pretender

Exact Audio Copy V0.99 prebeta 3 from 28. July 2007

EAC extraction logfile from 9. August 2008, 18:24

Various / American Graffiti (Disc 1 of 2)

Used drive : _NEC DVD_RW ND-3500AG Adapter: 0 ID: 2

Read mode : Secure
Utilize accurate stream : Yes
Defeat audio cache : Yes
Make use of C2 pointers : No

Read offset correction : 48
Overread into Lead-In and Lead-Out : No
Fill up missing offset samples with silence : Yes
Delete leading and trailing silent blocks : No
Null samples used in CRC calculations : Yes
Used interface : Installed external ASPI interface

Used output format : Internal WAV Routines
Sample format : 44.100 Hz; 16 Bit; Stereo


TOC of the extracted CD

Track | Start | Length | Start sector | End sector
––––––––––––––––––––––––––––-
1 | 0:00.37 | 2:11.55 | 37 | 9916
2 | 2:12.17 | 2:52.23 | 9917 | 22839
3 | 5:04.40 | 2:19.32 | 22840 | 33296
4 | 7:23.72 | 2:20.33 | 33297 | 43829
5 | 9:44.30 | 2:17.47 | 43830 | 54151
6 | 12:02.02 | 2:58.03 | 54152 | 67504
7 | 15:00.05 | 2:29.60 | 67505 | 78739
8 | 17:29.65 | 2:24.10 | 78740 | 89549
9 | 19:54.00 | 2:29.10 | 89550 | 100734
10 | 22:23.10 | 2:10.40 | 100735 | 110524
11 | 24:33.50 | 2:07.37 | 110525 | 120086
12 | 26:41.12 | 2:13.50 | 120087 | 130111
13 | 28:54.62 | 2:22.73 | 130112 | 140834
14 | 31:17.60 | 2:40.30 | 140835 | 152864
15 | 33:58.15 | 2:10.02 | 152865 | 162616
16 | 36:08.17 | 2:04.25 | 162617 | 171941
17 | 38:12.42 | 2:11.28 | 171942 | 181794
18 | 40:23.70 | 2:20.40 | 181795 | 192334
19 | 42:44.35 | 2:03.60 | 192335 | 201619
20 | 44:48.20 | 2:27.32 | 201620 | 212676
21 | 47:15.52 | 2:38.38 | 212677 | 224564


Range status and errors

Selected range

Filename K:\New Shares\American Graffiti\Various - American Graffiti (Disc 1).wav

Peak level 100.0 %
Range quality 99.9 %
Copy CRC 36DCB4ED
Copy OK

No errors occurred

End of status report



Checking AccurateRip database

Track Ripping Status [Disc ID: 00262fb2-1c0bb215]

1 Accurately Ripped (confidence 5) [69f92b20]
2 Accurately Ripped (confidence 5) [09f62645]
3 Accurately Ripped (confidence 5) [40e80af6]
4 Accurately Ripped (confidence 5) [e455bb41]
5 Accurately Ripped (confidence 5) [cd9b9b42]
6 Accurately Ripped (confidence 5) [1dfc9f05]
7 Accurately Ripped (confidence 5) [ab3b8412]
8 Accurately Ripped (confidence 5) [cbd7b5d9]
9 Accurately Ripped (confidence 5) [40791da4]
10 Accurately Ripped (confidence 5) [381873d8]
11 Accurately Ripped (confidence 5) [3eead014]
12 Accurately Ripped (confidence 5) [db4bbe34]
13 Accurately Ripped (confidence 5) [d2961a53]
14 Accurately Ripped (confidence 5) [3fe58ace]
15 Accurately Ripped (confidence 5) [540db6da]
16 Accurately Ripped (confidence 5) [7900a3d8]
17 Accurately Ripped (confidence 5) [c25c3472]
18 Accurately Ripped (confidence 5) [e9e6ec9a]
19 Accurately Ripped (confidence 5) [e9012864]
20 Accurately Ripped (confidence 5) [13a63368]
21 Accurately Ripped (confidence 4) [9554015d]

_______________________

All Tracks Accurately Ripped.

Disc 2:

01. Fats Domino – Ain't That A Shame
02. Chuck Berry – Johnny B. Goode
03. The Flamingos – I Only Have Eyes For You
04. The Silhouettes – Get A Job
05. The Five Satins – To The Aisle
06. Bobby Freeman – Do You Wanna Dance
07. Buddy Knox – Party Doll
08. The Del-Vikings – Come Go With Me
09. Johnny Burnette – You're Sixteen – You're Beautiful (And You're Mine)
10. The Clovers – Love Potion No. 9
11. The Skyliners – Since I Don't Have You
12. The Big Bopper – Chantilly Lace
13. Mark Dinning – Teen Angel
14. Sonny Till & The Orioles – Crying In The Chapel
15. The Heartbeats – A Thousand Miles Away
16. The Cleftones – Heart And Soul
17. Booker T. & The M.G.'s – Green Onions
18. The Platters – Only You (And You Alone)
19. The Spaniels – Goodnight, Well It's Time To Go
20. The Beach Boys – All Summer Long

Exact Audio Copy V0.99 prebeta 3 from 28. July 2007

EAC extraction logfile from 9. August 2008, 18:35

Soundtrack / American Graffiti Soundtrack (Disc 2)

Used drive : _NEC DVD_RW ND-3500AG Adapter: 0 ID: 2

Read mode : Secure
Utilize accurate stream : Yes
Defeat audio cache : Yes
Make use of C2 pointers : No

Read offset correction : 48
Overread into Lead-In and Lead-Out : No
Fill up missing offset samples with silence : Yes
Delete leading and trailing silent blocks : No
Null samples used in CRC calculations : Yes
Used interface : Installed external ASPI interface

Used output format : Internal WAV Routines
Sample format : 44.100 Hz; 16 Bit; Stereo


TOC of the extracted CD

Track | Start | Length | Start sector | End sector
––––––––––––––––––––––––––––-
1 | 0:00.00 | 2:27.40 | 0 | 11064
2 | 2:27.40 | 2:42.35 | 11065 | 23249
3 | 5:10.00 | 3:24.20 | 23250 | 38569
4 | 8:34.20 | 2:48.52 | 38570 | 51221
5 | 11:22.72 | 2:46.20 | 51222 | 63691
6 | 14:09.17 | 2:35.58 | 63692 | 75374
7 | 16:45.00 | 2:13.72 | 75375 | 85421
8 | 18:58.72 | 2:42.48 | 85422 | 97619
9 | 21:41.45 | 1:58.40 | 97620 | 106509
10 | 23:40.10 | 1:53.65 | 106510 | 115049
11 | 25:34.00 | 2:38.62 | 115050 | 126961
12 | 28:12.62 | 2:22.60 | 126962 | 137671
13 | 30:35.47 | 2:42.40 | 137672 | 149861
14 | 33:18.12 | 3:04.28 | 149862 | 163689
15 | 36:22.40 | 2:27.42 | 163690 | 174756
16 | 38:50.07 | 1:53.58 | 174757 | 183289
17 | 40:43.65 | 2:26.55 | 183290 | 194294
18 | 43:10.45 | 2:42.27 | 194295 | 206471
19 | 45:52.72 | 2:45.68 | 206472 | 218914
20 | 48:38.65 | 2:06.72 | 218915 | 228436


Range status and errors

Selected range

Filename K:\New Shares\American Graffiti\Various - American Graffiti (Disc 2).wav

Peak level 100.0 %
Range quality 100.0 %
Copy CRC D1F1CC29
Copy OK

No errors occurred

End of status report



Checking AccurateRip database

Track Ripping Status [Disc ID: 00256aa0-f10be514]

1 Accurately Ripped (confidence 4) [e9bfcfca]
2 Accurately Ripped (confidence 4) [ed1d7487]
3 Accurately Ripped (confidence 4) [4975ae7e]
4 Accurately Ripped (confidence 4) [e117655b]
5 Accurately Ripped (confidence 4) [8fc816b8]
6 Accurately Ripped (confidence 4) [c825afd3]
7 Accurately Ripped (confidence 4) [75415da3]
8 Accurately Ripped (confidence 4) [aa1a95ad]
9 Accurately Ripped (confidence 4) [06c8cbcd]
10 Accurately Ripped (confidence 4) [2f70f65d]
11 Accurately Ripped (confidence 4) [bca004ef]
12 Accurately Ripped (confidence 4) [05b55f1a]
13 Accurately Ripped (confidence 4) [4b4043be]
14 Accurately Ripped (confidence 4) [d1e37d16]
15 Accurately Ripped (confidence 4) [3b23d980]
16 Accurately Ripped (confidence 4) [a630315f]
17 Accurately Ripped (confidence 4) [edad8459]
18 Accurately Ripped (confidence 4) [818d78ce]
19 Accurately Ripped (confidence 3) [353a8f82]
20 Accurately Ripped (confidence 4) [aa1a0081]

_______________________

All Tracks Accurately Ripped.

Digitally remastered by Bill Inglot & Dan Hersch, Digiprep, Hollywood, CA.

Originally Released: August 11, 1973
CD-Release Date: June 22, 1993
Format: AAD, Original Recording Remastered
Number of Discs: 2
Label: MCA Records
Catalog No.: MCAD2-8001

Fully Repackaged. Huge thanks to KillerRips!

The Right choice*
http://filepost.com/files/emf78675/AMG173MFP694V.part1.rar
http://filepost.com/files/6e91e135/AMG173MFP694V.part2.rar
http://filepost.com/files/fa442b58/AMG173MFP694V.part3.rar

all covers.jpg (10 MB)
http://filepost.com/files/d588fda6/AMG173MFP300C.rar

lossy.mp3
http://filepost.com/files/maafe2a8/AMG173MFP20G.part1.rar
http://filepost.com/files/aa568c8f/AMG173MFP20G.part2.rar


* Repack -> EAC Image, embedded cuesheet & more, foobar2000 ready, etc.
(all CUEs, LOGs and other technical info includes in the internal "CD_Support" archives).


_______________________________