Subcategories

Amy LaVere - Painting Blue (2019)

Posted By: delpotro
Amy LaVere - Painting Blue (2019)

Amy LaVere - Painting Blue (2019)
EAC Rip | FLAC (tracks+log+.cue) - 233 Mb | MP3 CBR 320 kbps - 92 Mb | Scans included | 00:38:39
Folk, Americana, Country Rock, Female Vocal | Label: Nine Mile Records

Memphis-based artist Amy LaVere is releasing her new album Painting Blue and The Big Takeover is excited to be hosting the U.S. premiere in full today. Painting Blue comes out August 16th via Nine Mile Records (Glorietta, David Wax Museum, Carson McHone, Patrick Sweany).

There’s something uniquely fun about Amy LaVere, even when she’s breaking your heart. She is well known among songwriters and critics alike. NPR’s Robert Siegel says she “specializes in lyrics that are more barbed than her sweet soprano prepares you for.” LaVere’s growing catalog of material and steady critical acclaim suggest a first-tier presence on the Americana and indie-folk/punk circuits.

LaVere’s live performances are anything but predictable. She might appear on stage with a full band, sporting a mask and pink wig, or simply be a natural in blue jeans and sandals, but her upright bass and clever song delivery that are constants. She’s performed in venues as wide-ranging as St. Andrew’s Hall in London and Memphis’ famed dive bar Earnestine and Hazel’s. There’s no room she can’t find an audience in and charm it to pieces.

Born in Shreveport, Louisiana, this future bard moved continuously throughout childhood due to her father’s job. She spent notable parts of her life in Canada, Texas, Maryland, Illinois, Ohio, and Michigan. Outside of Detroit and only just entering high school, LaVere formed her first band and began writing and performing. Music fans first discovered this “sweet soprano” on This World is Not My Home in 2005, but it was her *Jim Dickinson*-produced breakout album Anchors & Anvils two years later that put Amy LaVere on the map.

Stranger Me, the 2011 release on Archer Records, was called “the break-up album of the year” by Spin. Paste said it was “among the year’s best,” and it earned a first listen feature from NPR’s All Things Considered. She followed it in 2014 with another critical smash: Runaway’s Diary, a concept album based on her own experience as a teenage runaway, produced by Luther Dickinson (North Mississippi Allstars). American Songwriter called it “boundary pushing… heartfelt, reflective, challenging and consistently compelling.” NPR Music’s Robert Christgau said it was her best yet. Of Hallelujah I’m A Dreamer (Archer Records, 2015) No Depression said simply: “pure bliss.”

Painting Blue, which was produced by her husband Will Sexton, captures perfectly the moment that LaVere is in. Sexton’s masterful production and LaVere’s soft, clarinet-like vocals pour over you, pushing and pulling, stirring and calming. As we’ve come to expect, this record is honest, revealing, and sounds uniquely like no one else.

Lead single “No Battle Hymn” is an instrumentally fast-paced, yet vocally reflective piano-popper. Touches of warm horns and wavering organ notes grace the laid-back, shuffling “You’re Not in Memphis.”

When LaVere murmurs softly, “This heart of mine is a wreck / and it scares me half to death.” on melancholic folk-pop number “Love I’ve Missed”, you believe her and are sad that it’s so.

LaVere delivers a spare, but involving cover of the classic “Shipbuilding”, adding accordion inflection and subdued male harmonies on the chorus sections. Upbeat album-ender “Painting Blue (on Everything)” struts with a pronounced drum beat, and swoons with bittersweet violin strings.
Tracklist:
1. I Don't Wanna Know (04:33)
2. No Battle Hymn (05:16)
3. Girlfriends (04:52)
4. Not in Memphis (04:29)
5. Love I've Missed (04:37)
6. No Room for Baby (04:21)
7. Stick Horse (03:34)
8. Shipbuilding (02:53)
9. Painting Blue (On Everything) (04:02)

Exact Audio Copy V1.3 from 2. September 2016
EAC extraction logfile from 14. September 2019, 11:18

Amy LaVere / Painting Blue

Used drive : hp DVD-RAM GHB0N Adapter: 1 ID: 0

Read mode : Secure
Utilize accurate stream : Yes
Defeat audio cache : Yes
Make use of C2 pointers : No

Read offset correction : 6
Overread into Lead-In and Lead-Out : No
Fill up missing offset samples with silence : Yes
Delete leading and trailing silent blocks : No
Null samples used in CRC calculations : Yes
Used interface : Native Win32 interface for Win NT & 2000
Gap handling : Appended to previous track

Used output format : User Defined Encoder
Selected bitrate : 1024 kBit/s
Quality : High
Add ID3 tag : No
Command line compressor : C:\Program Files (x86)\Exact Audio Copy\Flac\flac.exe
Additional command line options : -8 -V -T "ARTIST=%artist%" -T "TITLE=%title%" -T "ALBUM=%albumtitle%" -T "DATE=%year%" -T "TRACKNUMBER=%tracknr%" -T "GENRE=%genre%" -T "PERFORMER=%albuminterpret%" -T "COMPOSER=%composer%" %haslyrics%–tag-from-file=LYRICS="%lyricsfile%"%haslyrics% -T "ALBUMARTIST=%albumartist%" -T "DISCNUMBER=%cdnumber%" -T "TOTALDISCS=%totalcds%" -T "TOTALTRACKS=%numtracks%" -T "COMMENT=%comment%" %source% -o %dest%


TOC of the extracted CD

Track | Start | Length | Start sector | End sector
––––––––––––––––––––––––––––-
1 | 0:00.00 | 4:33.24 | 0 | 20498
2 | 4:33.24 | 5:16.43 | 20499 | 44241
3 | 9:49.67 | 4:52.42 | 44242 | 66183
4 | 14:42.34 | 4:29.08 | 66184 | 86366
5 | 19:11.42 | 4:37.14 | 86367 | 107155
6 | 23:48.56 | 4:21.14 | 107156 | 126744
7 | 28:09.70 | 3:34.18 | 126745 | 142812
8 | 31:44.13 | 2:53.46 | 142813 | 155833
9 | 34:37.59 | 4:02.04 | 155834 | 173987


Track 1

Filename F:\Working Group\01 I Don't Wanna Know.wav

Pre-gap length 0:00:02.00

Peak level 91.4 %
Extraction speed 1.9 X
Track quality 100.0 %
Test CRC 0209B2EB
Copy CRC 0209B2EB
Track not present in AccurateRip database
Copy OK

Track 2

Filename F:\Working Group\02 No Battle Hymn.wav

Peak level 92.2 %
Extraction speed 2.1 X
Track quality 100.0 %
Test CRC DDCBC08C
Copy CRC DDCBC08C
Track not present in AccurateRip database
Copy OK

Track 3

Filename F:\Working Group\03 Girlfriends.wav

Peak level 91.7 %
Extraction speed 2.4 X
Track quality 100.0 %
Test CRC BCDACF8B
Copy CRC BCDACF8B
Track not present in AccurateRip database
Copy OK

Track 4

Filename F:\Working Group\04 Not in Memphis.wav

Peak level 91.5 %
Extraction speed 2.5 X
Track quality 100.0 %
Test CRC 8928058F
Copy CRC 8928058F
Track not present in AccurateRip database
Copy OK

Track 5

Filename F:\Working Group\05 Love I've Missed.wav

Peak level 91.3 %
Extraction speed 2.1 X
Track quality 99.9 %
Test CRC 74C2B56B
Copy CRC 74C2B56B
Track not present in AccurateRip database
Copy OK

Track 6

Filename F:\Working Group\06 No Room for Baby.wav

Peak level 91.6 %
Extraction speed 2.8 X
Track quality 100.0 %
Test CRC 9A4C1E62
Copy CRC 9A4C1E62
Track not present in AccurateRip database
Copy OK

Track 7

Filename F:\Working Group\07 Stick Horse.wav

Peak level 91.7 %
Extraction speed 2.9 X
Track quality 100.0 %
Test CRC D99CD238
Copy CRC D99CD238
Track not present in AccurateRip database
Copy OK

Track 8

Filename F:\Working Group\08 Ship Building.wav

Peak level 83.5 %
Extraction speed 2.0 X
Track quality 99.9 %
Test CRC FF57AD95
Copy CRC FF57AD95
Track not present in AccurateRip database
Copy OK

Track 9

Filename F:\Working Group\09 Painting Blue On Everything.wav

Peak level 93.0 %
Extraction speed 2.3 X
Track quality 99.9 %
Test CRC 1DDA8597
Copy CRC 1DDA8597
Track not present in AccurateRip database
Copy OK


None of the tracks are present in the AccurateRip database

No errors occurred

End of status report

–– CUETools DB Plugin V2.1.6

[CTDB TOCID: dAMIW6qj6gEPpPTXhMeRQqhhLPg-] disk not present in database
Submit result: dAMIW6qj6gEPpPTXhMeRQqhhLPg- has been uploaded


==== Log checksum 57F2A429DBD9F43D26238BC8BD69AB1A546E0220532874B7057E04915AC10A9A ====

Thanks to the Original ripper twain !