Subcategories

Animal Flag - Void Ripper (2018)

Posted By: delpotro
Animal Flag - Void Ripper (2018)

Animal Flag - Void Ripper (2018)
XLD Rip | FLAC (tracks+log+.cue) | 00:33:38 | 221 Mb
Indie Rock, Alternative Rock | Label: Flower Girl Records, Triple Crown Records

Even though ANIMAL FLAG have been making music since 2009, it’s best to think of the Boston-based band’s new album, VOID RIPPER, as a beginning rather than a continuation. For starters, it’s the first release from the band’s current lineup — but perhaps more importantly, it’s another entry in Animal Flag’s continual reinvention. “I tend to think of music and the music I’m apart of as an album-by-album endeavor,” frontman Matthew Politoski says. “Each one is its own thing that creates a universe.”

Heavily influenced by folk artists like Sufjan Stevens and David Bazan, Politoski’s meditative musical voice gives Void Ripper an introspective aura that counters the heavy rock influences of his bandmates. To that end, the album is all at once intimate and expansive, booming alternative rock often shrouded in dark undertones and the occasional electronic flourish but colored with introspective soul-searching themes.
Tracklist:
1 Morningstar
2 Void Ripper
3 Candace
4 Stray
5 Fair
6 Lord of Pain
7 I Can Hear You Laugh
8 Why
9 Five

X Lossless Decoder version 20170729 (150.3)

XLD extraction logfile from 2018-03-30 17:36:54 -0400

Animal Flag / Void Ripper

Used drive : HL-DT-ST DVDRW GS31N (revision TA17)
Media type : Pressed CD

Ripper mode : XLD Secure Ripper
Disable audio cache : OK for the drive with a cache less than 1375KiB
Make use of C2 pointers : NO
Read offset correction : 667
Max retry count : 100
Gap status : Analyzed, Appended (except HTOA)

TOC of the extracted CD
Track | Start | Length | Start sector | End sector
––––––––––––––––––––––––––––-
1 | 00:00:00 | 00:49:58 | 0 | 3732
2 | 00:49:58 | 03:17:26 | 3733 | 18533
3 | 04:07:09 | 03:04:50 | 18534 | 32383
4 | 07:11:59 | 04:20:24 | 32384 | 51907
5 | 11:32:08 | 06:00:20 | 51908 | 78927
6 | 17:32:28 | 03:23:73 | 78928 | 94225
7 | 20:56:26 | 03:35:57 | 94226 | 110407
8 | 24:32:08 | 03:14:59 | 110408 | 125016
9 | 27:46:67 | 05:51:46 | 125017 | 151387

AccurateRip Summary
Disc not found in AccurateRip DB.

All Tracks
Album gain : -9.28 dB
Peak : 1.000000
Statistics
Read error : 0
Jitter error (maybe fixed) : 0
Retry sector count : 0
Damaged sector count : 0

Track 01
Filename : /Users/lappy/Downloads/Torrents/My Rips/Animal Flag - Void Ripper (2018) [V0 MP3]/01 Morningstar.mp3
/Users/lappy/Downloads/Torrents/My Rips/Animal Flag - Void Ripper (2018) [320 MP3]/01 Morningstar.mp3
/Users/lappy/Downloads/Torrents/My Rips/Animal Flag - Void Ripper (2018) [[FLAC]]/01 Morningstar.flac
Pre-gap length : 00:02:00

Track gain : 0.24 dB
Peak : 0.593536
CRC32 hash (test run) : 5841D58B
CRC32 hash : 5841D58B
CRC32 hash (skip zero) : 8C2D276C
AccurateRip v1 signature : 2531C3A9
AccurateRip v2 signature : 5AB8B270
->Track not present in AccurateRip database.
Statistics
Read error : 0
Jitter error (maybe fixed) : 0
Retry sector count : 0
Damaged sector count : 0

Track 02
Filename : /Users/lappy/Downloads/Torrents/My Rips/Animal Flag - Void Ripper (2018) [V0 MP3]/02 Void Ripper.mp3
/Users/lappy/Downloads/Torrents/My Rips/Animal Flag - Void Ripper (2018) [320 MP3]/02 Void Ripper.mp3
/Users/lappy/Downloads/Torrents/My Rips/Animal Flag - Void Ripper (2018) [[FLAC]]/02 Void Ripper.flac

Track gain : -9.25 dB
Peak : 1.000000
CRC32 hash (test run) : 7A0A3993
CRC32 hash : 7A0A3993
CRC32 hash (skip zero) : 8D859534
AccurateRip v1 signature : 43F494BB
AccurateRip v2 signature : 7E44EB56
->Track not present in AccurateRip database.
Statistics
Read error : 0
Jitter error (maybe fixed) : 0
Retry sector count : 0
Damaged sector count : 0

Track 03
Filename : /Users/lappy/Downloads/Torrents/My Rips/Animal Flag - Void Ripper (2018) [V0 MP3]/03 Candace.mp3
/Users/lappy/Downloads/Torrents/My Rips/Animal Flag - Void Ripper (2018) [320 MP3]/03 Candace.mp3
/Users/lappy/Downloads/Torrents/My Rips/Animal Flag - Void Ripper (2018) [[FLAC]]/03 Candace.flac

Track gain : -9.24 dB
Peak : 1.000000
CRC32 hash (test run) : C263DA7B
CRC32 hash : C263DA7B
CRC32 hash (skip zero) : 708D1A35
AccurateRip v1 signature : 9AFCA973
AccurateRip v2 signature : B90397F0
->Track not present in AccurateRip database.
Statistics
Read error : 0
Jitter error (maybe fixed) : 0
Retry sector count : 0
Damaged sector count : 0

Track 04
Filename : /Users/lappy/Downloads/Torrents/My Rips/Animal Flag - Void Ripper (2018) [V0 MP3]/04 Stray.mp3
/Users/lappy/Downloads/Torrents/My Rips/Animal Flag - Void Ripper (2018) [320 MP3]/04 Stray.mp3
/Users/lappy/Downloads/Torrents/My Rips/Animal Flag - Void Ripper (2018) [[FLAC]]/04 Stray.flac

Track gain : -9.27 dB
Peak : 1.000000
CRC32 hash (test run) : D29B6FC9
CRC32 hash : D29B6FC9
CRC32 hash (skip zero) : 37757AA3
AccurateRip v1 signature : 585C5FD6
AccurateRip v2 signature : 063C4CBF
->Track not present in AccurateRip database.
Statistics
Read error : 0
Jitter error (maybe fixed) : 0
Retry sector count : 0
Damaged sector count : 0

Track 05
Filename : /Users/lappy/Downloads/Torrents/My Rips/Animal Flag - Void Ripper (2018) [V0 MP3]/05 Fair.mp3
/Users/lappy/Downloads/Torrents/My Rips/Animal Flag - Void Ripper (2018) [320 MP3]/05 Fair.mp3
/Users/lappy/Downloads/Torrents/My Rips/Animal Flag - Void Ripper (2018) [[FLAC]]/05 Fair.flac

Track gain : -9.50 dB
Peak : 1.000000
CRC32 hash (test run) : B4395E9A
CRC32 hash : B4395E9A
CRC32 hash (skip zero) : 88E62604
AccurateRip v1 signature : 1EF576E0
AccurateRip v2 signature : 427616AA
->Track not present in AccurateRip database.
Statistics
Read error : 0
Jitter error (maybe fixed) : 0
Retry sector count : 0
Damaged sector count : 0

Track 06
Filename : /Users/lappy/Downloads/Torrents/My Rips/Animal Flag - Void Ripper (2018) [V0 MP3]/06 Lord of Pain.mp3
/Users/lappy/Downloads/Torrents/My Rips/Animal Flag - Void Ripper (2018) [320 MP3]/06 Lord of Pain.mp3
/Users/lappy/Downloads/Torrents/My Rips/Animal Flag - Void Ripper (2018) [[FLAC]]/06 Lord of Pain.flac

Track gain : -1.24 dB
Peak : 0.963776
CRC32 hash (test run) : 0CEC961E
CRC32 hash : 0CEC961E
CRC32 hash (skip zero) : D000AD09
AccurateRip v1 signature : BC40A32D
AccurateRip v2 signature : 727EACEC
->Track not present in AccurateRip database.
Statistics
Read error : 0
Jitter error (maybe fixed) : 0
Retry sector count : 0
Damaged sector count : 0

Track 07
Filename : /Users/lappy/Downloads/Torrents/My Rips/Animal Flag - Void Ripper (2018) [V0 MP3]/07 I Can Hear You Laugh.mp3
/Users/lappy/Downloads/Torrents/My Rips/Animal Flag - Void Ripper (2018) [320 MP3]/07 I Can Hear You Laugh.mp3
/Users/lappy/Downloads/Torrents/My Rips/Animal Flag - Void Ripper (2018) [[FLAC]]/07 I Can Hear You Laugh.flac

Track gain : -9.42 dB
Peak : 1.000000
CRC32 hash (test run) : 686EEF69
CRC32 hash : 686EEF69
CRC32 hash (skip zero) : 3C36C0A1
AccurateRip v1 signature : C7A008AB
AccurateRip v2 signature : 8F6D3BFD
->Track not present in AccurateRip database.
Statistics
Read error : 0
Jitter error (maybe fixed) : 0
Retry sector count : 0
Damaged sector count : 0

Track 08
Filename : /Users/lappy/Downloads/Torrents/My Rips/Animal Flag - Void Ripper (2018) [V0 MP3]/08 Why.mp3
/Users/lappy/Downloads/Torrents/My Rips/Animal Flag - Void Ripper (2018) [320 MP3]/08 Why.mp3
/Users/lappy/Downloads/Torrents/My Rips/Animal Flag - Void Ripper (2018) [[FLAC]]/08 Why.flac

Track gain : -9.20 dB
Peak : 0.999969
CRC32 hash (test run) : FDF385CE
CRC32 hash : FDF385CE
CRC32 hash (skip zero) : 913D0321
AccurateRip v1 signature : 88B87D96
AccurateRip v2 signature : 86C5CF82
->Track not present in AccurateRip database.
Statistics
Read error : 0
Jitter error (maybe fixed) : 0
Retry sector count : 0
Damaged sector count : 0

Track 09
Filename : /Users/lappy/Downloads/Torrents/My Rips/Animal Flag - Void Ripper (2018) [V0 MP3]/09 Five.mp3
/Users/lappy/Downloads/Torrents/My Rips/Animal Flag - Void Ripper (2018) [320 MP3]/09 Five.mp3
/Users/lappy/Downloads/Torrents/My Rips/Animal Flag - Void Ripper (2018) [[FLAC]]/09 Five.flac

Track gain : -9.35 dB
Peak : 1.000000
CRC32 hash (test run) : 2213BE81
CRC32 hash : 2213BE81
CRC32 hash (skip zero) : 0704391B
AccurateRip v1 signature : 1B3B35F1
AccurateRip v2 signature : 9994D48A
->Track not present in AccurateRip database.
Statistics
Read error : 0
Jitter error (maybe fixed) : 0
Retry sector count : 0
Damaged sector count : 0

No errors occurred

End of status report

––-BEGIN XLD SIGNATURE––-
d_Vo4RAYUrujhyy0lQTNRrhLgvO7wr1JitWcPSa6aefVh1FVFqWXpG_hxm_dGPGvPIJY9lqmi5WBRzoIVrxo9mEkz7eguK2TAopn5vW
––-END XLD SIGNATURE––-

Thanks to the Original ripper z12345 !