Subcategories

Antonín Dvořák - The Complete Published Orchestral Works (2013) (17CD Box Set)

Posted By: Domestos
Antonín Dvořák - The Complete Published Orchestral Works (2013) (17CD Box Set)

Antonín Dvořák - The Complete Published Orchestral Works (2013) (17CD Box Set)
EAC Rip | FLAC (image+.cue, log) ~ 4,71 Gb | 18:56:48 | Scans included
Classical orchestra | Label: Naxos - 8.501702

Dvořák was a composer steeped in the national and folk music of his Bohemian homeland, and his orchestral music combines a broad and soulful melodic sweep with the wit of sparkling orchestration. Naxos is proud to present the most comprehensive overview yet of his orchestral output, the complete symphonies complemented by three charismatic concertos and a wealth of folk- and narrative-inspired orchestral works. A number of the shorter, less familiar works have been especially recorded for this anthology.

Track List CD1 (74:37):
Symphony No. 1 in C Minor, B. 9, "The Bells of Zlonice"

1. I. Allegro 00:13:51
2. II. Adagio molto 00:14:53
3. III. Allegretto 00:09:52
4. IV. Finale: Allegretto 00:12:50

10 Legends, Op. 59, B. 122: Nos. 1-5

5. No. 1. Allegretto 00:03:27
6. No. 2. Molto moderato 00:04:02
7. No. 3. Allegro giusto 00:04:17
8. No. 4. Molto maestoso 00:06:07
9. No. 5. Allegro giusto 00:04:34

Slovak Philharmonic Orchestra
Stephen Gunzenhauser

Track List CD2 (73:07):
Symphony No. 2 in B-Flat Major, Op. 4, B. 12

1. I. Allegro con moto 00:15:51
2. II. Poco adagio 00:14:53
3. III. Scherzo: Allegro con brio 00:11:55
4. IV. Finale: Allegro con fuoco 00:10:53

10 Legends, Op. 59, B. 122: Nos. 6-10

5. No. 6. Allegro con moto 00:05:13
6. No. 7. Allegretto grazioso 00:02:46
7. No. 8. Un poco allegretto e grazioso 00:04:00
8. No. 9. Andante con moto 00:02:37
9. No. 10. Andante 00:04:18

Slovak Philharmonic Orchestra
Stephen Gunzenhauser

Track List CD3 (78:01):
Symphony No. 3 in E-Flat Major, Op. 10, B. 34

I. Allegro moderato 00:10:03
2. II. Adagio molto, tempo di Marcia 00:14:58
3. III. Allegro vivace 00:08:34

Symphony No. 6 in D Major, Op. 60, B. 112

4. I. Allegro non tanto 00:12:32
5. II. Adagio 00:12:41
6. III. Scherzo: Furiant: Presto 00:08:02
7. IV. Finale: Allegro con spirito 00:10:39

Slovak Philharmonic Orchestra
Stephen Gunzenhauser

Track List CD4 (75:27):
Symphony No. 4 in D Minor, Op. 13, B. 41

1. I. Allegro 00:11:31
2. II. Andante sostenuto e molto cantabile 00:10:53
3. III. Scherzo: Allegro feroce 00:06:29
4. IV. Finale: Allegro con brio 00:09:29

Symphony No. 8 in G Major, Op. 88, B. 163

5. I. Allegro con brio 00:10:23
6. II. Adagio 00:10:40
7. III. Allegretto grazioso - Molto vivace 00:05:44
8. IV. Allegro, ma non troppo 00:09:55

Slovak Philharmonic Orchestra
Stephen Gunzenhauser

Track List CD5 (76:06):
Symphony No. 5 in F Major, Op. 76, B. 54

1. I. Allegro, ma non troppo 00:12:38
2. II. Andante con moto 00:06:41
3. III. Andante con moto, quasi l'istesso tempo - Allegro Scherzando 00:07:44
4. IV. Finale: Allegro molto 00:12:16

Symphony No. 7 in D Minor, Op. 70, B. 141

5. I. Allegro maestoso 00:10:25
6. II. Poco adagio 00:08:59
7. III. Scherzo: Vivace - Poco meno mosso 00:07:47
8. IV. Finale: Allegro 00:09:03

Slovak Philharmonic Orchestra
Stephen Gunzenhauser

Track List CD6 (65:06):
Symphony No. 9 in E Minor, Op. 95, B. 178, "From the New World"

1. I. Adagio 00:11:36
2. II. Largo 00:11:58
3. III. Molto vivace 00:08:07
4. IV. Allegro con fuoco 00:11:00

Symphonic Variations, Op. 78, B. 70

5. Symphonic Variations, Op. 78, B. 70 00:22:05

Slovak Philharmonic Orchestra
Stephen Gunzenhauser

Track List CD7 (61:55):
Piano Concerto in G Minor, Op. 33, B. 63

1. I. Allegro agitato 00:19:27
2. II. Andante sostenuto 00:09:23
3. III. Allegro con fuoco 00:11:34

Jénö Jandó (Piano)
Polish Radio Symphony Orchestra
Antoni Wit

The Water Goblin, Op. 107, B. 195

4. The Water Goblin, Op. 107, B. 195 00:21:16

Polish Radio Symphony Orchestra
Antoni Wit

Track List CD8 (49:00):
Violin Concerto in A Minor, Op. 53, B. 96

1. I. Allegro ma non troppo 00:10:34
2. II. Adagio ma non troppo 00:10:07
3. III. Finale: Allegro giocoso, ma non troppo 00:09:10

Ilya Kaler (Violin)
Polish Radio Symphony Orchestra
Camilla Kolchinsky

Romance in F Minor, Op. 11, B. 39

4. Romance in F Minor, Op. 11, B. 39 00:12:51

Ilya Kaler (Violin)
Polish Radio Symphony Orchestra
Camilla Kolchinsky

Mazurek, Op. 49, B. 90

5. Mazurek, Op. 49, B. 90 00:06:15

Alexander Trostiansky (Violin)
Russian Philharmonic Orchestra
Dmitry Yablonsky

Track List CD9 (54:49):
Cello Concerto in B Minor, Op. 104, B. 191

1. I. Allegro 00:16:11
2. II. Adagio ma non troppo 00:12:30
3. III. Finale: Allegro moderato - Andante - Allegro vivo 00:13:40

Maria Kliegel (Cello)
Royal Philharmonic Orchestra
Michael Halász

Klid (Silent Woods), Op. 68, No. 5, B. 182

4. Klid (Silent Woods), Op. 68, No. 5, B. 182 00:06:05

Dmitry Yablonsky (Cello)
Russian Philharmonic Orchestra
Felix Korobov

Rondo in G Minor, Op. 94, B. 181

5. Rondo in G Minor, Op. 94, B. 181 00:06:17

Dmitry Yablonsky (Cello)
Russian Philharmonic Orchestra
Felix Korobov

Track List CD10 (74:25):
Slavonic Dances, Series 1, Op. 46, B. 83

1. No. 1 in C Major 00:04:08
2. No. 2 in E Minor 00:05:16
3. No. 3 in A - Flat Major 00:04:39
4. No. 4 in F Major 00:07:23
5. No. 5 in A Major 00:03:23
6. No. 6 in D Major 00:06:27
7. No. 7 in C Minor 00:03:44
8. No. 8 in G Minor 00:04:34

Slavonic Dances, Series 2, Op. 72, B. 147

9. No. 1 in B Major 00:04:33
10. No. 2 in E Minor 00:05:29
11. No. 3 in F Major 00:03:21
12. No. 4 in D - Flat Major 00:05:42
13. No. 5 in B - Flat Minor 00:02:46
14. No. 6 in B - Flat Major 00:04:03
15. No. 7 in C Major 00:03:14
16. No. 8 in A - Flat Major 00:06:37

Slovak Philharmonic Orchestra
Zdenek Kosler

Track List CD11 (55:58):
Rhapsody in A Minor, Op. 14, B. 44

1. Rhapsody in A Minor, Op. 14, B. 44 00:17:30

Slovak Philharmonic Orchestra
Libor Pesek

3 Slavonic Rhapsodies, Op. 45, B. 86

2. No. 1 in D Major 00:12:22
3. No. 2 in G Minor 00:12:06
4. No. 3 in A - Flat Major 00:13:45

Slovak Philharmonic Orchestra
Zdenek Kosler

Track List CD12 (56:58):
The Noon Witch, Op. 108, B. 196

1. The Noon Witch, Op. 108, B. 196 00:13:01

The Golden Spinning-Wheel, Op. 109, B. 197

2. The Golden Spinning - Wheel, Op. 109, B. 197 00:24:46

The Wild Dove, Op. 110, B. 198

3. The Wild Dove, Op. 110, B. 198 00:19:18

Polish Radio Symphony Orchestra
Stephen Gunzenhauser

Track List CD13 (69:23):
Serenade in E Major, Op. 22, B. 52
1. I. Moderato 00:04:12
2. II. Tempo di valse 00:07:15
3. III. Scherzo: Vivace 00:06:35
4. IV. Larghetto 00:06:48
5. V. Finale: Allegro vivace 00:05:46

Capella Istropolitana
Jaroslav Krcek

Serenade in D Minor, Op. 44, B. 77

6. I. Moderato, quasi marcia 00:03:52
7. II. Minuetto 00:05:39
8. III. Andante con moto 00:08:17
9. IV. Allegro molto 00:05:42

Oslo Philharmonic Wind Soloists

Nocturne in B Major, Op. 40, B. 47

10. Nocturne in B Major, Op. 40, B. 47 00:04:41

Russian Philharmonic Orchestra
Dmitry Yablonsky

Prague Waltzes, B. 99

11. Prague Waltzes, B. 99 00:08:41

Russian Philharmonic Orchestra
Dmitry Yablonsky

Polka in B-Flat Major, Op. 53a, No. 1, B. 114, "For Prague Students"

12. Polka in B - Flat Major, Op. 53a, No. 1, B. 114, "For Prague Students" 00:01:58

Russian Philharmonic Orchestra
Dmitry Yablonsky

Track List CD14 (73:00):
7 Pieces (Interludes) for Small Orchestra, B. 15

1. No. 1. Capriccio (Allegro risoluto) 00:03:41
2. No. 2. (Andante sostenuto) 00:02:22
3. No. 3. Con molto espressione 00:04:22
4. No. 4. Allegro con brio 00:02:35
5. No. 5. (Allegro assai) 00:03:04
6. No. 6. Serenata (Andantino con moto) 00:03:26
7. No. 7. Allegro animato 00:03:46

Russian Philharmonic Orchestra
Dmitry Yablonsky

Czech Suite, Op. 39, B. 93

8. I. Preludium: Allegro moderato 00:03:57
9. II. Polka: Allegretto grazioso 00:04:50
10. III. Minuetto: Allegro giusto 00:04:36
11. IV. Romance: Andante con moto 00:04:31
12. V. Finale: Presto 00:05:18

Polish Radio Symphony Orchestra
Antoni Wit

Suite in A Major, Op. 98b, B. 190, "American"

13. I. Andante con moto 00:03:57
14. II. Allegro 00:03:09
15. III. Moderato (Alla Polacca) 00:03:17
16. IV. Andante 00:03:12
17. V. Allegro 00:02:58

Russian Philharmonic Orchestra
Dmitry Yablonsky

Polonaise in E-Flat Major, B. 100

18. Polonaise in E - Flat Major, B. 100 00:05:00

Russian Philharmonic Orchestra
Dmitry Yablonsky

Festival March, Op. 54, B. 88

19. Festival March, Op. 54, B. 88 00:04:56

Polish Radio Symphony Orchestra
Antoni Wit

Track List CD15 (70:53):
King and Charcoal Burner, B. 21: Overture

1. King and Charcoal Burner, B. 21: Overture 00:09:04

The Jacobin, Op. 84, B. 200 (excerpts)

2. Act I: Prelude 00:01:15
3. Act II: Prelude 00:02:59
4. Act III: Ballet Music 00:06:29

Cert a Kaca (Kate and the Devil), Op. 112, B. 201 (excerpts)

5. Overture 00:08:44
6. Act II: Prelude 00:03:41
7. Act II: Infernal Dance 00:04:52
8. Act III: Prelude 00:04:17

Rusalka, Op. 114, B. 203 (excerpts)

9. Overture 00:04:13
10. Act II: Polonaise 00:04:53

Dimitrij, Op. 64, B. 127: Overture

11. Dimitrij, Op. 64, B. 127: Overture 00:13:01

Armida, Op. 115, B. 206: Overture

12. Armida, Op. 115, B. 206: Overture 00:06:11

USSR State Symphony Orchestra
Robert Stankovsky

Track List CD16 (56:20):
Vanda Overture, Op. 25, B. 97

1. Vanda Overture, Op. 25, B. 97 00:08:54

In Nature's Realm, Op. 91, B. 168

2. In Nature's Realm, Op. 91, B. 168 00:14:12

Carnival, Op. 92, B. 169

3. Carnival, Op. 92, B. 169 00:09:27
Othello, Op. 93, B. 174

4. Othello, Op. 93, B. 174 00:14:40

Domov muj (My Homeland), Op. 62, B. 125a

5. Domov muj (My Homeland), Op. 62, B. 125a 00:09:16

BBC Philharmonic Orchestra
Stephen Gunzenhauser

Track List CD17 (71:38):
Hussite Overture, Op. 67, B. 132

1. Hussite Overture, Op. 67, B. 132 00:14:18
Selma Sedlak (The Cunning Peasant), Op. 37, B. 67: Overture

Polish Radio Symphony Orchestra
Antoni Wit

2. Selma Sedlak (The Cunning Peasant), Op. 37, B. 67: Overture 00:07:44
Dramatic (Tragic) Overture, B. 16a

Slovak Philharmonic Orchestra
Stephen Gunzenhauser

3. Dramatic (Tragic) Overture, B. 16a 00:13:48
Scherzo capriccioso, Op. 66, B. 131

Slovak Philharmonic Orchestra
Libor Pesek

4. Scherzo capriccioso, Op. 66, B. 131 00:12:55
A Hero's Song, Op. 111, B. 199

Slovak Philharmonic Orchestra
Zdenek Kosler

5. A Hero's Song, Op. 111, B. 199 00:22:34

Polish Radio Symphony Orchestra
Antoni Wit

Antonín Dvořák - The Complete Published Orchestral Works (2013) (17CD Box Set)


Exact Audio Copy V1.3 from 2. September 2016

EAC extraction logfile from 14. November 2017, 14:26

Dvořák / The Complete Published Orchestral Works CD1

Used drive : MATSHITADVD-RAM UJ8E1 Adapter: 1 ID: 0

Read mode : Secure
Utilize accurate stream : Yes
Defeat audio cache : Yes
Make use of C2 pointers : No

Read offset correction : 6
Overread into Lead-In and Lead-Out : No
Fill up missing offset samples with silence : Yes
Delete leading and trailing silent blocks : No
Null samples used in CRC calculations : Yes
Used interface : Native Win32 interface for Win NT & 2000

Used output format : User Defined Encoder
Selected bitrate : 1024 kBit/s
Quality : High
Add ID3 tag : No
Command line compressor : C:\Program Files (x86)\Exact Audio Copy\FLAC\FLAC.EXE
Additional command line options : -6 -V -T "ARTIST=%artist%" -T "TITLE=%title%" -T "ALBUM=%albumtitle%" -T "DATE=%year%" -T "TRACKNUMBER=%tracknr%" -T "GENRE=%genre%" -T "COMMENT=%comment%" -T "BAND=%albuminterpret%" -T "ALBUMARTIST=%albuminterpret%" -T "COMPOSER=%composer%" %haslyrics%–tag-from-file=LYRICS="%lyricsfile%"%haslyrics% -T "DISCNUMBER=%cdnumber%" -T "TOTALDISCS=%totalcds%" -T "TOTALTRACKS=%numtracks%" %hascover%–picture="%coverfile%"%hascover% %source% -o %dest%

TOC of the extracted CD

Track | Start | Length | Start sector | End sector
––––––––––––––––––––––––––––-
1 | 0:00.00 | 13:57.00 | 0 | 62774
2 | 13:57.00 | 14:57.71 | 62775 | 130120
3 | 28:54.71 | 9:56.06 | 130121 | 174826
4 | 38:51.02 | 12:59.69 | 174827 | 233320
5 | 51:50.71 | 3:32.12 | 233321 | 249232
6 | 55:23.08 | 4:06.61 | 249233 | 267743
7 | 59:29.69 | 4:21.06 | 267744 | 287324
8 | 63:51.00 | 6:12.00 | 287325 | 315224
9 | 70:03.00 | 4:37.33 | 315225 | 336032

Range status and errors

Selected range

Filename C:\Users\Usuario\Desktop\Dvořák - The Complete Published Orchestral Works CD1.wav

Peak level 98.5 %
Extraction speed 5.3 X
Range quality 100.0 %
Test CRC 58916DAA
Copy CRC 58916DAA
Copy OK

No errors occurred

AccurateRip summary

Track 1 accurately ripped (confidence 2) [361C3489] (AR v2)
Track 2 accurately ripped (confidence 2) [D9C9A76C] (AR v2)
Track 3 accurately ripped (confidence 2) [C54FC148] (AR v2)
Track 4 accurately ripped (confidence 2) [19D779A4] (AR v2)
Track 5 accurately ripped (confidence 2) [707E3F41] (AR v2)
Track 6 accurately ripped (confidence 2) [018CF5AE] (AR v2)
Track 7 accurately ripped (confidence 2) [4D6AD715] (AR v2)
Track 8 accurately ripped (confidence 2) [25B3EE42] (AR v2)
Track 9 accurately ripped (confidence 2) [9C4DCE5B] (AR v2)

All tracks accurately ripped

End of status report

–– CUETools DB Plugin V2.1.6

[CTDB TOCID: .Nis9AK7ajfSAs4D2YtpfEOMqXw-] found
Submit result: .Nis9AK7ajfSAs4D2YtpfEOMqXw- has been confirmed
Track | CTDB Status
1 | (9/9) Accurately ripped
2 | (9/9) Accurately ripped
3 | (9/9) Accurately ripped
4 | (9/9) Accurately ripped
5 | (9/9) Accurately ripped
6 | (9/9) Accurately ripped
7 | (9/9) Accurately ripped
8 | (9/9) Accurately ripped
9 | (9/9) Accurately ripped

==== Log checksum 7B51981E877ECC4B12F492A0B405A09DFF9F8F8055D731A381AE5847C00DCA40 ====

Exact Audio Copy V1.3 from 2. September 2016

EAC extraction logfile from 14. November 2017, 14:58

Dvořák / The Complete Published Orchestral Works CD2

Used drive : MATSHITADVD-RAM UJ8E1 Adapter: 1 ID: 0

Read mode : Secure
Utilize accurate stream : Yes
Defeat audio cache : Yes
Make use of C2 pointers : No

Read offset correction : 6
Overread into Lead-In and Lead-Out : No
Fill up missing offset samples with silence : Yes
Delete leading and trailing silent blocks : No
Null samples used in CRC calculations : Yes
Used interface : Native Win32 interface for Win NT & 2000

Used output format : User Defined Encoder
Selected bitrate : 1024 kBit/s
Quality : High
Add ID3 tag : No
Command line compressor : C:\Program Files (x86)\Exact Audio Copy\FLAC\FLAC.EXE
Additional command line options : -6 -V -T "ARTIST=%artist%" -T "TITLE=%title%" -T "ALBUM=%albumtitle%" -T "DATE=%year%" -T "TRACKNUMBER=%tracknr%" -T "GENRE=%genre%" -T "COMMENT=%comment%" -T "BAND=%albuminterpret%" -T "ALBUMARTIST=%albuminterpret%" -T "COMPOSER=%composer%" %haslyrics%–tag-from-file=LYRICS="%lyricsfile%"%haslyrics% -T "DISCNUMBER=%cdnumber%" -T "TOTALDISCS=%totalcds%" -T "TOTALTRACKS=%numtracks%" %hascover%–picture="%coverfile%"%hascover% %source% -o %dest%

TOC of the extracted CD

Track | Start | Length | Start sector | End sector
––––––––––––––––––––––––––––-
1 | 0:00.00 | 15:57.25 | 0 | 71799
2 | 15:57.25 | 14:57.00 | 71800 | 139074
3 | 30:54.25 | 11:58.00 | 139075 | 192924
4 | 42:52.25 | 11:03.00 | 192925 | 242649
5 | 53:55.25 | 5:17.00 | 242650 | 266424
6 | 59:12.25 | 2:51.02 | 266425 | 279251
7 | 62:03.27 | 4:03.73 | 279252 | 297549
8 | 66:07.25 | 2:41.00 | 297550 | 309624
9 | 68:48.25 | 4:18.60 | 309625 | 329034

Range status and errors

Selected range

Filename C:\Users\Usuario\Desktop\Dvořák - The Complete Published Orchestral Works CD2.wav

Peak level 100.0 %
Extraction speed 5.3 X
Range quality 100.0 %
Test CRC B169C676
Copy CRC B169C676
Copy OK

No errors occurred

AccurateRip summary

Track 1 accurately ripped (confidence 2) [EEDAF98A] (AR v2)
Track 2 accurately ripped (confidence 2) [BA815F6C] (AR v2)
Track 3 accurately ripped (confidence 2) [2C274CC8] (AR v2)
Track 4 accurately ripped (confidence 2) [1ECD2FDB] (AR v2)
Track 5 accurately ripped (confidence 2) [94CE9C6F] (AR v2)
Track 6 accurately ripped (confidence 2) [1F392AC9] (AR v2)
Track 7 accurately ripped (confidence 2) [C546B023] (AR v2)
Track 8 accurately ripped (confidence 2) [D61963AB] (AR v2)
Track 9 accurately ripped (confidence 2) [CD2CA9B4] (AR v2)

All tracks accurately ripped

End of status report

–– CUETools DB Plugin V2.1.6

[CTDB TOCID: .Le1I22eEJ_GE0IWUJclG5Qi62Y-] found
Submit result: .Le1I22eEJ_GE0IWUJclG5Qi62Y- has been confirmed
Track | CTDB Status
1 | (41/41) Accurately ripped
2 | (41/41) Accurately ripped
3 | (40/41) Accurately ripped
4 | (40/41) Accurately ripped
5 | (40/41) Accurately ripped
6 | (39/41) Accurately ripped
7 | (41/41) Accurately ripped
8 | (41/41) Accurately ripped
9 | (41/41) Accurately ripped

==== Log checksum BD62C3C7768D5F45E86561ABA505C1E3D733E7B783CCAF895CEFB847D97F8774 ====

Exact Audio Copy V1.3 from 2. September 2016

EAC extraction logfile from 14. November 2017, 15:31

Dvořák / The Complete Published Orchestral Works CD3

Used drive : MATSHITADVD-RAM UJ8E1 Adapter: 1 ID: 0

Read mode : Secure
Utilize accurate stream : Yes
Defeat audio cache : Yes
Make use of C2 pointers : No

Read offset correction : 6
Overread into Lead-In and Lead-Out : No
Fill up missing offset samples with silence : Yes
Delete leading and trailing silent blocks : No
Null samples used in CRC calculations : Yes
Used interface : Native Win32 interface for Win NT & 2000

Used output format : User Defined Encoder
Selected bitrate : 1024 kBit/s
Quality : High
Add ID3 tag : No
Command line compressor : C:\Program Files (x86)\Exact Audio Copy\FLAC\FLAC.EXE
Additional command line options : -6 -V -T "ARTIST=%artist%" -T "TITLE=%title%" -T "ALBUM=%albumtitle%" -T "DATE=%year%" -T "TRACKNUMBER=%tracknr%" -T "GENRE=%genre%" -T "COMMENT=%comment%" -T "BAND=%albuminterpret%" -T "ALBUMARTIST=%albuminterpret%" -T "COMPOSER=%composer%" %haslyrics%–tag-from-file=LYRICS="%lyricsfile%"%haslyrics% -T "DISCNUMBER=%cdnumber%" -T "TOTALDISCS=%totalcds%" -T "TOTALTRACKS=%numtracks%" %hascover%–picture="%coverfile%"%hascover% %source% -o %dest%

TOC of the extracted CD

Track | Start | Length | Start sector | End sector
––––––––––––––––––––––––––––-
1 | 0:00.00 | 10:06.68 | 0 | 45517
2 | 10:06.68 | 15:01.72 | 45518 | 113164
3 | 25:08.65 | 8:42.68 | 113165 | 152382
4 | 33:51.58 | 12:36.72 | 152383 | 209154
5 | 46:28.55 | 12:45.70 | 209155 | 266599
6 | 59:14.50 | 8:05.73 | 266600 | 303047
7 | 67:20.48 | 10:41.07 | 303048 | 351129

Range status and errors

Selected range

Filename C:\Users\Usuario\Desktop\Dvořák - The Complete Published Orchestral Works CD3.wav

Peak level 96.0 %
Extraction speed 5.2 X
Range quality 100.0 %
Test CRC 3C786161
Copy CRC 3C786161
Copy OK

No errors occurred

AccurateRip summary

Track 1 accurately ripped (confidence 2) [EB2975E3] (AR v2)
Track 2 accurately ripped (confidence 2) [07F028E6] (AR v2)
Track 3 accurately ripped (confidence 2) [949CD874] (AR v2)
Track 4 accurately ripped (confidence 2) [40576050] (AR v2)
Track 5 accurately ripped (confidence 2) [363E5B50] (AR v2)
Track 6 accurately ripped (confidence 2) [49D5F33B] (AR v2)
Track 7 accurately ripped (confidence 2) [D3F6EDA7] (AR v2)

All tracks accurately ripped

End of status report

–– CUETools DB Plugin V2.1.6

[CTDB TOCID: u.NV1wNMSbGHTPT4Q9PpowR3E3s-] found
Submit result: u.NV1wNMSbGHTPT4Q9PpowR3E3s- has been confirmed
Track | CTDB Status
1 | (21/21) Accurately ripped
2 | (20/21) Accurately ripped
3 | (19/21) Accurately ripped
4 | (20/21) Accurately ripped
5 | (20/21) Accurately ripped
6 | (20/21) Accurately ripped
7 | (19/21) Accurately ripped

==== Log checksum A838305665C37A3C4AA501D1DED36243C74B4032402C1C7CACA021309BB7A20D ====

Exact Audio Copy V1.3 from 2. September 2016

EAC extraction logfile from 14. November 2017, 16:04

Dvořák / The Complete Published Orchestral Works CD4

Used drive : MATSHITADVD-RAM UJ8E1 Adapter: 1 ID: 0

Read mode : Secure
Utilize accurate stream : Yes
Defeat audio cache : Yes
Make use of C2 pointers : No

Read offset correction : 6
Overread into Lead-In and Lead-Out : No
Fill up missing offset samples with silence : Yes
Delete leading and trailing silent blocks : No
Null samples used in CRC calculations : Yes
Used interface : Native Win32 interface for Win NT & 2000

Used output format : User Defined Encoder
Selected bitrate : 1024 kBit/s
Quality : High
Add ID3 tag : No
Command line compressor : C:\Program Files (x86)\Exact Audio Copy\FLAC\FLAC.EXE
Additional command line options : -6 -V -T "ARTIST=%artist%" -T "TITLE=%title%" -T "ALBUM=%albumtitle%" -T "DATE=%year%" -T "TRACKNUMBER=%tracknr%" -T "GENRE=%genre%" -T "COMMENT=%comment%" -T "BAND=%albuminterpret%" -T "ALBUMARTIST=%albuminterpret%" -T "COMPOSER=%composer%" %haslyrics%–tag-from-file=LYRICS="%lyricsfile%"%haslyrics% -T "DISCNUMBER=%cdnumber%" -T "TOTALDISCS=%totalcds%" -T "TOTALTRACKS=%numtracks%" %hascover%–picture="%coverfile%"%hascover% %source% -o %dest%

TOC of the extracted CD

Track | Start | Length | Start sector | End sector
––––––––––––––––––––––––––––-
1 | 0:00.00 | 11:34.00 | 0 | 52049
2 | 11:34.00 | 10:55.00 | 52050 | 101174
3 | 22:29.00 | 6:31.00 | 101175 | 130499
4 | 29:00.00 | 9:38.00 | 130500 | 173849
5 | 38:38.00 | 10:25.00 | 173850 | 220724
6 | 49:03.00 | 10:42.00 | 220725 | 268874
7 | 59:45.00 | 5:46.00 | 268875 | 294824
8 | 65:31.00 | 9:56.10 | 294825 | 339534

Range status and errors

Selected range

Filename C:\Users\Usuario\Desktop\Dvořák - The Complete Published Orchestral Works CD4.wav

Peak level 97.7 %
Extraction speed 5.3 X
Range quality 99.9 %
Test CRC 46A0A3CC
Copy CRC 46A0A3CC
Copy OK

No errors occurred

AccurateRip summary

Track 1 accurately ripped (confidence 2) [697B31AC] (AR v2)
Track 2 accurately ripped (confidence 2) [AB943E51] (AR v2)
Track 3 accurately ripped (confidence 2) [3FF2585C] (AR v2)
Track 4 accurately ripped (confidence 2) [DFD1E299] (AR v2)
Track 5 accurately ripped (confidence 2) [94FF1E5B] (AR v2)
Track 6 accurately ripped (confidence 2) [D4A2C7C0] (AR v2)
Track 7 accurately ripped (confidence 2) [E844874C] (AR v2)
Track 8 accurately ripped (confidence 2) [EE7F76DD] (AR v2)

All tracks accurately ripped

End of status report

–– CUETools DB Plugin V2.1.6

[CTDB TOCID: sR526aRrIY1FBxsyfjA6umYyqm8-] found
Submit result: sR526aRrIY1FBxsyfjA6umYyqm8- has been confirmed
Track | CTDB Status
1 | (28/29) Accurately ripped
2 | (29/29) Accurately ripped
3 | (29/29) Accurately ripped
4 | (29/29) Accurately ripped
5 | (29/29) Accurately ripped
6 | (29/29) Accurately ripped
7 | (27/29) Accurately ripped
8 | (26/29) Accurately ripped

==== Log checksum 5773E43D09C2AB765BB1443AFE1345FB76B3196B9406E036F0F619C5E861F1C2 ====

Exact Audio Copy V1.3 from 2. September 2016

EAC extraction logfile from 14. November 2017, 16:36

Dvořák / The Complete Published Orchestral Works CD5

Used drive : MATSHITADVD-RAM UJ8E1 Adapter: 1 ID: 0

Read mode : Secure
Utilize accurate stream : Yes
Defeat audio cache : Yes
Make use of C2 pointers : No

Read offset correction : 6
Overread into Lead-In and Lead-Out : No
Fill up missing offset samples with silence : Yes
Delete leading and trailing silent blocks : No
Null samples used in CRC calculations : Yes
Used interface : Native Win32 interface for Win NT & 2000

Used output format : User Defined Encoder
Selected bitrate : 1024 kBit/s
Quality : High
Add ID3 tag : No
Command line compressor : C:\Program Files (x86)\Exact Audio Copy\FLAC\FLAC.EXE
Additional command line options : -6 -V -T "ARTIST=%artist%" -T "TITLE=%title%" -T "ALBUM=%albumtitle%" -T "DATE=%year%" -T "TRACKNUMBER=%tracknr%" -T "GENRE=%genre%" -T "COMMENT=%comment%" -T "BAND=%albuminterpret%" -T "ALBUMARTIST=%albuminterpret%" -T "COMPOSER=%composer%" %haslyrics%–tag-from-file=LYRICS="%lyricsfile%"%haslyrics% -T "DISCNUMBER=%cdnumber%" -T "TOTALDISCS=%totalcds%" -T "TOTALTRACKS=%numtracks%" %hascover%–picture="%coverfile%"%hascover% %source% -o %dest%

TOC of the extracted CD

Track | Start | Length | Start sector | End sector
––––––––––––––––––––––––––––-
1 | 0:00.00 | 12:41.00 | 0 | 57074
2 | 12:41.00 | 6:41.25 | 57075 | 87174
3 | 19:22.25 | 7:44.50 | 87175 | 122024
4 | 27:07.00 | 12:26.00 | 122025 | 177974
5 | 39:33.00 | 10:29.00 | 177975 | 225149
6 | 50:02.00 | 9:12.00 | 225150 | 266549
7 | 59:14.00 | 7:47.25 | 266550 | 301599
8 | 67:01.25 | 9:04.50 | 301600 | 342449

Range status and errors

Selected range

Filename C:\Users\Usuario\Desktop\Dvořák - The Complete Published Orchestral Works CD5.wav

Peak level 95.5 %
Extraction speed 5.2 X
Range quality 99.9 %
Test CRC ED0FDF61
Copy CRC ED0FDF61
Copy OK

No errors occurred

AccurateRip summary

Track 1 accurately ripped (confidence 2) [1CF977D6] (AR v2)
Track 2 accurately ripped (confidence 2) [5AA964FB] (AR v2)
Track 3 accurately ripped (confidence 2) [BBCBFB8E] (AR v2)
Track 4 accurately ripped (confidence 2) [C1F6E842] (AR v2)
Track 5 accurately ripped (confidence 2) [08B62C6B] (AR v2)
Track 6 accurately ripped (confidence 2) [AC804598] (AR v2)
Track 7 accurately ripped (confidence 2) [14A6FE0C] (AR v2)
Track 8 accurately ripped (confidence 2) [CF4700FD] (AR v2)

All tracks accurately ripped

End of status report

–– CUETools DB Plugin V2.1.6

[CTDB TOCID: elD7FtSq1cYXRij.axb.FARLzP0-] found
Submit result: elD7FtSq1cYXRij.axb.FARLzP0- has been confirmed
Track | CTDB Status
1 | (33/33) Accurately ripped
2 | (33/33) Accurately ripped
3 | (33/33) Accurately ripped
4 | (33/33) Accurately ripped
5 | (32/33) Accurately ripped
6 | (32/33) Accurately ripped
7 | (33/33) Accurately ripped
8 | (33/33) Accurately ripped

==== Log checksum 5AADCD2ECADC21FFA2A2A082CC71A55C993DA1913BE30C41A7C9625F184D503E ====

Exact Audio Copy V1.3 from 2. September 2016

EAC extraction logfile from 14. November 2017, 17:07

Dvořák / The Complete Published Orchestral Works CD6

Used drive : MATSHITADVD-RAM UJ8E1 Adapter: 1 ID: 0

Read mode : Secure
Utilize accurate stream : Yes
Defeat audio cache : Yes
Make use of C2 pointers : No

Read offset correction : 6
Overread into Lead-In and Lead-Out : No
Fill up missing offset samples with silence : Yes
Delete leading and trailing silent blocks : No
Null samples used in CRC calculations : Yes
Used interface : Native Win32 interface for Win NT & 2000

Used output format : User Defined Encoder
Selected bitrate : 1024 kBit/s
Quality : High
Add ID3 tag : No
Command line compressor : C:\Program Files (x86)\Exact Audio Copy\FLAC\FLAC.EXE
Additional command line options : -6 -V -T "ARTIST=%artist%" -T "TITLE=%title%" -T "ALBUM=%albumtitle%" -T "DATE=%year%" -T "TRACKNUMBER=%tracknr%" -T "GENRE=%genre%" -T "COMMENT=%comment%" -T "BAND=%albuminterpret%" -T "ALBUMARTIST=%albuminterpret%" -T "COMPOSER=%composer%" %haslyrics%–tag-from-file=LYRICS="%lyricsfile%"%haslyrics% -T "DISCNUMBER=%cdnumber%" -T "TOTALDISCS=%totalcds%" -T "TOTALTRACKS=%numtracks%" %hascover%–picture="%coverfile%"%hascover% %source% -o %dest%

TOC of the extracted CD

Track | Start | Length | Start sector | End sector
––––––––––––––––––––––––––––-
1 | 0:00.00 | 11:40.00 | 0 | 52499
2 | 11:40.00 | 12:01.00 | 52500 | 106574
3 | 23:41.00 | 8:08.00 | 106575 | 143174
4 | 31:49.00 | 11:11.00 | 143175 | 193499
5 | 43:00.00 | 22:06.00 | 193500 | 292949

Range status and errors

Selected range

Filename C:\Users\Usuario\Desktop\Dvořák - The Complete Published Orchestral Works CD6.wav

Peak level 92.5 %
Extraction speed 4.8 X
Range quality 99.9 %
Test CRC 142E0220
Copy CRC 142E0220
Copy OK

No errors occurred

AccurateRip summary

Track 1 accurately ripped (confidence 2) [4E08B472] (AR v2)
Track 2 accurately ripped (confidence 2) [DB993C24] (AR v2)
Track 3 accurately ripped (confidence 2) [C80C2811] (AR v2)
Track 4 accurately ripped (confidence 2) [C26C1B6F] (AR v2)
Track 5 accurately ripped (confidence 2) [3E0AC38B] (AR v2)

All tracks accurately ripped

End of status report

–– CUETools DB Plugin V2.1.6

[CTDB TOCID: BKdEpDeoJRyXvps4IAywlKXsqOk-] found
Submit result: BKdEpDeoJRyXvps4IAywlKXsqOk- has been confirmed
Track | CTDB Status
1 | ( 82/102) Accurately ripped, or (17/102) differs in 84 samples @07:03:13-07:03:14
2 | (101/102) Accurately ripped
3 | (100/102) Accurately ripped
4 | ( 98/102) Accurately ripped
5 | ( 92/102) Accurately ripped

==== Log checksum 00EB4390A5824F0E4AA5BD018471F1C55CA7F41B36EFBF340588DDD46EC3D26E ====

Exact Audio Copy V1.3 from 2. September 2016

EAC extraction logfile from 14. November 2017, 17:37

Dvořák / The Complete Published Orchestral Works CD7

Used drive : MATSHITADVD-RAM UJ8E1 Adapter: 1 ID: 0

Read mode : Secure
Utilize accurate stream : Yes
Defeat audio cache : Yes
Make use of C2 pointers : No

Read offset correction : 6
Overread into Lead-In and Lead-Out : No
Fill up missing offset samples with silence : Yes
Delete leading and trailing silent blocks : No
Null samples used in CRC calculations : Yes
Used interface : Native Win32 interface for Win NT & 2000

Used output format : User Defined Encoder
Selected bitrate : 1024 kBit/s
Quality : High
Add ID3 tag : No
Command line compressor : C:\Program Files (x86)\Exact Audio Copy\FLAC\FLAC.EXE
Additional command line options : -6 -V -T "ARTIST=%artist%" -T "TITLE=%title%" -T "ALBUM=%albumtitle%" -T "DATE=%year%" -T "TRACKNUMBER=%tracknr%" -T "GENRE=%genre%" -T "COMMENT=%comment%" -T "BAND=%albuminterpret%" -T "ALBUMARTIST=%albuminterpret%" -T "COMPOSER=%composer%" %haslyrics%–tag-from-file=LYRICS="%lyricsfile%"%haslyrics% -T "DISCNUMBER=%cdnumber%" -T "TOTALDISCS=%totalcds%" -T "TOTALTRACKS=%numtracks%" %hascover%–picture="%coverfile%"%hascover% %source% -o %dest%

TOC of the extracted CD

Track | Start | Length | Start sector | End sector
––––––––––––––––––––––––––––-
1 | 0:00.00 | 19:32.25 | 0 | 87924
2 | 19:32.25 | 9:22.37 | 87925 | 130111
3 | 28:54.62 | 11:43.38 | 130112 | 182874
4 | 40:38.25 | 21:16.60 | 182875 | 278634

Range status and errors

Selected range

Filename C:\Users\Usuario\Desktop\Dvořák - The Complete Published Orchestral Works CD7.wav

Peak level 97.7 %
Extraction speed 4.6 X
Range quality 100.0 %
Test CRC C0816C46
Copy CRC C0816C46
Copy OK

No errors occurred

AccurateRip summary

Track 1 accurately ripped (confidence 2) [49E377CF] (AR v2)
Track 2 accurately ripped (confidence 2) [D4C4612E] (AR v2)
Track 3 accurately ripped (confidence 2) [0C6AD41B] (AR v2)
Track 4 accurately ripped (confidence 2) [4CBAFD74] (AR v2)

All tracks accurately ripped

End of status report

–– CUETools DB Plugin V2.1.6

[CTDB TOCID: nPCI6EWjnNmxwHZN8QjYz83XYvA-] found
Submit result: nPCI6EWjnNmxwHZN8QjYz83XYvA- has been confirmed
Track | CTDB Status
1 | (34/36) Accurately ripped
2 | (35/36) Accurately ripped
3 | (34/36) Accurately ripped
4 | (35/36) Accurately ripped

==== Log checksum 06842F164BF8C26C3FD9A29A2B4446D3F8A4D4C9DAE9BC1F1ADDBE8417DED6AF ====

Exact Audio Copy V1.3 from 2. September 2016

EAC extraction logfile from 14. November 2017, 18:03

Dvořák / The Complete Published Orchestral Works CD8

Used drive : MATSHITADVD-RAM UJ8E1 Adapter: 1 ID: 0

Read mode : Secure
Utilize accurate stream : Yes
Defeat audio cache : Yes
Make use of C2 pointers : No

Read offset correction : 6
Overread into Lead-In and Lead-Out : No
Fill up missing offset samples with silence : Yes
Delete leading and trailing silent blocks : No
Null samples used in CRC calculations : Yes
Used interface : Native Win32 interface for Win NT & 2000

Used output format : User Defined Encoder
Selected bitrate : 1024 kBit/s
Quality : High
Add ID3 tag : No
Command line compressor : C:\Program Files (x86)\Exact Audio Copy\FLAC\FLAC.EXE
Additional command line options : -6 -V -T "ARTIST=%artist%" -T "TITLE=%title%" -T "ALBUM=%albumtitle%" -T "DATE=%year%" -T "TRACKNUMBER=%tracknr%" -T "GENRE=%genre%" -T "COMMENT=%comment%" -T "BAND=%albuminterpret%" -T "ALBUMARTIST=%albuminterpret%" -T "COMPOSER=%composer%" %haslyrics%–tag-from-file=LYRICS="%lyricsfile%"%haslyrics% -T "DISCNUMBER=%cdnumber%" -T "TOTALDISCS=%totalcds%" -T "TOTALTRACKS=%numtracks%" %hascover%–picture="%coverfile%"%hascover% %source% -o %dest%

TOC of the extracted CD

Track | Start | Length | Start sector | End sector
––––––––––––––––––––––––––––-
1 | 0:00.00 | 10:32.47 | 0 | 47446
2 | 10:32.47 | 10:10.35 | 47447 | 93231
3 | 20:43.07 | 9:12.48 | 93232 | 134679
4 | 29:55.55 | 12:50.55 | 134680 | 192484
5 | 42:46.35 | 6:11.42 | 192485 | 220351

Range status and errors

Selected range

Filename C:\Users\Usuario\Desktop\Dvořák - The Complete Published Orchestral Works CD8.wav

Peak level 99.9 %
Extraction speed 4.3 X
Range quality 100.0 %
Test CRC 47577031
Copy CRC 47577031
Copy OK

No errors occurred

AccurateRip summary

Track 1 accurately ripped (confidence 2) [BC68B99A] (AR v2)
Track 2 accurately ripped (confidence 2) [99155158] (AR v2)
Track 3 accurately ripped (confidence 2) [45096966] (AR v2)
Track 4 accurately ripped (confidence 2) [C390B7C8] (AR v2)
Track 5 accurately ripped (confidence 2) [9A177AD4] (AR v2)

All tracks accurately ripped

End of status report

–– CUETools DB Plugin V2.1.6

[CTDB TOCID: gNyfuzKeqbstthd9aKW.O.sc8qY-] found
Submit result: gNyfuzKeqbstthd9aKW.O.sc8qY- has been confirmed
Track | CTDB Status
1 | (7/7) Accurately ripped
2 | (7/7) Accurately ripped
3 | (7/7) Accurately ripped
4 | (7/7) Accurately ripped
5 | (7/7) Accurately ripped

==== Log checksum 9259B80EB6FF94224E9F4ADC73BC30AB9A0CF4954F9926F92E6C4884A13405E2 ====

Exact Audio Copy V1.3 from 2. September 2016

EAC extraction logfile from 14. November 2017, 18:31

Dvořák / The Complete Published Orchestral Works CD9

Used drive : MATSHITADVD-RAM UJ8E1 Adapter: 1 ID: 0

Read mode : Secure
Utilize accurate stream : Yes
Defeat audio cache : Yes
Make use of C2 pointers : No

Read offset correction : 6
Overread into Lead-In and Lead-Out : No
Fill up missing offset samples with silence : Yes
Delete leading and trailing silent blocks : No
Null samples used in CRC calculations : Yes
Used interface : Native Win32 interface for Win NT & 2000

Used output format : User Defined Encoder
Selected bitrate : 1024 kBit/s
Quality : High
Add ID3 tag : No
Command line compressor : C:\Program Files (x86)\Exact Audio Copy\FLAC\FLAC.EXE
Additional command line options : -6 -V -T "ARTIST=%artist%" -T "TITLE=%title%" -T "ALBUM=%albumtitle%" -T "DATE=%year%" -T "TRACKNUMBER=%tracknr%" -T "GENRE=%genre%" -T "COMMENT=%comment%" -T "BAND=%albuminterpret%" -T "ALBUMARTIST=%albuminterpret%" -T "COMPOSER=%composer%" %haslyrics%–tag-from-file=LYRICS="%lyricsfile%"%haslyrics% -T "DISCNUMBER=%cdnumber%" -T "TOTALDISCS=%totalcds%" -T "TOTALTRACKS=%numtracks%" %hascover%–picture="%coverfile%"%hascover% %source% -o %dest%

TOC of the extracted CD

Track | Start | Length | Start sector | End sector
––––––––––––––––––––––––––––-
1 | 0:00.00 | 16:13.72 | 0 | 73046
2 | 16:13.72 | 12:26.05 | 73047 | 129001
3 | 28:40.02 | 13:43.53 | 129002 | 190779
4 | 42:23.55 | 6:06.27 | 190780 | 218256
5 | 48:30.07 | 6:12.68 | 218257 | 246224

Range status and errors

Selected range

Filename C:\Users\Usuario\Desktop\Dvořák - The Complete Published Orchestral Works CD9.wav

Peak level 99.9 %
Extraction speed 4.4 X
Range quality 100.0 %
Test CRC B93ECDAF
Copy CRC B93ECDAF
Copy OK

No errors occurred

AccurateRip summary

Track 1 accurately ripped (confidence 2) [742587BA] (AR v2)
Track 2 accurately ripped (confidence 2) [2CA0FC86] (AR v2)
Track 3 accurately ripped (confidence 2) [F6410B92] (AR v2)
Track 4 accurately ripped (confidence 2) [0CA9494B] (AR v2)
Track 5 accurately ripped (confidence 2) [9C909B3E] (AR v2)

All tracks accurately ripped

End of status report

–– CUETools DB Plugin V2.1.6

[CTDB TOCID: Ng30J2eMEh8Faca7xZCAhgl_SVk-] found
Submit result: Ng30J2eMEh8Faca7xZCAhgl_SVk- has been confirmed
Track | CTDB Status
1 | (7/7) Accurately ripped
2 | (7/7) Accurately ripped
3 | (7/7) Accurately ripped
4 | (7/7) Accurately ripped
5 | (7/7) Accurately ripped

==== Log checksum 8B0574B3DF5601F06168710D107078B6A128A6E47855C822FE15A14379815B34 ====

Exact Audio Copy V1.3 from 2. September 2016

EAC extraction logfile from 14. November 2017, 20:03

Dvořák / The Complete Published Orchestral Works CD10

Used drive : MATSHITADVD-RAM UJ8E1 Adapter: 1 ID: 0

Read mode : Secure
Utilize accurate stream : Yes
Defeat audio cache : Yes
Make use of C2 pointers : No

Read offset correction : 6
Overread into Lead-In and Lead-Out : No
Fill up missing offset samples with silence : Yes
Delete leading and trailing silent blocks : No
Null samples used in CRC calculations : Yes
Used interface : Native Win32 interface for Win NT & 2000

Used output format : User Defined Encoder
Selected bitrate : 1024 kBit/s
Quality : High
Add ID3 tag : No
Command line compressor : C:\Program Files (x86)\Exact Audio Copy\FLAC\FLAC.EXE
Additional command line options : -6 -V -T "ARTIST=%artist%" -T "TITLE=%title%" -T "ALBUM=%albumtitle%" -T "DATE=%year%" -T "TRACKNUMBER=%tracknr%" -T "GENRE=%genre%" -T "COMMENT=%comment%" -T "BAND=%albuminterpret%" -T "ALBUMARTIST=%albuminterpret%" -T "COMPOSER=%composer%" %haslyrics%–tag-from-file=LYRICS="%lyricsfile%"%haslyrics% -T "DISCNUMBER=%cdnumber%" -T "TOTALDISCS=%totalcds%" -T "TOTALTRACKS=%numtracks%" %hascover%–picture="%coverfile%"%hascover% %source% -o %dest%

TOC of the extracted CD

Track | Start | Length | Start sector | End sector
––––––––––––––––––––––––––––-
1 | 0:00.00 | 3:48.00 | 0 | 17099
2 | 3:48.00 | 4:44.00 | 17100 | 38399
3 | 8:32.00 | 4:43.00 | 38400 | 59624
4 | 13:15.00 | 6:50.00 | 59625 | 90374
5 | 20:05.00 | 3:26.00 | 90375 | 105824
6 | 23:31.00 | 6:31.00 | 105825 | 135149
7 | 30:02.00 | 3:27.00 | 135150 | 150674
8 | 33:29.00 | 4:42.00 | 150675 | 171824
9 | 38:11.00 | 4:37.00 | 171825 | 192599
10 | 42:48.00 | 5:33.00 | 192600 | 217574
11 | 48:21.00 | 3:25.00 | 217575 | 232949
12 | 51:46.00 | 5:46.00 | 232950 | 258899
13 | 57:32.00 | 2:50.00 | 258900 | 271649
14 | 60:22.00 | 4:07.00 | 271650 | 290174
15 | 64:29.00 | 3:18.00 | 290175 | 305024
16 | 67:47.00 | 6:39.00 | 305025 | 334949

Range status and errors

Selected range

Filename C:\Users\Usuario\Desktop\Dvořák - The Complete Published Orchestral Works CD10.wav

Peak level 100.0 %
Extraction speed 5.3 X
Range quality 100.0 %
Test CRC 509090D0
Copy CRC 509090D0
Copy OK

No errors occurred

AccurateRip summary

Track 1 accurately ripped (confidence 2) [E613DBFC] (AR v2)
Track 2 accurately ripped (confidence 2) [A43EB920] (AR v2)
Track 3 accurately ripped (confidence 2) [8F0C2758] (AR v2)
Track 4 accurately ripped (confidence 2) [BC94A522] (AR v2)
Track 5 accurately ripped (confidence 2) [7FCEBC84] (AR v2)
Track 6 accurately ripped (confidence 2) [4CCFB7E3] (AR v2)
Track 7 accurately ripped (confidence 2) [13ABB0B3] (AR v2)
Track 8 accurately ripped (confidence 2) [4658E767] (AR v2)
Track 9 accurately ripped (confidence 2) [DF588B3C] (AR v2)
Track 10 accurately ripped (confidence 2) [2216ACE2] (AR v2)
Track 11 accurately ripped (confidence 2) [73126B42] (AR v2)
Track 12 accurately ripped (confidence 2) [3189EE0F] (AR v2)
Track 13 accurately ripped (confidence 2) [888F6A43] (AR v2)
Track 14 accurately ripped (confidence 2) [50C14237] (AR v2)
Track 15 accurately ripped (confidence 2) [8BFCD1DA] (AR v2)
Track 16 accurately ripped (confidence 2) [B6ED81CC] (AR v2)

All tracks accurately ripped

End of status report

–– CUETools DB Plugin V2.1.6

[CTDB TOCID: 9f_d5nhO7Pu9hDkTvn1ABKB6nrc-] found
Submit result: 9f_d5nhO7Pu9hDkTvn1ABKB6nrc- has been confirmed
Track | CTDB Status
1 | (35/35) Accurately ripped
2 | (35/35) Accurately ripped
3 | (34/35) Accurately ripped
4 | (35/35) Accurately ripped
5 | (35/35) Accurately ripped
6 | (35/35) Accurately ripped
7 | (35/35) Accurately ripped
8 | (35/35) Accurately ripped
9 | (35/35) Accurately ripped
10 | (35/35) Accurately ripped
11 | (35/35) Accurately ripped
12 | (35/35) Accurately ripped
13 | (35/35) Accurately ripped
14 | (35/35) Accurately ripped
15 | (34/35) Accurately ripped
16 | (35/35) Accurately ripped

==== Log checksum 3D6DC5774E593737D16CA727B71C550BB1695D10A0AFAFB329B94AF49DACB4A5 ====

Exact Audio Copy V1.3 from 2. September 2016

EAC extraction logfile from 14. November 2017, 20:32

Dvořák / The Complete Published Orchestral Works CD11

Used drive : MATSHITADVD-RAM UJ8E1 Adapter: 1 ID: 0

Read mode : Secure
Utilize accurate stream : Yes
Defeat audio cache : Yes
Make use of C2 pointers : No

Read offset correction : 6
Overread into Lead-In and Lead-Out : No
Fill up missing offset samples with silence : Yes
Delete leading and trailing silent blocks : No
Null samples used in CRC calculations : Yes
Used interface : Native Win32 interface for Win NT & 2000

Used output format : User Defined Encoder
Selected bitrate : 1024 kBit/s
Quality : High
Add ID3 tag : No
Command line compressor : C:\Program Files (x86)\Exact Audio Copy\FLAC\FLAC.EXE
Additional command line options : -6 -V -T "ARTIST=%artist%" -T "TITLE=%title%" -T "ALBUM=%albumtitle%" -T "DATE=%year%" -T "TRACKNUMBER=%tracknr%" -T "GENRE=%genre%" -T "COMMENT=%comment%" -T "BAND=%albuminterpret%" -T "ALBUMARTIST=%albuminterpret%" -T "COMPOSER=%composer%" %haslyrics%–tag-from-file=LYRICS="%lyricsfile%"%haslyrics% -T "DISCNUMBER=%cdnumber%" -T "TOTALDISCS=%totalcds%" -T "TOTALTRACKS=%numtracks%" %hascover%–picture="%coverfile%"%hascover% %source% -o %dest%

TOC of the extracted CD

Track | Start | Length | Start sector | End sector
––––––––––––––––––––––––––––-
1 | 0:00.00 | 17:37.25 | 0 | 79299
2 | 17:37.25 | 12:30.00 | 79300 | 135549
3 | 30:07.25 | 12:15.00 | 135550 | 190674
4 | 42:22.25 | 13:45.35 | 190675 | 252584

Range status and errors

Selected range

Filename C:\Users\Usuario\Desktop\Dvořák - The Complete Published Orchestral Works CD11.wav

Peak level 98.7 %
Extraction speed 4.4 X
Range quality 99.9 %
Test CRC E3DA6A96
Copy CRC E3DA6A96
Copy OK

No errors occurred

AccurateRip summary

Track 1 accurately ripped (confidence 2) [21877F3E] (AR v2)
Track 2 accurately ripped (confidence 2) [48C3D8C3] (AR v2)
Track 3 accurately ripped (confidence 2) [B77DC3F4] (AR v2)
Track 4 accurately ripped (confidence 2) [4DEACD75] (AR v2)

All tracks accurately ripped

End of status report

–– CUETools DB Plugin V2.1.6

[CTDB TOCID: bbDkBLluN5ZOR_hv_zd4VKCJvec-] found
Submit result: bbDkBLluN5ZOR_hv_zd4VKCJvec- has been confirmed
Track | CTDB Status
1 | (43/43) Accurately ripped
2 | (42/43) Accurately ripped
3 | (43/43) Accurately ripped
4 | (14/43) Accurately ripped, or (27/43) differs in 6 samples @12:19:45
If you are sure that your rip contains errors, you can use CUETools to repair it.

==== Log checksum 519814A438D76B680D80B985194576101D967E618A6683125E72037DF53DEAF6 ====

Exact Audio Copy V1.3 from 2. September 2016

EAC extraction logfile from 14. November 2017, 21:00

Dvořák / The Complete Published Orchestral Works CD12

Used drive : MATSHITADVD-RAM UJ8E1 Adapter: 1 ID: 0

Read mode : Secure
Utilize accurate stream : Yes
Defeat audio cache : Yes
Make use of C2 pointers : No

Read offset correction : 6
Overread into Lead-In and Lead-Out : No
Fill up missing offset samples with silence : Yes
Delete leading and trailing silent blocks : No
Null samples used in CRC calculations : Yes
Used interface : Native Win32 interface for Win NT & 2000

Used output format : User Defined Encoder
Selected bitrate : 1024 kBit/s
Quality : High
Add ID3 tag : No
Command line compressor : C:\Program Files (x86)\Exact Audio Copy\FLAC\FLAC.EXE
Additional command line options : -6 -V -T "ARTIST=%artist%" -T "TITLE=%title%" -T "ALBUM=%albumtitle%" -T "DATE=%year%" -T "TRACKNUMBER=%tracknr%" -T "GENRE=%genre%" -T "COMMENT=%comment%" -T "BAND=%albuminterpret%" -T "ALBUMARTIST=%albuminterpret%" -T "COMPOSER=%composer%" %haslyrics%–tag-from-file=LYRICS="%lyricsfile%"%haslyrics% -T "DISCNUMBER=%cdnumber%" -T "TOTALDISCS=%totalcds%" -T "TOTALTRACKS=%numtracks%" %hascover%–picture="%coverfile%"%hascover% %source% -o %dest%

TOC of the extracted CD

Track | Start | Length | Start sector | End sector
––––––––––––––––––––––––––––-
1 | 0:00.00 | 13:07.25 | 0 | 59049
2 | 13:07.25 | 24:51.00 | 59050 | 170874
3 | 37:58.25 | 19:21.72 | 170875 | 258021

Range status and errors

Selected range

Filename C:\Users\Usuario\Desktop\Dvořák - The Complete Published Orchestral Works CD12.wav

Peak level 95.5 %
Extraction speed 4.5 X
Range quality 100.0 %
Test CRC 2B28E8EE
Copy CRC 2B28E8EE
Copy OK

No errors occurred

AccurateRip summary

Track 1 accurately ripped (confidence 2) [45C24D56] (AR v2)
Track 2 accurately ripped (confidence 2) [1122EDEE] (AR v2)
Track 3 accurately ripped (confidence 2) [131B369F] (AR v2)

All tracks accurately ripped

End of status report

–– CUETools DB Plugin V2.1.6

[CTDB TOCID: wwwaOeYDI1wcNbhR_cgt89xkFZc-] found
Submit result: wwwaOeYDI1wcNbhR_cgt89xkFZc- has been confirmed
Track | CTDB Status
1 | (28/28) Accurately ripped
2 | (28/28) Accurately ripped
3 | (28/28) Accurately ripped

==== Log checksum A3630322BC3AE5826D435187D5BB9B6F01EAB46A1260BAB9050C949C5B50FF06 ====

Exact Audio Copy V1.3 from 2. September 2016

EAC extraction logfile from 14. November 2017, 21:32

Dvořák / The Complete Published Orchestral Works CD13

Used drive : MATSHITADVD-RAM UJ8E1 Adapter: 1 ID: 0

Read mode : Secure
Utilize accurate stream : Yes
Defeat audio cache : Yes
Make use of C2 pointers : No

Read offset correction : 6
Overread into Lead-In and Lead-Out : No
Fill up missing offset samples with silence : Yes
Delete leading and trailing silent blocks : No
Null samples used in CRC calculations : Yes
Used interface : Native Win32 interface for Win NT & 2000

Used output format : User Defined Encoder
Selected bitrate : 1024 kBit/s
Quality : High
Add ID3 tag : No
Command line compressor : C:\Program Files (x86)\Exact Audio Copy\FLAC\FLAC.EXE
Additional command line options : -6 -V -T "ARTIST=%artist%" -T "TITLE=%title%" -T "ALBUM=%albumtitle%" -T "DATE=%year%" -T "TRACKNUMBER=%tracknr%" -T "GENRE=%genre%" -T "COMMENT=%comment%" -T "BAND=%albuminterpret%" -T "ALBUMARTIST=%albuminterpret%" -T "COMPOSER=%composer%" %haslyrics%–tag-from-file=LYRICS="%lyricsfile%"%haslyrics% -T "DISCNUMBER=%cdnumber%" -T "TOTALDISCS=%totalcds%" -T "TOTALTRACKS=%numtracks%" %hascover%–picture="%coverfile%"%hascover% %source% -o %dest%

TOC of the extracted CD

Track | Start | Length | Start sector | End sector
––––––––––––––––––––––––––––-
1 | 0:00.00 | 4:13.05 | 0 | 18979
2 | 4:13.05 | 7:13.12 | 18980 | 51466
3 | 11:26.17 | 6:36.63 | 51467 | 81229
4 | 18:03.05 | 6:48.02 | 81230 | 111831
5 | 24:51.07 | 5:49.33 | 111832 | 138039
6 | 30:40.40 | 3:52.30 | 138040 | 155469
7 | 34:32.70 | 5:39.30 | 155470 | 180924
8 | 40:12.25 | 8:16.70 | 180925 | 218194
9 | 48:29.20 | 5:47.42 | 218195 | 244261
10 | 54:16.62 | 4:37.03 | 244262 | 265039
11 | 58:53.65 | 8:38.72 | 265040 | 303961
12 | 67:32.62 | 1:57.15 | 303962 | 312751

Range status and errors

Selected range

Filename C:\Users\Usuario\Desktop\Dvořák - The Complete Published Orchestral Works CD13.wav

Peak level 99.9 %
Extraction speed 5.2 X
Range quality 100.0 %
Test CRC 2126CACE
Copy CRC 2126CACE
Copy OK

No errors occurred

AccurateRip summary

Track 1 accurately ripped (confidence 2) [822592DD] (AR v2)
Track 2 accurately ripped (confidence 2) [A8E52521] (AR v2)
Track 3 accurately ripped (confidence 2) [30D82534] (AR v2)
Track 4 accurately ripped (confidence 2) [23E8AE2E] (AR v2)
Track 5 accurately ripped (confidence 2) [66A785DF] (AR v2)
Track 6 accurately ripped (confidence 2) [57ABBE95] (AR v2)
Track 7 accurately ripped (confidence 2) [987F2B88] (AR v2)
Track 8 accurately ripped (confidence 2) [909159FF] (AR v2)
Track 9 accurately ripped (confidence 2) [CE72EA17] (AR v2)
Track 10 accurately ripped (confidence 2) [70C7B722] (AR v2)
Track 11 accurately ripped (confidence 2) [80629148] (AR v2)
Track 12 accurately ripped (confidence 2) [C5C855B8] (AR v2)

All tracks accurately ripped

End of status report

–– CUETools DB Plugin V2.1.6

[CTDB TOCID: Wpgw28ZsXwIGQA20_hZNyuvkrMM-] found
Submit result: Wpgw28ZsXwIGQA20_hZNyuvkrMM- has been confirmed
Track | CTDB Status
1 | (7/7) Accurately ripped
2 | (7/7) Accurately ripped
3 | (7/7) Accurately ripped
4 | (7/7) Accurately ripped
5 | (7/7) Accurately ripped
6 | (7/7) Accurately ripped
7 | (7/7) Accurately ripped
8 | (7/7) Accurately ripped
9 | (7/7) Accurately ripped
10 | (7/7) Accurately ripped
11 | (7/7) Accurately ripped
12 | (7/7) Accurately ripped

==== Log checksum 964C73B887EAEDE64A7B8E19C4BAD0E1C38FAC70091AE33556E912E610BA2E0C ====

Exact Audio Copy V1.3 from 2. September 2016

EAC extraction logfile from 14. November 2017, 22:15

Dvořák / The Complete Published Orchestral Works CD14

Used drive : MATSHITADVD-RAM UJ8E1 Adapter: 1 ID: 0

Read mode : Secure
Utilize accurate stream : Yes
Defeat audio cache : Yes
Make use of C2 pointers : No

Read offset correction : 6
Overread into Lead-In and Lead-Out : No
Fill up missing offset samples with silence : Yes
Delete leading and trailing silent blocks : No
Null samples used in CRC calculations : Yes
Used interface : Native Win32 interface for Win NT & 2000

Used output format : User Defined Encoder
Selected bitrate : 1024 kBit/s
Quality : High
Add ID3 tag : No
Command line compressor : C:\Program Files (x86)\Exact Audio Copy\FLAC\FLAC.EXE
Additional command line options : -6 -V -T "ARTIST=%artist%" -T "TITLE=%title%" -T "ALBUM=%albumtitle%" -T "DATE=%year%" -T "TRACKNUMBER=%tracknr%" -T "GENRE=%genre%" -T "COMMENT=%comment%" -T "BAND=%albuminterpret%" -T "ALBUMARTIST=%albuminterpret%" -T "COMPOSER=%composer%" %haslyrics%–tag-from-file=LYRICS="%lyricsfile%"%haslyrics% -T "DISCNUMBER=%cdnumber%" -T "TOTALDISCS=%totalcds%" -T "TOTALTRACKS=%numtracks%" %hascover%–picture="%coverfile%"%hascover% %source% -o %dest%

TOC of the extracted CD

Track | Start | Length | Start sector | End sector
––––––––––––––––––––––––––––-
1 | 0:00.00 | 3:40.42 | 0 | 16541
2 | 3:40.42 | 2:23.30 | 16542 | 27296
3 | 6:03.72 | 4:21.55 | 27297 | 46926
4 | 10:25.52 | 2:35.13 | 46927 | 58564
5 | 13:00.65 | 3:05.55 | 58565 | 72494
6 | 16:06.45 | 3:26.50 | 72495 | 87994
7 | 19:33.20 | 3:47.60 | 87995 | 105079
8 | 23:21.05 | 3:55.67 | 105080 | 122771
9 | 27:16.72 | 4:50.08 | 122772 | 144529
10 | 32:07.05 | 4:35.67 | 144530 | 165221
11 | 36:42.72 | 4:32.03 | 165222 | 185624
12 | 41:15.00 | 5:20.67 | 185625 | 209691
13 | 46:35.67 | 3:53.08 | 209692 | 227174
14 | 50:29.00 | 3:09.20 | 227175 | 241369
15 | 53:38.20 | 3:17.07 | 241370 | 256151
16 | 56:55.27 | 3:12.70 | 256152 | 270621
17 | 60:08.22 | 3:02.58 | 270622 | 284329
18 | 63:11.05 | 4:59.47 | 284330 | 306801
19 | 68:10.52 | 4:53.25 | 306802 | 328801

Range status and errors

Selected range

Filename C:\Users\Usuario\Desktop\Dvořák - The Complete Published Orchestral Works CD14.wav

Peak level 99.9 %
Extraction speed 4.0 X
Range quality 99.9 %
Test CRC 2D0B8727
Copy CRC 2D0B8727
Copy OK

No errors occurred

AccurateRip summary

Track 1 accurately ripped (confidence 2) [0F099FA9] (AR v2)
Track 2 accurately ripped (confidence 2) [DDAE7ABF] (AR v2)
Track 3 accurately ripped (confidence 2) [459E2DE6] (AR v2)
Track 4 accurately ripped (confidence 2) [0E72263E] (AR v2)
Track 5 accurately ripped (confidence 2) [F66F8E33] (AR v2)
Track 6 accurately ripped (confidence 2) [00F47E42] (AR v2)
Track 7 accurately ripped (confidence 2) [ED9EF214] (AR v2)
Track 8 accurately ripped (confidence 2) [DC3E0C54] (AR v2)
Track 9 accurately ripped (confidence 2) [ACCFD4F2] (AR v2)
Track 10 accurately ripped (confidence 2) [55E79B84] (AR v2)
Track 11 accurately ripped (confidence 2) [2AF92223] (AR v2)
Track 12 accurately ripped (confidence 2) [834F1DEF] (AR v2)
Track 13 accurately ripped (confidence 2) [66A64602] (AR v2)
Track 14 accurately ripped (confidence 2) [50059B1F] (AR v2)
Track 15 accurately ripped (confidence 2) [2A41AC7C] (AR v2)
Track 16 accurately ripped (confidence 2) [4B40EA63] (AR v2)
Track 17 accurately ripped (confidence 2) [8CD58166] (AR v2)
Track 18 accurately ripped (confidence 2) [FC94CA94] (AR v2)
Track 19 accurately ripped (confidence 2) [E74603B8] (AR v2)

All tracks accurately ripped

End of status report

–– CUETools DB Plugin V2.1.6

[CTDB TOCID: 3IOH3t8gJBCKysFN.qHMrWkDLLg-] found
Submit result: 3IOH3t8gJBCKysFN.qHMrWkDLLg- has been confirmed
Track | CTDB Status
1 | (7/7) Accurately ripped
2 | (7/7) Accurately ripped
3 | (7/7) Accurately ripped
4 | (7/7) Accurately ripped
5 | (7/7) Accurately ripped
6 | (7/7) Accurately ripped
7 | (7/7) Accurately ripped
8 | (7/7) Accurately ripped
9 | (7/7) Accurately ripped
10 | (7/7) Accurately ripped
11 | (7/7) Accurately ripped
12 | (7/7) Accurately ripped
13 | (7/7) Accurately ripped
14 | (7/7) Accurately ripped
15 | (7/7) Accurately ripped
16 | (7/7) Accurately ripped
17 | (7/7) Accurately ripped
18 | (7/7) Accurately ripped
19 | (7/7) Accurately ripped

==== Log checksum A6C20E63E2C65A841DC68C9DEE4A68AA6FF7DFD86183102A9075B487BBA2A5A0 ====

Exact Audio Copy V1.3 from 2. September 2016

EAC extraction logfile from 14. November 2017, 22:48

Dvořák / The Complete Published Orchestral Works CD15

Used drive : MATSHITADVD-RAM UJ8E1 Adapter: 1 ID: 0

Read mode : Secure
Utilize accurate stream : Yes
Defeat audio cache : Yes
Make use of C2 pointers : No

Read offset correction : 6
Overread into Lead-In and Lead-Out : No
Fill up missing offset samples with silence : Yes
Delete leading and trailing silent blocks : No
Null samples used in CRC calculations : Yes
Used interface : Native Win32 interface for Win NT & 2000

Used output format : User Defined Encoder
Selected bitrate : 1024 kBit/s
Quality : High
Add ID3 tag : No
Command line compressor : C:\Program Files (x86)\Exact Audio Copy\FLAC\FLAC.EXE
Additional command line options : -6 -V -T "ARTIST=%artist%" -T "TITLE=%title%" -T "ALBUM=%albumtitle%" -T "DATE=%year%" -T "TRACKNUMBER=%tracknr%" -T "GENRE=%genre%" -T "COMMENT=%comment%" -T "BAND=%albuminterpret%" -T "ALBUMARTIST=%albuminterpret%" -T "COMPOSER=%composer%" %haslyrics%–tag-from-file=LYRICS="%lyricsfile%"%haslyrics% -T "DISCNUMBER=%cdnumber%" -T "TOTALDISCS=%totalcds%" -T "TOTALTRACKS=%numtracks%" %hascover%–picture="%coverfile%"%hascover% %source% -o %dest%

TOC of the extracted CD

Track | Start | Length | Start sector | End sector
––––––––––––––––––––––––––––-
1 | 0:00.00 | 9:10.00 | 0 | 41249
2 | 9:10.00 | 1:21.00 | 41250 | 47324
3 | 10:31.00 | 3:05.00 | 47325 | 61199
4 | 13:36.00 | 6:35.00 | 61200 | 90824
5 | 20:11.00 | 8:51.00 | 90825 | 130649
6 | 29:02.00 | 3:47.00 | 130650 | 147674
7 | 32:49.00 | 4:59.00 | 147675 | 170099
8 | 37:48.00 | 4:24.00 | 170100 | 189899
9 | 42:12.00 | 4:20.00 | 189900 | 209399
10 | 46:32.00 | 4:59.00 | 209400 | 231824
11 | 51:31.00 | 13:07.00 | 231825 | 290849
12 | 64:38.00 | 6:15.00 | 290850 | 318974

Range status and errors

Selected range

Filename C:\Users\Usuario\Desktop\Dvořák - The Complete Published Orchestral Works CD15.wav

Peak level 99.2 %
Extraction speed 5.2 X
Range quality 100.0 %
Test CRC 38039CC1
Copy CRC 38039CC1
Copy OK

No errors occurred

AccurateRip summary

Track 1 accurately ripped (confidence 2) [F7790659] (AR v2)
Track 2 accurately ripped (confidence 2) [61629A8B] (AR v2)
Track 3 accurately ripped (confidence 2) [D6859F71] (AR v2)
Track 4 accurately ripped (confidence 2) [F87481A2] (AR v2)
Track 5 accurately ripped (confidence 2) [F02152C1] (AR v2)
Track 6 accurately ripped (confidence 2) [37EBB290] (AR v2)
Track 7 accurately ripped (confidence 2) [C3D1C41E] (AR v2)
Track 8 accurately ripped (confidence 2) [0A118A6E] (AR v2)
Track 9 accurately ripped (confidence 2) [68786EA8] (AR v2)
Track 10 accurately ripped (confidence 2) [B3B4D30D] (AR v2)
Track 11 accurately ripped (confidence 2) [3C24A66E] (AR v2)
Track 12 accurately ripped (confidence 2) [517FDE2C] (AR v2)

All tracks accurately ripped

End of status report

–– CUETools DB Plugin V2.1.6

[CTDB TOCID: 4gNgVS9MBMpAezOLb08PL0.WT4k-] found
Submit result: 4gNgVS9MBMpAezOLb08PL0.WT4k- has been confirmed
Track | CTDB Status
1 | (11/11) Accurately ripped
2 | (11/11) Accurately ripped
3 | (11/11) Accurately ripped
4 | (11/11) Accurately ripped
5 | (11/11) Accurately ripped
6 | (11/11) Accurately ripped
7 | (11/11) Accurately ripped
8 | (11/11) Accurately ripped
9 | (11/11) Accurately ripped
10 | (11/11) Accurately ripped
11 | (11/11) Accurately ripped
12 | (11/11) Accurately ripped

==== Log checksum C3BB846FCAA5C036FFB89C153D845430735D7790B5071417DD94FCBCED32AFC8 ====

Exact Audio Copy V1.3 from 2. September 2016

EAC extraction logfile from 14. November 2017, 23:16

Dvořák / The Complete Published Orchestral Works CD16

Used drive : MATSHITADVD-RAM UJ8E1 Adapter: 1 ID: 0

Read mode : Secure
Utilize accurate stream : Yes
Defeat audio cache : Yes
Make use of C2 pointers : No

Read offset correction : 6
Overread into Lead-In and Lead-Out : No
Fill up missing offset samples with silence : Yes
Delete leading and trailing silent blocks : No
Null samples used in CRC calculations : Yes
Used interface : Native Win32 interface for Win NT & 2000

Used output format : User Defined Encoder
Selected bitrate : 1024 kBit/s
Quality : High
Add ID3 tag : No
Command line compressor : C:\Program Files (x86)\Exact Audio Copy\FLAC\FLAC.EXE
Additional command line options : -6 -V -T "ARTIST=%artist%" -T "TITLE=%title%" -T "ALBUM=%albumtitle%" -T "DATE=%year%" -T "TRACKNUMBER=%tracknr%" -T "GENRE=%genre%" -T "COMMENT=%comment%" -T "BAND=%albuminterpret%" -T "ALBUMARTIST=%albuminterpret%" -T "COMPOSER=%composer%" %haslyrics%–tag-from-file=LYRICS="%lyricsfile%"%haslyrics% -T "DISCNUMBER=%cdnumber%" -T "TOTALDISCS=%totalcds%" -T "TOTALTRACKS=%numtracks%" %hascover%–picture="%coverfile%"%hascover% %source% -o %dest%

TOC of the extracted CD

Track | Start | Length | Start sector | End sector
––––––––––––––––––––––––––––-
1 | 0:00.00 | 9:02.25 | 0 | 40674
2 | 9:02.25 | 14:18.00 | 40675 | 105024
3 | 23:20.25 | 9:35.00 | 105025 | 148149
4 | 32:55.25 | 14:47.00 | 148150 | 214674
5 | 47:42.25 | 9:16.32 | 214675 | 256406

Range status and errors

Selected range

Filename C:\Users\Usuario\Desktop\Dvořák - The Complete Published Orchestral Works CD16.wav

Peak level 97.7 %
Extraction speed 4.5 X
Range quality 100.0 %
Test CRC 47F6967A
Copy CRC 47F6967A
Copy OK

No errors occurred

AccurateRip summary

Track 1 accurately ripped (confidence 2) [C37F8FDF] (AR v2)
Track 2 accurately ripped (confidence 2) [CA849D24] (AR v2)
Track 3 accurately ripped (confidence 2) [E0F52201] (AR v2)
Track 4 accurately ripped (confidence 2) [C5307A3C] (AR v2)
Track 5 accurately ripped (confidence 2) [98BBF9D5] (AR v2)

All tracks accurately ripped

End of status report

–– CUETools DB Plugin V2.1.6

[CTDB TOCID: PQaR7ZjxxxufEAu3DwERZ9FURBk-] found
Submit result: PQaR7ZjxxxufEAu3DwERZ9FURBk- has been confirmed, PQaR7ZjxxxufEAu3DwERZ9FURBk- has been confirmed
Track | CTDB Status
1 | (33/33) Accurately ripped
2 | (33/33) Accurately ripped
3 | (33/33) Accurately ripped
4 | (33/33) Accurately ripped
5 | (33/33) Accurately ripped

==== Log checksum 3CACDBEE105EC72BB0EA02A4ECD6B06536B803B77B1F55EBD8450D392EF0EBC9 ====

Exact Audio Copy V1.3 from 2. September 2016

EAC extraction logfile from 14. November 2017, 23:59

Dvořák / The Complete Published Orchestral Works CD17

Used drive : MATSHITADVD-RAM UJ8E1 Adapter: 1 ID: 0

Read mode : Secure
Utilize accurate stream : Yes
Defeat audio cache : Yes
Make use of C2 pointers : No

Read offset correction : 6
Overread into Lead-In and Lead-Out : No
Fill up missing offset samples with silence : Yes
Delete leading and trailing silent blocks : No
Null samples used in CRC calculations : Yes
Used interface : Native Win32 interface for Win NT & 2000

Used output format : User Defined Encoder
Selected bitrate : 1024 kBit/s
Quality : High
Add ID3 tag : No
Command line compressor : C:\Program Files (x86)\Exact Audio Copy\FLAC\FLAC.EXE
Additional command line options : -6 -V -T "ARTIST=%artist%" -T "TITLE=%title%" -T "ALBUM=%albumtitle%" -T "DATE=%year%" -T "TRACKNUMBER=%tracknr%" -T "GENRE=%genre%" -T "COMMENT=%comment%" -T "BAND=%albuminterpret%" -T "ALBUMARTIST=%albuminterpret%" -T "COMPOSER=%composer%" %haslyrics%–tag-from-file=LYRICS="%lyricsfile%"%haslyrics% -T "DISCNUMBER=%cdnumber%" -T "TOTALDISCS=%totalcds%" -T "TOTALTRACKS=%numtracks%" %hascover%–picture="%coverfile%"%hascover% %source% -o %dest%

TOC of the extracted CD

Track | Start | Length | Start sector | End sector
––––––––––––––––––––––––––––-
1 | 0:00.00 | 14:21.20 | 0 | 64594
2 | 14:21.20 | 7:48.27 | 64595 | 99721
3 | 22:09.47 | 13:52.30 | 99722 | 162151
4 | 36:02.02 | 13:02.45 | 162152 | 220846
5 | 49:04.47 | 22:34.30 | 220847 | 322426

Range status and errors

Selected range

Filename C:\Users\Usuario\Desktop\Dvořák - The Complete Published Orchestral Works CD17.wav

Peak level 99.9 %
Extraction speed 3.7 X
Range quality 99.9 %
Test CRC 6AA87743
Copy CRC 6AA87743
Copy OK

No errors occurred

AccurateRip summary

Track 1 accurately ripped (confidence 2) [B8886B60] (AR v2)
Track 2 accurately ripped (confidence 2) [F3F0E0AC] (AR v2)
Track 3 accurately ripped (confidence 2) [FDBBE9B0] (AR v2)
Track 4 accurately ripped (confidence 2) [D4B4239A] (AR v2)
Track 5 accurately ripped (confidence 2) [872F72D1] (AR v2)

All tracks accurately ripped

End of status report

–– CUETools DB Plugin V2.1.6

[CTDB TOCID: I2GHjG7giN.YIztIITujpu1rPj4-] found
Submit result: I2GHjG7giN.YIztIITujpu1rPj4- has been confirmed
Track | CTDB Status
1 | (7/7) Accurately ripped
2 | (7/7) Accurately ripped
3 | (7/7) Accurately ripped
4 | (7/7) Accurately ripped
5 | (7/7) Accurately ripped

==== Log checksum B64660CED88001C2758E64B4C163A6E3B7E5A34199191849769CCC26B3B09A4D ====

All thanks go to the Caterina Sforza

More Music in My Blog
Follow My RSS Channel