Subcategories

Antonio Carlos Jobim - The Girl From Ipanema (1996)

Posted By: SuniR
Antonio Carlos Jobim - The Girl From Ipanema (1996)

Antonio Carlos Jobim - The Girl From Ipanema: A Retrospective (1996)
EAC | FLAC (log,image+cue) -> 393 Mb (5% Rec.) | Mp3 CBR320 Kbps -> 156 Mb (5% Rec.) | Scans included
Latin Jazz, Bossa nova | Label: A&M, 540 582-2 | 1996 | 01:06:06

Antonio Carlos Jobim , also known as Tom Jobim, was a Brazilian songwriter, composer, arranger, singer, and pianist/guitarist. He was a primary force behind the creation of the bossa nova style, and his songs have been performed by many singers and instrumentalists within Brazil and internationally. Widely known as the composer of "Garota de Ipanema" ("The Girl from Ipanema"), one of the most recorded songs of all time, Jobim has left a large number of songs that are now included in jazz and pop standard repertoires. The song "Garota de Ipanema" has been recorded over 240 times by other artists.

Tracklist:

01. The Girl From Ipanema (4:46)
02. Look To The Sky (2:18)
03. Antigua (3:09)
04. Tema Jazz (4:35)
05. Caribe (2:45)
06. The Red Blouse (5:03)
07. Lamento (2:42)
08. Carinhoso (2:49)
09. Takatanga (4:33)
10. Batidinha (3:13)
11. Tide (3:45)
12. Rockanalia (4:46)
13. Mojave (2:21)
14. Triste (2:03)
15. Sue Ann (3:06)
16. Captain Bacardi (4:30)
17. Dialogo (2:51)
18. Wave (2:53)
19. Remember (3:59)

Exact Audio Copy V0.99 prebeta 5 from 4. May 2009

EAC extraction logfile from 21. March 2011, 8:50

Antonio Carlos Jobim / The Girl From Ipanema - a retrospective of Antonio Carlos Jobim

Used drive : _NEC DVD_RW ND-3500AG Adapter: 0 ID: 0

Read mode : Secure
Utilize accurate stream : Yes
Defeat audio cache : Yes
Make use of C2 pointers : No

Read offset correction : 48
Overread into Lead-In and Lead-Out : No
Fill up missing offset samples with silence : Yes
Delete leading and trailing silent blocks : No
Null samples used in CRC calculations : Yes
Used interface : Native Win32 interface for Win NT & 2000

Used output format : User Defined Encoder
Selected bitrate : 768 kBit/s
Quality : High
Add ID3 tag : No
Command line compressor : C:\Program Files\Exact Audio Copy\FLAC\FLAC.EXE
Additional command line options : -6 -V -T "ARTIST=%a" -T "TITLE=%t" -T "ALBUM=%g" -T "DATE=%y" -T "TRACKNUMBER=%n" -T "GENRE=%m" -T "COMMENT=%e" %s -o %d


TOC of the extracted CD

Track | Start | Length | Start sector | End sector
––––––––––––––––––––––––––––-
1 | 0:00.00 | 4:46.25 | 0 | 21474
2 | 4:46.25 | 2:18.20 | 21475 | 31844
3 | 7:04.45 | 3:08.47 | 31845 | 45991
4 | 10:13.17 | 4:35.35 | 45992 | 66651
5 | 14:48.52 | 2:44.70 | 66652 | 79021
6 | 17:33.47 | 5:02.48 | 79022 | 101719
7 | 22:36.20 | 2:41.40 | 101720 | 113834
8 | 25:17.60 | 2:48.62 | 113835 | 126496
9 | 28:06.47 | 4:32.65 | 126497 | 146961
10 | 32:39.37 | 3:12.65 | 146962 | 161426
11 | 35:52.27 | 3:44.68 | 161427 | 178294
12 | 39:37.20 | 4:45.50 | 178295 | 199719
13 | 44:22.70 | 2:21.07 | 199720 | 210301
14 | 46:44.02 | 2:03.23 | 210302 | 219549
15 | 48:47.25 | 3:05.62 | 219550 | 233486
16 | 51:53.12 | 4:29.50 | 233487 | 253711
17 | 56:22.62 | 2:51.15 | 253712 | 266551
18 | 59:14.02 | 2:53.13 | 266552 | 279539
19 | 62:07.15 | 3:59.20 | 279540 | 297484


Range status and errors

Selected range

Filename J:\eMusic\Rip\Antonio Carlos Jobim - The Girl From Ipanema - a retrospective of Antonio Carlos Jobim.wav

Peak level 100.0 %
Range quality 99.8 %
Test CRC 9A2EEF47
Copy CRC 9A2EEF47
Copy OK

No errors occurred


AccurateRip summary

Track 1 accurately ripped (confidence 6) [E7F2E300]
Track 2 accurately ripped (confidence 6) [402D60B4]
Track 3 accurately ripped (confidence 6) [A5992823]
Track 4 accurately ripped (confidence 6) [819CBEDA]
Track 5 accurately ripped (confidence 6) [6C9C80DC]
Track 6 accurately ripped (confidence 6) [2EAD045D]
Track 7 accurately ripped (confidence 6) [C0FEB9CF]
Track 8 accurately ripped (confidence 6) [64ACD685]
Track 9 accurately ripped (confidence 6) [B7311808]
Track 10 accurately ripped (confidence 6) [41D276D5]
Track 11 accurately ripped (confidence 6) [9DD6A1BA]
Track 12 accurately ripped (confidence 6) [4E1D664C]
Track 13 accurately ripped (confidence 6) [A231AA49]
Track 14 accurately ripped (confidence 6) [1F85FA6C]
Track 15 accurately ripped (confidence 6) [DBD801D9]
Track 16 accurately ripped (confidence 6) [F6904067]
Track 17 accurately ripped (confidence 6) [D5FEA67E]
Track 18 accurately ripped (confidence 6) [5D948351]
Track 19 accurately ripped (confidence 6) [C4636E42]

All tracks accurately ripped

End of status report

foobar2000 1.3.6 / Dynamic Range Meter 1.1.1
log date: 2016-10-03 13:50:00

––––––––––––––––––––––––––––––––––––––––
Analyzed: Antonio Carlos Jobim / The Girl From Ipanema - A Retrospective Of Antonio Carlos Jobim
––––––––––––––––––––––––––––––––––––––––

DR Peak RMS Duration Track
––––––––––––––––––––––––––––––––––––––––
DR11 -0.06 dB -14.35 dB 4:46 01-The Girl From Ipanema
DR9 -1.03 dB -12.84 dB 2:18 02-Look To The Sky
DR10 -0.01 dB -12.92 dB 3:09 03-Antigua
DR11 -0.01 dB -13.47 dB 4:35 04-Tema Jazz
DR9 -1.67 dB -12.05 dB 2:45 05-Caribe
DR11 0.00 dB -14.02 dB 5:03 06-The Red Blouse
DR12 0.00 dB -15.08 dB 2:42 07-Lamento
DR9 -1.45 dB -11.92 dB 2:49 08-Carinhoso
DR10 -1.36 dB -13.29 dB 4:33 09-Takatanga
DR10 0.00 dB -12.74 dB 3:13 10-Batidinha
DR11 -0.02 dB -14.60 dB 3:45 11-Tide
DR9 -0.02 dB -10.68 dB 4:46 12-Rockanalia
DR9 -1.58 dB -13.14 dB 2:21 13-Mojave
DR10 -0.02 dB -12.65 dB 2:03 14-Triste
DR11 0.00 dB -13.71 dB 3:06 15-Sue Ann
DR12 -0.02 dB -15.15 dB 4:30 16-Captain Bacardi
DR9 -0.05 dB -11.83 dB 2:51 17-Dialogo
DR10 -0.06 dB -13.10 dB 2:53 18-Wave
DR10 -0.04 dB -11.47 dB 3:59 19-Remember
––––––––––––––––––––––––––––––––––––––––

Number of tracks: 19
Official DR value: DR10

Samplerate: 44100 Hz
Channels: 2
Bits per sample: 16
Bitrate: 782 kbps
Codec: FLAC
================================================================================

Thanks to the original releaser
Download
Nitroflare